  0
SECTION
  2
HEADER
  9
$ACADVER
  1
AC1024
  9
$ACADMAINTVER
 70
   183
  9
$DWGCODEPAGE
  3
ANSI_932
  9
$LASTSAVEDBY
  1
wada
  9
$INSBASE
 10
0.0
 20
0.0
 30
0.0
  9
$EXTMIN
 10
-0.0256505964844109
 20
-0.0181170681464664
 30
-0.0000000000000053
  9
$EXTMAX
 10
841.0256731161034
 20
594.0181329738002
 30
0.0000000000000099
  9
$LIMMIN
 10
0.0
 20
0.0
  9
$LIMMAX
 10
420.0
 20
297.0
  9
$ORTHOMODE
 70
     1
  9
$REGENMODE
 70
     1
  9
$FILLMODE
 70
     1
  9
$QTEXTMODE
 70
     0
  9
$MIRRTEXT
 70
     0
  9
$LTSCALE
 40
0.3
  9
$ATTMODE
 70
     1
  9
$TEXTSIZE
 40
5.0
  9
$TRACEWID
 40
1.0
  9
$TEXTSTYLE
  7
文字
  9
$CLAYER
  8
01_仮想線
  9
$CELTYPE
  6
ByLayer
  9
$CECOLOR
 62
   256
  9
$CELTSCALE
 40
1.0
  9
$DISPSILH
 70
     0
  9
$DIMSCALE
 40
1.0
  9
$DIMASZ
 40
7.0
  9
$DIMEXO
 40
1.5
  9
$DIMDLI
 40
10.0
  9
$DIMRND
 40
0.0
  9
$DIMDLE
 40
0.0
  9
$DIMEXE
 40
0.0
  9
$DIMTP
 40
0.0
  9
$DIMTM
 40
0.0
  9
$DIMTXT
 40
5.0
  9
$DIMCEN
 40
0.0
  9
$DIMTSZ
 40
0.0
  9
$DIMTOL
 70
     0
  9
$DIMLIM
 70
     0
  9
$DIMTIH
 70
     0
  9
$DIMTOH
 70
     0
  9
$DIMSE1
 70
     0
  9
$DIMSE2
 70
     0
  9
$DIMTAD
 70
     1
  9
$DIMZIN
 70
     8
  9
$DIMBLK
  1
DotSmall
  9
$DIMASO
 70
     1
  9
$DIMSHO
 70
     1
  9
$DIMPOST
  1

  9
$DIMAPOST
  1

  9
$DIMALT
 70
     0
  9
$DIMALTD
 70
     3
  9
$DIMALTF
 40
0.03937007874016
  9
$DIMLFAC
 40
1.0
  9
$DIMTOFL
 70
     1
  9
$DIMTVP
 40
0.0
  9
$DIMTIX
 70
     1
  9
$DIMSOXD
 70
     0
  9
$DIMSAH
 70
     0
  9
$DIMBLK1
  1

  9
$DIMBLK2
  1

  9
$DIMSTYLE
  2
寸法(1-1)
  9
$DIMCLRD
 70
   256
  9
$DIMCLRE
 70
   256
  9
$DIMCLRT
 70
   256
  9
$DIMTFAC
 40
1.0
  9
$DIMGAP
 40
1.0
  9
$DIMJUST
 70
     0
  9
$DIMSD1
 70
     0
  9
$DIMSD2
 70
     0
  9
$DIMTOLJ
 70
     0
  9
$DIMTZIN
 70
     8
  9
$DIMALTZ
 70
     0
  9
$DIMALTTZ
 70
     0
  9
$DIMUPT
 70
     0
  9
$DIMDEC
 70
     2
  9
$DIMTDEC
 70
     2
  9
$DIMALTU
 70
     2
  9
$DIMALTTD
 70
     3
  9
$DIMTXSTY
  7
文字
  9
$DIMAUNIT
 70
     0
  9
$DIMADEC
 70
     0
  9
$DIMALTRND
 40
0.0
  9
$DIMAZIN
 70
     0
  9
$DIMDSEP
 70
    46
  9
$DIMATFIT
 70
     3
  9
$DIMFRAC
 70
     0
  9
$DIMLDRBLK
  1
None
  9
$DIMLUNIT
 70
     2
  9
$DIMLWD
 70
    -1
  9
$DIMLWE
 70
    -1
  9
$DIMTMOVE
 70
     1
  9
$DIMFXL
 40
1.0
  9
$DIMFXLON
 70
     0
  9
$DIMJOGANG
 40
0.7853981633974483
  9
$DIMTFILL
 70
     0
  9
$DIMTFILLCLR
 70
     0
  9
$DIMARCSYM
 70
     0
  9
$DIMLTYPE
  6
ByLayer
  9
$DIMLTEX1
  6
ByLayer
  9
$DIMLTEX2
  6
ByLayer
  9
$DIMTXTDIRECTION
 70
     0
  9
$LUNITS
 70
     2
  9
$LUPREC
 70
     4
  9
$SKETCHINC
 40
1.0
  9
$FILLETRAD
 40
1.6
  9
$AUNITS
 70
     0
  9
$AUPREC
 70
     0
  9
$MENU
  1
.
  9
$ELEVATION
 40
0.0
  9
$PELEVATION
 40
0.0
  9
$THICKNESS
 40
0.0
  9
$LIMCHECK
 70
     0
  9
$CHAMFERA
 40
0.0
  9
$CHAMFERB
 40
0.0
  9
$CHAMFERC
 40
0.0
  9
$CHAMFERD
 40
0.0
  9
$SKPOLY
 70
     0
  9
$TDCREATE
 40
2458517.519039352
  9
$TDUCREATE
 40
2458517.144039352
  9
$TDUPDATE
 40
2459350.622086204
  9
$TDUUPDATE
 40
2459350.247086204
  9
$TDINDWG
 40
0.7531975810
  9
$TDUSRTIMER
 40
0.7531975810
  9
$USRTIMER
 70
     1
  9
$ANGBASE
 50
0.0
  9
$ANGDIR
 70
     0
  9
$PDMODE
 70
     0
  9
$PDSIZE
 40
0.0
  9
$PLINEWID
 40
0.0
  9
$SPLFRAME
 70
     0
  9
$SPLINETYPE
 70
     6
  9
$SPLINESEGS
 70
     8
  9
$HANDSEED
  5
57CC
  9
$SURFTAB1
 70
     6
  9
$SURFTAB2
 70
     6
  9
$SURFTYPE
 70
     6
  9
$SURFU
 70
     6
  9
$SURFV
 70
     6
  9
$UCSBASE
  2

  9
$UCSNAME
  2

  9
$UCSORG
 10
0.0
 20
0.0
 30
0.0
  9
$UCSXDIR
 10
1.0
 20
0.0
 30
0.0
  9
$UCSYDIR
 10
0.0
 20
1.0
 30
0.0
  9
$UCSORTHOREF
  2

  9
$UCSORTHOVIEW
 70
     0
  9
$UCSORGTOP
 10
0.0
 20
0.0
 30
0.0
  9
$UCSORGBOTTOM
 10
0.0
 20
0.0
 30
0.0
  9
$UCSORGLEFT
 10
0.0
 20
0.0
 30
0.0
  9
$UCSORGRIGHT
 10
0.0
 20
0.0
 30
0.0
  9
$UCSORGFRONT
 10
0.0
 20
0.0
 30
0.0
  9
$UCSORGBACK
 10
0.0
 20
0.0
 30
0.0
  9
$PUCSBASE
  2

  9
$PUCSNAME
  2

  9
$PUCSORG
 10
0.0
 20
0.0
 30
0.0
  9
$PUCSXDIR
 10
1.0
 20
0.0
 30
0.0
  9
$PUCSYDIR
 10
0.0
 20
1.0
 30
0.0
  9
$PUCSORTHOREF
  2

  9
$PUCSORTHOVIEW
 70
     0
  9
$PUCSORGTOP
 10
0.0
 20
0.0
 30
0.0
  9
$PUCSORGBOTTOM
 10
0.0
 20
0.0
 30
0.0
  9
$PUCSORGLEFT
 10
0.0
 20
0.0
 30
0.0
  9
$PUCSORGRIGHT
 10
0.0
 20
0.0
 30
0.0
  9
$PUCSORGFRONT
 10
0.0
 20
0.0
 30
0.0
  9
$PUCSORGBACK
 10
0.0
 20
0.0
 30
0.0
  9
$USERI1
 70
     0
  9
$USERI2
 70
     0
  9
$USERI3
 70
     0
  9
$USERI4
 70
     0
  9
$USERI5
 70
     0
  9
$USERR1
 40
0.0
  9
$USERR2
 40
0.0
  9
$USERR3
 40
0.0
  9
$USERR4
 40
0.0
  9
$USERR5
 40
0.0
  9
$WORLDVIEW
 70
     1
  9
$SHADEDGE
 70
     3
  9
$SHADEDIF
 70
    70
  9
$TILEMODE
 70
     1
  9
$MAXACTVP
 70
    64
  9
$PINSBASE
 10
0.0
 20
0.0
 30
0.0
  9
$PLIMCHECK
 70
     0
  9
$PEXTMIN
 10
0.0
 20
0.0
 30
0.0
  9
$PEXTMAX
 10
0.0
 20
0.0
 30
0.0
  9
$PLIMMIN
 10
0.0
 20
0.0
  9
$PLIMMAX
 10
12.0
 20
9.0
  9
$UNITMODE
 70
     0
  9
$VISRETAIN
 70
     1
  9
$PLINEGEN
 70
     0
  9
$PSLTSCALE
 70
     1
  9
$TREEDEPTH
 70
  3020
  9
$CMLSTYLE
  2
Standard
  9
$CMLJUST
 70
     0
  9
$CMLSCALE
 40
20.0
  9
$PROXYGRAPHICS
 70
     1
  9
$MEASUREMENT
 70
     1
  9
$CELWEIGHT
370
    -1
  9
$ENDCAPS
280
     0
  9
$JOINSTYLE
280
     0
  9
$LWDISPLAY
290
     0
  9
$INSUNITS
 70
     4
  9
$HYPERLINKBASE
  1

  9
$STYLESHEET
  1
monochrome.ctb
  9
$XEDIT
290
     1
  9
$CEPSNTYPE
380
     0
  9
$PSTYLEMODE
290
     1
  9
$FINGERPRINTGUID
  2
{36065406-405B-9E42-9A5B-834788FB4A87}
  9
$VERSIONGUID
  2
{FF0FF28A-B49B-4BCB-8C54-ECE2A474808F}
  9
$EXTNAMES
290
     1
  9
$PSVPSCALE
 40
0.0
  9
$OLESTARTUP
290
     0
  9
$SORTENTS
280
   127
  9
$INDEXCTL
280
     0
  9
$HIDETEXT
280
     1
  9
$XCLIPFRAME
280
     2
  9
$HALOGAP
280
     0
  9
$OBSCOLOR
 70
   257
  9
$OBSLTYPE
280
     0
  9
$INTERSECTIONDISPLAY
280
     0
  9
$INTERSECTIONCOLOR
 70
   257
  9
$DIMASSOC
280
     2
  9
$PROJECTNAME
  1

  9
$CAMERADISPLAY
290
     0
  9
$LENSLENGTH
 40
50.0
  9
$CAMERAHEIGHT
 40
0.0
  9
$STEPSPERSEC
 40
2.0
  9
$STEPSIZE
 40
6.0
  9
$3DDWFPREC
 40
2.0
  9
$PSOLWIDTH
 40
5.0
  9
$PSOLHEIGHT
 40
80.0
  9
$LOFTANG1
 40
1.570796326794896
  9
$LOFTANG2
 40
1.570796326794896
  9
$LOFTMAG1
 40
0.0
  9
$LOFTMAG2
 40
0.0
  9
$LOFTPARAM
 70
     7
  9
$LOFTNORMALS
280
     1
  9
$LATITUDE
 40
37.795
  9
$LONGITUDE
 40
-122.394
  9
$NORTHDIRECTION
 40
0.0
  9
$TIMEZONE
 70
 -8000
  9
$LIGHTGLYPHDISPLAY
280
     1
  9
$TILEMODELIGHTSYNCH
280
     1
  9
$CMATERIAL
347
EC
  9
$SOLIDHIST
280
     0
  9
$SHOWHIST
280
     1
  9
$DWFFRAME
280
     2
  9
$DGNFRAME
280
     0
  9
$REALWORLDSCALE
290
     1
  9
$INTERFERECOLOR
 62
     1
  9
$INTERFEREOBJVS
345
F9
  9
$INTERFEREVPVS
346
F6
  9
$CSHADOW
280
     0
  9
$SHADOWPLANELOCATION
 40
0.0
  0
ENDSEC
  0
SECTION
  2
CLASSES
  0
CLASS
  1
ACDBDICTIONARYWDFLT
  2
AcDbDictionaryWithDefault
  3
ObjectDBX Classes
 90
        0
 91
        1
280
     0
281
     0
  0
CLASS
  1
DICTIONARYVAR
  2
AcDbDictionaryVar
  3
ObjectDBX Classes
 90
        0
 91
       20
280
     0
281
     0
  0
CLASS
  1
TABLESTYLE
  2
AcDbTableStyle
  3
ObjectDBX Classes
 90
     4095
 91
        1
280
     0
281
     0
  0
CLASS
  1
MATERIAL
  2
AcDbMaterial
  3
ObjectDBX Classes
 90
     1153
 91
        3
280
     0
281
     0
  0
CLASS
  1
VISUALSTYLE
  2
AcDbVisualStyle
  3
ObjectDBX Classes
 90
     4095
 91
       24
280
     0
281
     0
  0
CLASS
  1
SCALE
  2
AcDbScale
  3
ObjectDBX Classes
 90
     1153
 91
       17
280
     0
281
     0
  0
CLASS
  1
MLEADERSTYLE
  2
AcDbMLeaderStyle
  3
ACDB_MLEADERSTYLE_CLASS
 90
     4095
 91
        4
280
     0
281
     0
  0
CLASS
  1
CELLSTYLEMAP
  2
AcDbCellStyleMap
  3
ObjectDBX Classes
 90
     1152
 91
        1
280
     0
281
     0
  0
CLASS
  1
EXACXREFPANELOBJECT
  2
ExAcXREFPanelObject
  3
EXAC_ESW
 90
     1025
 91
        0
280
     0
281
     0
  0
CLASS
  1
NPOCOLLECTION
  2
AcDbImpNonPersistentObjectsCollection
  3
ObjectDBX Classes
 90
     1153
 91
        0
280
     0
281
     0
  0
CLASS
  1
LAYER_INDEX
  2
AcDbLayerIndex
  3
ObjectDBX Classes
 90
        0
 91
        0
280
     0
281
     0
  0
CLASS
  1
SPATIAL_INDEX
  2
AcDbSpatialIndex
  3
ObjectDBX Classes
 90
        0
 91
        0
280
     0
281
     0
  0
CLASS
  1
IDBUFFER
  2
AcDbIdBuffer
  3
ObjectDBX Classes
 90
        0
 91
        0
280
     0
281
     0
  0
CLASS
  1
ACDBSECTIONVIEWSTYLE
  2
AcDbSectionViewStyle
  3
ObjectDBX Classes
 90
     1025
 91
        2
280
     0
281
     0
  0
CLASS
  1
ACDBDETAILVIEWSTYLE
  2
AcDbDetailViewStyle
  3
ObjectDBX Classes
 90
     1025
 91
        2
280
     0
281
     0
  0
CLASS
  1
MULTILEADER
  2
AcDbMLeader
  3
ACDB_MLEADER_CLASS
 90
     1025
 91
        0
280
     0
281
     1
  0
CLASS
  1
SORTENTSTABLE
  2
AcDbSortentsTable
  3
ObjectDBX Classes
 90
        0
 91
        3
280
     0
281
     0
  0
CLASS
  1
PLOTSETTINGS
  2
AcDbPlotSettings
  3
ObjectDBX Classes
 90
        0
 91
        3
280
     0
281
     0
  0
CLASS
  1
DIMASSOC
  2
AcDbDimAssoc
  3
"AcDbDimAssoc|Product Desc:     AcDim ARX App For Dimension|Company:          Autodesk, Inc.|WEB Address:      www.autodesk.com"
 90
        0
 91
        0
280
     0
281
     0
  0
CLASS
  1
RASTERVARIABLES
  2
AcDbRasterVariables
  3
ISM
 90
        0
 91
        1
280
     0
281
     0
  0
CLASS
  1
WIPEOUTVARIABLES
  2
AcDbWipeoutVariables
  3
"WipeOut|Product Desc:     WipeOut Dbx Application|Company:          Autodesk, Inc.|WEB Address:      www.autodesk.com"
 90
        0
 91
        1
280
     0
281
     0
  0
ENDSEC
  0
SECTION
  2
TABLES
  0
TABLE
  2
VPORT
  5
8
102
{ACAD_XDICTIONARY
360
276D
102
}
330
0
100
AcDbSymbolTable
 70
     1
  0
VPORT
  5
EA
330
8
100
AcDbSymbolTableRecord
100
AcDbViewportTableRecord
  2
*Active
 70
     0
 10
0.0
 20
0.0
 11
1.0
 21
1.0
 12
420.5000112598095
 22
297.0000079528269
 13
0.0
 23
0.0
 14
10.0
 24
10.0
 15
10.0
 25
10.0
 16
0.0
 26
0.0
 36
1.0
 17
0.0
 27
0.0
 37
0.0
 40
598.2894928823425
 41
1.794504181600955
 42
50.0
 43
0.0
 44
0.0
 50
0.0
 51
0.0
 71
     0
 72
  1000
 73
     1
 74
     3
 75
     0
 76
     0
 77
     0
 78
     0
281
     0
 65
     1
110
0.0
120
0.0
130
0.0
111
1.0
121
0.0
131
0.0
112
0.0
122
1.0
132
0.0
 79
     0
146
0.0
348
F5
 60
     3
 61
     5
292
     1
282
     1
141
0.0
142
0.0
 63
   250
421
  3355443
1001
ACAD_NAV_VCDISPLAY
1070
     3
  0
ENDTAB
  0
TABLE
  2
LTYPE
  5
5
330
0
100
AcDbSymbolTable
 70
     6
  0
LTYPE
  5
14
330
5
100
AcDbSymbolTableRecord
100
AcDbLinetypeTableRecord
  2
ByBlock
 70
     0
  3

 72
    65
 73
     0
 40
0.0
  0
LTYPE
  5
15
330
5
100
AcDbSymbolTableRecord
100
AcDbLinetypeTableRecord
  2
ByLayer
 70
     0
  3

 72
    65
 73
     0
 40
0.0
  0
LTYPE
  5
16
330
5
100
AcDbSymbolTableRecord
100
AcDbLinetypeTableRecord
  2
Continuous
 70
     0
  3
Solid line
 72
    65
 73
     0
 40
0.0
  0
LTYPE
  5
289
330
5
100
AcDbSymbolTableRecord
100
AcDbLinetypeTableRecord
  2
HIDDEN
 70
     0
  3
Hidden __ __ __ __ __ __ __ __ __ __ __ __ __ _
 72
    65
 73
     2
 40
9.524999999999998
 49
6.349999999999999
 74
     0
 49
-3.174999999999999
 74
     0
  0
LTYPE
  5
28B
330
5
100
AcDbSymbolTableRecord
100
AcDbLinetypeTableRecord
  2
CENTER
 70
     0
  3
Center ____ _ ____ _ ____ _ ____ _ ____ _ ____
 72
    65
 73
     4
 40
50.8
 49
31.75
 74
     0
 49
-6.349999999999999
 74
     0
 49
6.349999999999999
 74
     0
 49
-6.349999999999999
 74
     0
  0
LTYPE
  5
28D
330
5
100
AcDbSymbolTableRecord
100
AcDbLinetypeTableRecord
  2
PHANTOM
 70
     0
  3
Phantom ______  __  __  ______  __  __  ______
 72
    65
 73
     6
 40
63.5
 49
31.75
 74
     0
 49
-6.349999999999999
 74
     0
 49
6.349999999999999
 74
     0
 49
-6.349999999999999
 74
     0
 49
6.349999999999999
 74
     0
 49
-6.349999999999999
 74
     0
  0
LTYPE
  5
424C
330
5
100
AcDbSymbolTableRecord
100
AcDbLinetypeTableRecord
  2
DASHDOT
 70
     0
  3
DASHDOT
 72
    65
 73
     4
 40
14.5
 49
30.0
 74
     0
 49
-9.0
 74
     0
 49
2.5
 74
     0
 49
-9.0
 74
     0
  0
LTYPE
  5
43E5
330
5
100
AcDbSymbolTableRecord
100
AcDbLinetypeTableRecord
  2
DOT
 70
     0
  3
DOT
 72
    65
 73
     2
 40
4.0
 49
6.0
 74
     0
 49
-2.0
 74
     0
  0
ENDTAB
  0
TABLE
  2
LAYER
  5
2
102
{ACAD_XDICTIONARY
360
1FF
102
}
330
0
100
AcDbSymbolTable
 70
    28
  0
LAYER
  5
10
102
{ACAD_XDICTIONARY
360
13C
102
}
330
2
100
AcDbSymbolTableRecord
100
AcDbLayerTableRecord
  2
0
 70
     0
 62
     7
  6
Continuous
370
    -3
390
F
347
EE
  0
LAYER
  5
281
330
2
100
AcDbSymbolTableRecord
100
AcDbLayerTableRecord
  2
01_仮想線
 70
     0
 62
   251
  6
Continuous
290
     0
370
    13
390
F
347
EE
1001
AcAecLayerStandard
1000

1000

1001
AcCmTransparency
1071
        0
  0
LAYER
  5
284
330
2
100
AcDbSymbolTableRecord
100
AcDbLayerTableRecord
  2
02_図枠
 70
     0
 62
     7
  6
Continuous
370
    13
390
F
347
EE
1001
AcAecLayerStandard
1000

1000

1001
AcCmTransparency
1071
        0
  0
LAYER
  5
285
330
2
100
AcDbSymbolTableRecord
100
AcDbLayerTableRecord
  2
03_枠(実線)
 70
     0
 62
     3
  6
Continuous
370
    13
390
F
347
EE
1001
AcAecLayerStandard
1000

1000

1001
AcCmTransparency
1071
        0
  0
LAYER
  5
286
330
2
100
AcDbSymbolTableRecord
100
AcDbLayerTableRecord
  2
04_枠(破線)
 70
     0
 62
     3
  6
HIDDEN
370
    13
390
F
347
EE
1001
AcAecLayerStandard
1000

1000

1001
AcCmTransparency
1071
        0
  0
LAYER
  5
28A
330
2
100
AcDbSymbolTableRecord
100
AcDbLayerTableRecord
  2
05_枠(一点鎖線)
 70
     0
 62
     3
  6
CENTER
370
    13
390
F
347
EE
1001
AcAecLayerStandard
1000

1000

1001
AcCmTransparency
1071
        0
  0
LAYER
  5
28C
330
2
100
AcDbSymbolTableRecord
100
AcDbLayerTableRecord
  2
06_枠(二点鎖線)
 70
     0
 62
     3
  6
PHANTOM
370
    13
390
F
347
EE
1001
AcAecLayerStandard
1000

1000

1001
AcCmTransparency
1071
        0
  0
LAYER
  5
28E
330
2
100
AcDbSymbolTableRecord
100
AcDbLayerTableRecord
  2
07_扉(実線)
 70
     0
 62
     5
  6
Continuous
370
    13
390
F
347
EE
1001
AcAecLayerStandard
1000

1000

1001
AcCmTransparency
1071
        0
  0
LAYER
  5
28F
330
2
100
AcDbSymbolTableRecord
100
AcDbLayerTableRecord
  2
08_扉(破線)
 70
     0
 62
     5
  6
HIDDEN
370
    13
390
F
347
EE
1001
AcAecLayerStandard
1000

1000

1001
AcCmTransparency
1071
        0
  0
LAYER
  5
290
330
2
100
AcDbSymbolTableRecord
100
AcDbLayerTableRecord
  2
09_扉(一点鎖線)
 70
     0
 62
     5
  6
CENTER
370
    13
390
F
347
EE
1001
AcAecLayerStandard
1000

1000

1001
AcCmTransparency
1071
        0
  0
LAYER
  5
291
330
2
100
AcDbSymbolTableRecord
100
AcDbLayerTableRecord
  2
10_扉(二点鎖線)
 70
     0
 62
     5
  6
PHANTOM
370
    13
390
F
347
EE
1001
AcAecLayerStandard
1000

1000

1001
AcCmTransparency
1071
        0
  0
LAYER
  5
292
330
2
100
AcDbSymbolTableRecord
100
AcDbLayerTableRecord
  2
11_金物(実線)
 70
     0
 62
     2
  6
Continuous
370
    13
390
F
347
EE
1001
AcAecLayerStandard
1000

1000

1001
AcCmTransparency
1071
        0
  0
LAYER
  5
293
330
2
100
AcDbSymbolTableRecord
100
AcDbLayerTableRecord
  2
12_金物(破線)
 70
     0
 62
     2
  6
HIDDEN
370
    13
390
F
347
EE
1001
AcAecLayerStandard
1000

1000

1001
AcCmTransparency
1071
        0
  0
LAYER
  5
294
330
2
100
AcDbSymbolTableRecord
100
AcDbLayerTableRecord
  2
13_金物(一点鎖線)
 70
     0
 62
     2
  6
CENTER
370
    13
390
F
347
EE
1001
AcAecLayerStandard
1000

1000

1001
AcCmTransparency
1071
        0
  0
LAYER
  5
295
330
2
100
AcDbSymbolTableRecord
100
AcDbLayerTableRecord
  2
14_金物(二点鎖線)
 70
     0
 62
     2
  6
PHANTOM
370
    13
390
F
347
EE
1001
AcAecLayerStandard
1000

1000

1001
AcCmTransparency
1071
        0
  0
LAYER
  5
296
330
2
100
AcDbSymbolTableRecord
100
AcDbLayerTableRecord
  2
15_納まり(実線)
 70
     0
 62
     4
  6
Continuous
370
    13
390
F
347
EE
1001
AcAecLayerStandard
1000

1000

1001
AcCmTransparency
1071
        0
  0
LAYER
  5
297
330
2
100
AcDbSymbolTableRecord
100
AcDbLayerTableRecord
  2
16_納まり(破線)
 70
     0
 62
     4
  6
HIDDEN
370
    13
390
F
347
EE
1001
AcAecLayerStandard
1000

1000

1001
AcCmTransparency
1071
        0
  0
LAYER
  5
298
330
2
100
AcDbSymbolTableRecord
100
AcDbLayerTableRecord
  2
17_納まり(一点鎖線)
 70
     0
 62
     4
  6
CENTER
370
    13
390
F
347
EE
1001
AcAecLayerStandard
1000

1000

1001
AcCmTransparency
1071
        0
  0
LAYER
  5
299
330
2
100
AcDbSymbolTableRecord
100
AcDbLayerTableRecord
  2
18_納まり(二点鎖線)
 70
     0
 62
     4
  6
PHANTOM
370
    13
390
F
347
EE
1001
AcAecLayerStandard
1000

1000

1001
AcCmTransparency
1071
        0
  0
LAYER
  5
29A
330
2
100
AcDbSymbolTableRecord
100
AcDbLayerTableRecord
  2
19_寸法線・引出線
 70
     0
 62
     1
  6
Continuous
370
    13
390
F
347
EE
1001
AcAecLayerStandard
1000

1000

1001
AcCmTransparency
1071
        0
  0
LAYER
  5
29B
330
2
100
AcDbSymbolTableRecord
100
AcDbLayerTableRecord
  2
20_文字
 70
     0
 62
     6
  6
Continuous
370
    13
390
F
347
EE
1001
AcAecLayerStandard
1000

1000

1001
AcCmTransparency
1071
        0
  0
LAYER
  5
2BE
330
2
100
AcDbSymbolTableRecord
100
AcDbLayerTableRecord
  2
Defpoints
 70
     0
 62
     7
  6
Continuous
290
     0
370
    -3
390
F
347
EE
  0
LAYER
  5
424D
102
{ACAD_XDICTIONARY
360
424E
102
}
330
2
100
AcDbSymbolTableRecord
100
AcDbLayerTableRecord
  2
2
 70
     0
 62
   134
  6
Continuous
370
    -3
390
F
347
EE
  0
LAYER
  5
424F
102
{ACAD_XDICTIONARY
360
4250
102
}
330
2
100
AcDbSymbolTableRecord
100
AcDbLayerTableRecord
  2
4
 70
     0
 62
    30
  6
Continuous
370
    -3
390
F
347
EE
  0
LAYER
  5
4251
102
{ACAD_XDICTIONARY
360
4252
102
}
330
2
100
AcDbSymbolTableRecord
100
AcDbLayerTableRecord
  2
6
 70
     0
 62
     1
  6
Continuous
370
     9
390
F
347
EE
  0
LAYER
  5
4253
102
{ACAD_XDICTIONARY
360
4254
102
}
330
2
100
AcDbSymbolTableRecord
100
AcDbLayerTableRecord
  2
24
 70
     0
 62
     5
  6
Continuous
370
    -3
390
F
347
EE
  0
LAYER
  5
46B6
102
{ACAD_XDICTIONARY
360
46B7
102
}
330
2
100
AcDbSymbolTableRecord
100
AcDbLayerTableRecord
  2
3
 70
     0
 62
     5
  6
Continuous
370
    -3
390
F
347
EE
  0
LAYER
  5
46B8
102
{ACAD_XDICTIONARY
360
46B9
102
}
330
2
100
AcDbSymbolTableRecord
100
AcDbLayerTableRecord
  2
25
 70
     0
 62
    30
  6
Continuous
370
    -3
390
F
347
EE
  0
ENDTAB
  0
TABLE
  2
STYLE
  5
3
330
0
100
AcDbSymbolTable
 70
     4
  0
STYLE
  5
11
330
3
100
AcDbSymbolTableRecord
100
AcDbTextStyleTableRecord
  2
Standard
 70
     0
 40
0.0
 41
1.0
 50
0.0
 71
     0
 42
2.5
  3
arial.ttf
  4

1001
ACAD
1000
Arial
1071
       34
  0
STYLE
  5
132
330
3
100
AcDbSymbolTableRecord
100
AcDbTextStyleTableRecord
  2
Annotative
 70
     0
 40
0.0
 41
1.0
 50
0.0
 71
     0
 42
2.5
  3
arial.ttf
  4

1001
AcadAnnotative
1000
AnnotativeData
1002
{
1070
     1
1070
     1
1002
}
1001
ACAD
1000
Arial
1071
       34
  0
STYLE
  5
288
330
3
100
AcDbSymbolTableRecord
100
AcDbTextStyleTableRecord
  2

 70
     1
 40
0.0
 41
1.0
 50
0.0
 71
     0
 42
2.5
  3
ltypeshp.shx
  4

  0
STYLE
  5
29D
330
3
100
AcDbSymbolTableRecord
100
AcDbTextStyleTableRecord
  2
文字
 70
     0
 40
0.0
 41
0.7
 50
0.0
 71
     0
 42
5.0
  3
romans.shx
  4
extfont2.shx
  0
ENDTAB
  0
TABLE
  2
VIEW
  5
6
330
0
100
AcDbSymbolTable
 70
     1
  0
ENDTAB
  0
TABLE
  2
UCS
  5
7
330
0
100
AcDbSymbolTable
 70
     0
  0
ENDTAB
  0
TABLE
  2
APPID
  5
9
330
0
100
AcDbSymbolTable
 70
    19
  0
APPID
  5
12
330
9
100
AcDbSymbolTableRecord
100
AcDbRegAppTableRecord
  2
ACAD
 70
     0
  0
APPID
  5
9E
330
9
100
AcDbSymbolTableRecord
100
AcDbRegAppTableRecord
  2
ACAD_PSEXT
 70
     0
  0
APPID
  5
133
330
9
100
AcDbSymbolTableRecord
100
AcDbRegAppTableRecord
  2
AcadAnnoPO
 70
     0
  0
APPID
  5
134
330
9
100
AcDbSymbolTableRecord
100
AcDbRegAppTableRecord
  2
AcadAnnotative
 70
     0
  0
APPID
  5
135
330
9
100
AcDbSymbolTableRecord
100
AcDbRegAppTableRecord
  2
ACAD_DSTYLE_DIMJAG
 70
     0
  0
APPID
  5
136
330
9
100
AcDbSymbolTableRecord
100
AcDbRegAppTableRecord
  2
ACAD_DSTYLE_DIMTALN
 70
     0
  0
APPID
  5
165
330
9
100
AcDbSymbolTableRecord
100
AcDbRegAppTableRecord
  2
ACAD_MLEADERVER
 70
     0
  0
APPID
  5
217
330
9
100
AcDbSymbolTableRecord
100
AcDbRegAppTableRecord
  2
ACAD_NAV_VCDISPLAY
 70
     0
  0
APPID
  5
282
330
9
100
AcDbSymbolTableRecord
100
AcDbRegAppTableRecord
  2
AcAecLayerStandard
 70
     0
  0
APPID
  5
283
330
9
100
AcDbSymbolTableRecord
100
AcDbRegAppTableRecord
  2
AcCmTransparency
 70
     0
  0
APPID
  5
2A2
330
9
100
AcDbSymbolTableRecord
100
AcDbRegAppTableRecord
  2
ACAD_DSTYLE_DIMBREAK
 70
     0
  0
APPID
  5
2DD
330
9
100
AcDbSymbolTableRecord
100
AcDbRegAppTableRecord
  2
AcadAnnoMonitorAlertIconDisabled
 70
     0
  0
APPID
  5
2DE
330
9
100
AcDbSymbolTableRecord
100
AcDbRegAppTableRecord
  2
ACAD_EXEMPT_FROM_CAD_STANDARDS
 70
     0
  0
APPID
  5
886
330
9
100
AcDbSymbolTableRecord
100
AcDbRegAppTableRecord
  2
GradientColor1ACI
 70
     0
  0
APPID
  5
887
330
9
100
AcDbSymbolTableRecord
100
AcDbRegAppTableRecord
  2
GradientColor2ACI
 70
     0
  0
APPID
  5
1669
330
9
100
AcDbSymbolTableRecord
100
AcDbRegAppTableRecord
  2
ACAD_DSTYLE_DIMRADIAL_EXTENSION
 70
     0
  0
APPID
  5
27AC
330
9
100
AcDbSymbolTableRecord
100
AcDbRegAppTableRecord
  2
ACAD_DSTYLE_DIM_LINETYPE
 70
     0
  0
APPID
  5
27AD
330
9
100
AcDbSymbolTableRecord
100
AcDbRegAppTableRecord
  2
ACAD_DSTYLE_DIM_EXT1_LINETYPE
 70
     0
  0
APPID
  5
27AE
330
9
100
AcDbSymbolTableRecord
100
AcDbRegAppTableRecord
  2
ACAD_DSTYLE_DIM_EXT2_LINETYPE
 70
     0
  0
ENDTAB
  0
TABLE
  2
DIMSTYLE
  5
A
330
0
100
AcDbSymbolTable
 70
     7
100
AcDbDimStyleTable
 71
     5
340
2BC
340
125C
340
544
340
5B6
340
1B0
  0
DIMSTYLE
105
1B0
330
A
100
AcDbSymbolTableRecord
100
AcDbDimStyleTableRecord
  2
Standard
 70
     0
340
11
  0
DIMSTYLE
105
137
330
A
100
AcDbSymbolTableRecord
100
AcDbDimStyleTableRecord
  2
Annotative
 70
     0
 40
0.0
 41
2.5
 42
0.625
 43
3.75
 44
1.25
 73
     0
 74
     0
 77
     1
 78
     8
140
2.5
141
2.5
143
0.03937007874016
147
0.625
171
     3
172
     1
271
     2
272
     2
274
     3
278
    44
283
     0
284
     8
340
11
1001
AcadAnnotative
1000
AnnotativeData
1002
{
1070
     1
1070
     1
1002
}
1001
ACAD_DSTYLE_DIMJAG
1070
   388
1040
1.5
1001
ACAD_DSTYLE_DIMTALN
1070
   392
1070
     0
  0
DIMSTYLE
105
27
330
A
100
AcDbSymbolTableRecord
100
AcDbDimStyleTableRecord
  2
ISO-25
 70
     0
 41
2.5
 42
0.625
 43
3.75
 44
1.25
 73
     0
 74
     0
 77
     1
 78
     8
140
2.5
141
2.5
143
0.03937007874016
147
0.625
171
     3
172
     1
271
     2
272
     2
274
     3
278
    44
283
     0
284
     8
340
11
  0
DIMSTYLE
105
2BC
102
{ACAD_REACTORS
330
3AA9
330
3AAA
330
3AAB
330
3AB3
330
3AB4
330
3AB5
330
3AB6
330
3AB7
330
3AEF
330
3AF0
330
3AF1
330
4C42
330
4C44
330
4D08
330
4D09
330
4D0A
330
5007
330
53EF
102
}
330
A
100
AcDbSymbolTableRecord
100
AcDbDimStyleTableRecord
  2
寸法(1-1)
 70
     0
 41
7.0
 42
1.5
 43
10.0
 44
0.0
 73
     0
 74
     0
 77
     1
 78
     8
140
5.0
141
0.0
143
0.03937007874016
147
1.0
171
     3
172
     1
174
     1
176
   256
177
   256
178
   256
271
     2
272
     2
274
     3
279
     1
283
     0
284
     8
340
29D
341
2AD
342
2A3
345
15
346
15
347
15
371
    -1
372
    -1
1001
ACAD_DSTYLE_DIMBREAK
1070
   391
1040
0.0
1001
ACAD_DSTYLE_DIMJAG
1070
   388
1040
1.5
1001
ACAD_DSTYLE_DIMTALN
1070
   392
1070
     0
  0
DIMSTYLE
105
544
102
{ACAD_REACTORS
330
3AA0
330
3AEB
102
}
330
A
100
AcDbSymbolTableRecord
100
AcDbDimStyleTableRecord
  2
WH寸法(1-1)
 70
     0
 41
10.0
 42
1.5
 43
10.0
 44
0.0
 73
     0
 74
     0
 77
     1
 78
     8
140
5.0
141
0.0
143
0.03937007874016
147
1.0
171
     3
172
     1
174
     1
176
   256
177
   256
178
   256
271
     2
272
     2
274
     3
279
     1
283
     0
284
     8
340
29D
341
2AD
345
15
346
15
347
15
371
    -1
372
    -1
1001
ACAD_DSTYLE_DIMBREAK
1070
   391
1040
0.0
1001
ACAD_DSTYLE_DIMJAG
1070
   388
1040
1.5
1001
ACAD_DSTYLE_DIMTALN
1070
   392
1070
     0
  0
DIMSTYLE
105
5B6
330
A
100
AcDbSymbolTableRecord
100
AcDbDimStyleTableRecord
  2
寸法(1-10)
 70
     0
 40
10.0
 41
7.0
 42
1.5
 43
10.0
 44
0.0
 73
     0
 74
     0
 77
     1
 78
     8
140
5.0
141
0.0
143
0.03937007874016
147
1.0
171
     3
172
     1
174
     1
176
   256
177
   256
178
   256
271
     2
272
     2
274
     3
279
     1
283
     0
284
     8
340
29D
341
2AD
342
2A3
345
15
346
15
347
15
371
    -1
372
    -1
1001
ACAD_DSTYLE_DIMBREAK
1070
   391
1040
0.0
1001
ACAD_DSTYLE_DIMJAG
1070
   388
1040
1.5
1001
ACAD_DSTYLE_DIMTALN
1070
   392
1070
     0
  0
DIMSTYLE
105
125C
330
A
100
AcDbSymbolTableRecord
100
AcDbDimStyleTableRecord
  2
寸法A3(1-1)
 70
     0
 41
5.0
 42
1.5
 43
10.0
 44
0.0
 73
     0
 74
     0
 77
     1
 78
     8
140
3.5
141
0.0
143
0.03937007874016
147
1.0
171
     3
172
     1
174
     1
176
   256
177
   256
178
   256
271
     2
272
     2
274
     3
279
     1
283
     0
284
     8
340
29D
341
2AD
342
2A3
345
15
346
15
347
15
371
    -1
372
    -1
1001
ACAD_DSTYLE_DIMBREAK
1070
   391
1040
0.0
1001
ACAD_DSTYLE_DIMJAG
1070
   388
1040
1.5
1001
ACAD_DSTYLE_DIMTALN
1070
   392
1070
     0
  0
ENDTAB
  0
TABLE
  2
BLOCK_RECORD
  5
1
330
0
100
AcDbSymbolTable
 70
    31
  0
BLOCK_RECORD
  5
1F
102
{ACAD_XDICTIONARY
360
1CE
102
}
330
1
100
AcDbSymbolTableRecord
100
AcDbBlockTableRecord
  2
*Model_Space
340
22
 70
     0
280
     1
281
     0
  0
BLOCK_RECORD
  5
D2
330
1
100
AcDbSymbolTableRecord
100
AcDbBlockTableRecord
  2
*Paper_Space
340
D3
 70
     0
280
     1
281
     0
  0
BLOCK_RECORD
  5
D6
330
1
100
AcDbSymbolTableRecord
100
AcDbBlockTableRecord
  2
*Paper_Space0
340
D7
 70
     0
280
     1
281
     0
  0
BLOCK_RECORD
  5
2A3
330
1
100
AcDbSymbolTableRecord
100
AcDbBlockTableRecord
  2
_DotSmall
340
0
102
{BLKREFS
331
4E2E
331
4E2F
331
51A6
331
51A7
331
5424
331
5425
331
55C1
331
55C2
331
5623
331
5624
331
5635
331
5636
331
563E
331
563F
331
566C
331
566D
331
568F
331
5690
331
56AB
331
56AC
331
571B
331
571C
331
5724
331
5725
331
572D
331
572E
331
5737
331
5738
331
573F
331
5740
331
5748
331
5749
331
5751
331
5752
331
575B
331
575C
102
}
 70
     0
280
     1
281
     0
  0
BLOCK_RECORD
  5
2A7
330
1
100
AcDbSymbolTableRecord
100
AcDbBlockTableRecord
  2
_ClosedBlank
340
0
 70
     0
280
     1
281
     0
  0
BLOCK_RECORD
  5
2AD
330
1
100
AcDbSymbolTableRecord
100
AcDbBlockTableRecord
  2
_None
340
0
 70
     0
280
     1
281
     0
  0
BLOCK_RECORD
  5
2B0
330
1
100
AcDbSymbolTableRecord
100
AcDbBlockTableRecord
  2
_BoxBlank
340
0
 70
     0
280
     1
281
     0
  0
BLOCK_RECORD
  5
2B8
330
1
100
AcDbSymbolTableRecord
100
AcDbBlockTableRecord
  2
_ArchTick
340
0
 70
     0
280
     1
281
     0
  0
BLOCK_RECORD
  5
33E
330
1
100
AcDbSymbolTableRecord
100
AcDbBlockTableRecord
  2
_Open30
340
0
 70
     0
280
     1
281
     0
  0
BLOCK_RECORD
  5
3B56
330
1
100
AcDbSymbolTableRecord
100
AcDbBlockTableRecord
  2
*D7
340
0
 70
     0
280
     1
281
     0
  0
BLOCK_RECORD
  5
3B92
330
1
100
AcDbSymbolTableRecord
100
AcDbBlockTableRecord
  2
*D8
340
0
 70
     0
280
     1
281
     0
  0
BLOCK_RECORD
  5
3BA0
330
1
100
AcDbSymbolTableRecord
100
AcDbBlockTableRecord
  2
*D9
340
0
 70
     0
280
     1
281
     0
  0
BLOCK_RECORD
  5
3BAC
330
1
100
AcDbSymbolTableRecord
100
AcDbBlockTableRecord
  2
*D10
340
0
 70
     0
280
     1
281
     0
  0
BLOCK_RECORD
  5
3C0C
330
1
100
AcDbSymbolTableRecord
100
AcDbBlockTableRecord
  2
*D11
340
0
 70
     0
280
     1
281
     0
  0
BLOCK_RECORD
  5
3C18
330
1
100
AcDbSymbolTableRecord
100
AcDbBlockTableRecord
  2
*D12
340
0
 70
     0
280
     1
281
     0
  0
BLOCK_RECORD
  5
3C24
330
1
100
AcDbSymbolTableRecord
100
AcDbBlockTableRecord
  2
*D13
340
0
 70
     0
280
     1
281
     0
  0
BLOCK_RECORD
  5
3C30
330
1
100
AcDbSymbolTableRecord
100
AcDbBlockTableRecord
  2
*D14
340
0
 70
     0
280
     1
281
     0
  0
BLOCK_RECORD
  5
3C3C
330
1
100
AcDbSymbolTableRecord
100
AcDbBlockTableRecord
  2
*D15
340
0
 70
     0
280
     1
281
     0
  0
BLOCK_RECORD
  5
3C90
330
1
100
AcDbSymbolTableRecord
100
AcDbBlockTableRecord
  2
*D16
340
0
 70
     0
280
     1
281
     0
  0
BLOCK_RECORD
  5
3CC0
330
1
100
AcDbSymbolTableRecord
100
AcDbBlockTableRecord
  2
*D17
340
0
 70
     0
280
     1
281
     0
  0
BLOCK_RECORD
  5
3CCC
330
1
100
AcDbSymbolTableRecord
100
AcDbBlockTableRecord
  2
*D18
340
0
 70
     0
280
     1
281
     0
  0
BLOCK_RECORD
  5
3CD8
330
1
100
AcDbSymbolTableRecord
100
AcDbBlockTableRecord
  2
*D19
340
0
 70
     0
280
     1
281
     0
  0
BLOCK_RECORD
  5
41E0
330
1
100
AcDbSymbolTableRecord
100
AcDbBlockTableRecord
  2
_DOT
340
0
 70
     0
280
     1
281
     0
  0
BLOCK_RECORD
  5
4209
330
1
100
AcDbSymbolTableRecord
100
AcDbBlockTableRecord
  2
_Origin2
340
0
 70
     0
280
     1
281
     0
  0
BLOCK_RECORD
  5
4504
102
{ACAD_XDICTIONARY
360
4505
102
}
330
1
100
AcDbSymbolTableRecord
100
AcDbBlockTableRecord
  2
A$C08C2056F
340
0
 70
     1
280
     1
281
     0
  0
BLOCK_RECORD
  5
4604
102
{ACAD_XDICTIONARY
360
4605
102
}
330
1
100
AcDbSymbolTableRecord
100
AcDbBlockTableRecord
  2
A$C1DB77F89
340
0
 70
     1
280
     1
281
     0
  0
BLOCK_RECORD
  5
4C52
330
1
100
AcDbSymbolTableRecord
100
AcDbBlockTableRecord
  2
*D24
340
0
 70
     0
280
     1
281
     0
  0
BLOCK_RECORD
  5
4C6A
330
1
100
AcDbSymbolTableRecord
100
AcDbBlockTableRecord
  2
*D25
340
0
 70
     0
280
     1
281
     0
  0
BLOCK_RECORD
  5
4D0B
330
1
100
AcDbSymbolTableRecord
100
AcDbBlockTableRecord
  2
*D26
340
0
 70
     0
280
     1
281
     0
  0
BLOCK_RECORD
  5
4D17
330
1
100
AcDbSymbolTableRecord
100
AcDbBlockTableRecord
  2
*D27
340
0
 70
     0
280
     1
281
     0
  0
BLOCK_RECORD
  5
4D23
330
1
100
AcDbSymbolTableRecord
100
AcDbBlockTableRecord
  2
*D28
340
0
 70
     0
280
     1
281
     0
  0
BLOCK_RECORD
  5
5008
330
1
100
AcDbSymbolTableRecord
100
AcDbBlockTableRecord
  2
*D29
340
0
 70
     0
280
     1
281
     0
  0
BLOCK_RECORD
  5
53F0
330
1
100
AcDbSymbolTableRecord
100
AcDbBlockTableRecord
  2
*D30
340
0
 70
     0
280
     1
281
     0
  0
ENDTAB
  0
ENDSEC
  0
SECTION
  2
BLOCKS
  0
BLOCK
  5
20
330
1F
100
AcDbEntity
  8
0
100
AcDbBlockBegin
  2
*Model_Space
 70
     0
 10
0.0
 20
0.0
 30
0.0
  3
*Model_Space
  1

  0
ENDBLK
  5
21
330
1F
100
AcDbEntity
  8
0
100
AcDbBlockEnd
  0
BLOCK
  5
D4
330
D2
100
AcDbEntity
 67
     1
  8
0
100
AcDbBlockBegin
  2
*Paper_Space
 70
     0
 10
0.0
 20
0.0
 30
0.0
  3
*Paper_Space
  1

  0
ENDBLK
  5
D5
330
D2
100
AcDbEntity
 67
     1
  8
0
100
AcDbBlockEnd
  0
BLOCK
  5
D8
330
D6
100
AcDbEntity
 67
     1
  8
0
100
AcDbBlockBegin
  2
*Paper_Space0
 70
     0
 10
0.0
 20
0.0
 30
0.0
  3
*Paper_Space0
  1

  0
ENDBLK
  5
D9
330
D6
100
AcDbEntity
 67
     1
  8
0
100
AcDbBlockEnd
  0
BLOCK
  5
2A5
330
2A3
100
AcDbEntity
  8
0
100
AcDbBlockBegin
  2
_DotSmall
 70
     0
 10
0.0
 20
0.0
 30
0.0
  3
_DotSmall
  1

  0
LWPOLYLINE
  5
2A4
330
2A3
100
AcDbEntity
  8
0
  6
ByBlock
 62
     0
100
AcDbPolyline
 90
        2
 70
     1
 43
0.5
 10
-0.0625
 20
0.0
 42
1.0
 10
0.0625
 20
0.0
 42
1.0
  0
ENDBLK
  5
2A6
330
2A3
100
AcDbEntity
  8
0
100
AcDbBlockEnd
  0
BLOCK
  5
2AB
330
2A7
100
AcDbEntity
  8
0
100
AcDbBlockBegin
  2
_ClosedBlank
 70
     0
 10
0.0
 20
0.0
 30
0.0
  3
_ClosedBlank
  1

  0
LINE
  5
2A8
330
2A7
100
AcDbEntity
  8
0
  6
ByBlock
 62
     0
370
    -2
100
AcDbLine
 10
-1.0
 20
0.1666666666666666
 30
0.0
 11
0.0
 21
0.0
 31
0.0
  0
LINE
  5
2A9
330
2A7
100
AcDbEntity
  8
0
  6
ByBlock
 62
     0
370
    -2
100
AcDbLine
 10
0.0
 20
0.0
 30
0.0
 11
-1.0
 21
-0.1666666666666666
 31
0.0
  0
LINE
  5
2AA
330
2A7
100
AcDbEntity
  8
0
  6
ByBlock
 62
     0
370
    -2
100
AcDbLine
 10
-1.0
 20
0.1666666666666666
 30
0.0
 11
-1.0
 21
-0.1666666666666666
 31
0.0
  0
ENDBLK
  5
2AC
330
2A7
100
AcDbEntity
  8
0
100
AcDbBlockEnd
  0
BLOCK
  5
2AE
330
2AD
100
AcDbEntity
  8
0
100
AcDbBlockBegin
  2
_None
 70
     0
 10
0.0
 20
0.0
 30
0.0
  3
_None
  1

  0
ENDBLK
  5
2AF
330
2AD
100
AcDbEntity
  8
0
100
AcDbBlockEnd
  0
BLOCK
  5
2B6
330
2B0
100
AcDbEntity
  8
0
100
AcDbBlockBegin
  2
_BoxBlank
 70
     0
 10
0.0
 20
0.0
 30
0.0
  3
_BoxBlank
  1

  0
LINE
  5
2B1
330
2B0
100
AcDbEntity
  8
0
  6
ByBlock
 62
     0
370
    -2
100
AcDbLine
 10
-0.5
 20
-0.5
 30
0.0
 11
0.5
 21
-0.5
 31
0.0
  0
LINE
  5
2B2
330
2B0
100
AcDbEntity
  8
0
  6
ByBlock
 62
     0
370
    -2
100
AcDbLine
 10
0.5
 20
-0.5
 30
0.0
 11
0.5
 21
0.5
 31
0.0
  0
LINE
  5
2B3
330
2B0
100
AcDbEntity
  8
0
  6
ByBlock
 62
     0
370
    -2
100
AcDbLine
 10
0.5
 20
0.5
 30
0.0
 11
-0.5
 21
0.5
 31
0.0
  0
LINE
  5
2B4
330
2B0
100
AcDbEntity
  8
0
  6
ByBlock
 62
     0
370
    -2
100
AcDbLine
 10
-0.5
 20
0.5
 30
0.0
 11
-0.5
 21
-0.5
 31
0.0
  0
LINE
  5
2B5
330
2B0
100
AcDbEntity
  8
0
  6
ByBlock
 62
     0
370
    -2
100
AcDbLine
 10
-0.5
 20
0.0
 30
0.0
 11
-1.0
 21
0.0
 31
0.0
  0
ENDBLK
  5
2B7
330
2B0
100
AcDbEntity
  8
0
100
AcDbBlockEnd
  0
BLOCK
  5
2BA
330
2B8
100
AcDbEntity
  8
0
100
AcDbBlockBegin
  2
_ArchTick
 70
     0
 10
0.0
 20
0.0
 30
0.0
  3
_ArchTick
  1

  0
LWPOLYLINE
  5
2B9
330
2B8
100
AcDbEntity
  8
0
  6
ByBlock
 62
     0
100
AcDbPolyline
 90
        2
 70
     0
 43
0.15
 10
-0.5
 20
-0.5
 10
0.5
 20
0.5
  0
ENDBLK
  5
2BB
330
2B8
100
AcDbEntity
  8
0
100
AcDbBlockEnd
  0
BLOCK
  5
342
330
33E
100
AcDbEntity
  8
0
100
AcDbBlockBegin
  2
_Open30
 70
     0
 10
0.0
 20
0.0
 30
0.0
  3
_Open30
  1

  0
LINE
  5
33F
330
33E
100
AcDbEntity
  8
0
  6
ByBlock
 62
     0
370
    -2
100
AcDbLine
 10
-1.0
 20
0.26794919
 30
0.0
 11
0.0
 21
0.0
 31
0.0
  0
LINE
  5
340
330
33E
100
AcDbEntity
  8
0
  6
ByBlock
 62
     0
370
    -2
100
AcDbLine
 10
0.0
 20
0.0
 30
0.0
 11
-1.0
 21
-0.26794919
 31
0.0
  0
LINE
  5
341
330
33E
100
AcDbEntity
  8
0
  6
ByBlock
 62
     0
370
    -2
100
AcDbLine
 10
0.0
 20
0.0
 30
0.0
 11
-1.0
 21
0.0
 31
0.0
  0
ENDBLK
  5
343
330
33E
100
AcDbEntity
  8
0
100
AcDbBlockEnd
  0
BLOCK
  5
3B57
330
3B56
100
AcDbEntity
  8
0
100
AcDbBlockBegin
  2
*D7
 70
     1
 10
0.0
 20
0.0
 30
0.0
  3
*D7
  1

  0
LINE
  5
547F
330
3B56
100
AcDbEntity
  8
19_寸法線・引出線
440
 16777216
100
AcDbLine
 10
260.5
 20
459.4999999999999
 30
0.0
 11
309.0000000000013
 21
459.4999999999999
 31
0.0
  0
LINE
  5
5480
330
3B56
100
AcDbEntity
  8
19_寸法線・引出線
440
 16777216
100
AcDbLine
 10
260.5
 20
169.5
 30
0.0
 11
309.0000000000012
 21
169.5
 31
0.0
  0
LINE
  5
5481
330
3B56
100
AcDbEntity
  8
19_寸法線・引出線
440
 16777216
100
AcDbLine
 10
309.0000000000013
 20
449.5
 30
0.0
 11
309.0000000000012
 21
179.5
 31
0.0
  0
SOLID
  5
5482
330
3B56
100
AcDbEntity
  8
19_寸法線・引出線
440
 16777216
100
AcDbTrace
 10
307.3333333333346
 20
449.5
 30
0.0
 11
310.6666666666679
 21
449.5
 31
0.0
 12
309.0000000000013
 22
459.4999999999999
 32
0.0
 13
309.0000000000013
 23
459.4999999999999
 33
0.0
  0
SOLID
  5
5483
330
3B56
100
AcDbEntity
  8
19_寸法線・引出線
440
 16777216
100
AcDbTrace
 10
307.3333333333345
 20
179.5
 30
0.0
 11
310.6666666666679
 21
179.5
 31
0.0
 12
309.0000000000012
 22
169.5
 32
0.0
 13
309.0000000000012
 23
169.5
 33
0.0
  0
MTEXT
  5
5484
330
3B56
100
AcDbEntity
  8
19_寸法線・引出線
440
 16777216
100
AcDbMText
 10
305.5000000000011
 20
314.5
 30
0.0
 40
5.0
 41
0.0
 46
0.0
 71
     5
 72
     1
  1
H=
  7
文字
 11
0.0000000000000001
 21
1.0
 31
0.0
 73
     1
 44
1.0
  0
POINT
  5
5485
330
3B56
100
AcDbEntity
  8
Defpoints
 62
     0
440
 16777216
100
AcDbPoint
 10
259.0
 20
459.4999999999999
 30
0.0
  0
POINT
  5
5486
330
3B56
100
AcDbEntity
  8
Defpoints
 62
     0
440
 16777216
100
AcDbPoint
 10
259.0
 20
169.5
 30
0.0
  0
POINT
  5
5487
330
3B56
100
AcDbEntity
  8
Defpoints
 62
     0
440
 16777216
100
AcDbPoint
 10
309.0000000000012
 20
169.5
 30
0.0
  0
ENDBLK
  5
3B58
330
3B56
100
AcDbEntity
  8
0
100
AcDbBlockEnd
  0
BLOCK
  5
3B93
330
3B92
100
AcDbEntity
  8
0
100
AcDbBlockBegin
  2
*D8
 70
     1
 10
0.0
 20
0.0
 30
0.0
  3
*D8
  1

  0
LINE
  5
561E
330
3B92
100
AcDbEntity
  8
19_寸法線・引出線
440
 16777216
100
AcDbLine
 10
155.5
 20
474.5
 30
0.0
 11
109.0000000000002
 21
474.5
 31
0.0
  0
LINE
  5
561F
330
3B92
100
AcDbEntity
  8
19_寸法線・引出線
440
 16777216
100
AcDbLine
 10
157.5
 20
470.5
 30
0.0
 11
109.0000000000002
 21
470.5
 31
0.0
  0
LINE
  5
5620
330
3B92
100
AcDbEntity
  8
19_寸法線・引出線
440
 16777216
100
AcDbLine
 10
109.0000000000002
 20
474.5
 30
0.0
 11
109.0000000000002
 21
481.5000000000001
 31
0.0
  0
LINE
  5
5621
330
3B92
100
AcDbEntity
  8
19_寸法線・引出線
440
 16777216
100
AcDbLine
 10
109.0000000000002
 20
470.5
 30
0.0
 11
109.0000000000002
 21
463.5000000000001
 31
0.0
  0
LINE
  5
5622
330
3B92
100
AcDbEntity
  8
19_寸法線・引出線
440
 16777216
100
AcDbLine
 10
109.0000000000002
 20
474.5
 30
0.0
 11
109.0000000000002
 21
470.5
 31
0.0
  0
INSERT
  5
5623
330
3B92
100
AcDbEntity
  8
19_寸法線・引出線
440
 16777216
100
AcDbBlockReference
  2
_DotSmall
 10
109.0000000000002
 20
474.5
 30
0.0
 41
7.0
 42
7.0
 43
7.0
 50
270.0
  0
INSERT
  5
5624
330
3B92
100
AcDbEntity
  8
19_寸法線・引出線
440
 16777216
100
AcDbBlockReference
  2
_DotSmall
 10
109.0000000000002
 20
470.5
 30
0.0
 41
7.0
 42
7.0
 43
7.0
 50
90.0
  0
MTEXT
  5
5625
330
3B92
100
AcDbEntity
  8
19_寸法線・引出線
440
 16777216
100
AcDbMText
 10
105.5000000000001
 20
472.5000000000001
 30
0.0
 40
5.0
 41
0.0
 46
0.0
 71
     5
 72
     1
  1
4
  7
文字
 11
0.0000000000000001
 21
1.0
 31
0.0
 73
     1
 44
1.0
  0
POINT
  5
5626
330
3B92
100
AcDbEntity
  8
Defpoints
 62
     0
440
 16777216
100
AcDbPoint
 10
157.0
 20
474.5
 30
0.0
  0
POINT
  5
5627
330
3B92
100
AcDbEntity
  8
Defpoints
 62
     0
440
 16777216
100
AcDbPoint
 10
159.0
 20
470.5
 30
0.0
  0
POINT
  5
5628
330
3B92
100
AcDbEntity
  8
Defpoints
 62
     0
440
 16777216
100
AcDbPoint
 10
109.0000000000002
 20
470.5
 30
0.0
  0
ENDBLK
  5
3B94
330
3B92
100
AcDbEntity
  8
0
100
AcDbBlockEnd
  0
BLOCK
  5
3BA1
330
3BA0
100
AcDbEntity
  8
0
100
AcDbBlockBegin
  2
*D9
 70
     1
 10
0.0
 20
0.0
 30
0.0
  3
*D9
  1

  0
LINE
  5
5632
330
3BA0
100
AcDbEntity
  8
19_寸法線・引出線
440
 16777216
100
AcDbLine
 10
157.5
 20
470.5
 30
0.0
 11
109.0000000000004
 21
470.5
 31
0.0
  0
LINE
  5
5633
330
3BA0
100
AcDbEntity
  8
19_寸法線・引出線
440
 16777216
100
AcDbLine
 10
157.5
 20
160.5
 30
0.0
 11
109.0000000000004
 21
160.5
 31
0.0
  0
LINE
  5
5634
330
3BA0
100
AcDbEntity
  8
19_寸法線・引出線
440
 16777216
100
AcDbLine
 10
109.0000000000004
 20
470.5
 30
0.0
 11
109.0000000000004
 21
160.5
 31
0.0
  0
INSERT
  5
5635
330
3BA0
100
AcDbEntity
  8
19_寸法線・引出線
440
 16777216
100
AcDbBlockReference
  2
_DotSmall
 10
109.0000000000004
 20
470.5
 30
0.0
 41
7.0
 42
7.0
 43
7.0
 50
90.0
  0
INSERT
  5
5636
330
3BA0
100
AcDbEntity
  8
19_寸法線・引出線
440
 16777216
100
AcDbBlockReference
  2
_DotSmall
 10
109.0000000000004
 20
160.5
 30
0.0
 41
7.0
 42
7.0
 43
7.0
 50
270.0
  0
MTEXT
  5
5637
330
3BA0
100
AcDbEntity
  8
19_寸法線・引出線
440
 16777216
100
AcDbMText
 10
105.5000000000003
 20
315.5000000000001
 30
0.0
 40
5.0
 41
0.0
 46
0.0
 71
     5
 72
     1
  1
DH
  7
文字
 11
0.0000000000000001
 21
1.0
 31
0.0
 73
     1
 44
1.0
  0
POINT
  5
5638
330
3BA0
100
AcDbEntity
  8
Defpoints
 62
     0
440
 16777216
100
AcDbPoint
 10
159.0
 20
470.5
 30
0.0
  0
POINT
  5
5639
330
3BA0
100
AcDbEntity
  8
Defpoints
 62
     0
440
 16777216
100
AcDbPoint
 10
159.0
 20
160.5
 30
0.0
  0
POINT
  5
563A
330
3BA0
100
AcDbEntity
  8
Defpoints
 62
     0
440
 16777216
100
AcDbPoint
 10
109.0000000000004
 20
160.5
 30
0.0
  0
ENDBLK
  5
3BA2
330
3BA0
100
AcDbEntity
  8
0
100
AcDbBlockEnd
  0
BLOCK
  5
3BAD
330
3BAC
100
AcDbEntity
  8
0
100
AcDbBlockBegin
  2
*D10
 70
     1
 10
0.0
 20
0.0
 30
0.0
  3
*D10
  1

  0
LINE
  5
563B
330
3BAC
100
AcDbEntity
  8
19_寸法線・引出線
440
 16777216
100
AcDbLine
 10
157.5
 20
160.5
 30
0.0
 11
109.0000000000004
 21
160.5
 31
0.0
  0
LINE
  5
563C
330
3BAC
100
AcDbEntity
  8
19_寸法線・引出線
440
 16777216
100
AcDbLine
 10
154.5
 20
154.5
 30
0.0
 11
109.0000000000003
 21
154.5
 31
0.0
  0
LINE
  5
563D
330
3BAC
100
AcDbEntity
  8
19_寸法線・引出線
440
 16777216
100
AcDbLine
 10
109.0000000000004
 20
160.5
 30
0.0
 11
109.0000000000003
 21
154.5
 31
0.0
  0
INSERT
  5
563E
330
3BAC
100
AcDbEntity
  8
19_寸法線・引出線
440
 16777216
100
AcDbBlockReference
  2
_DotSmall
 10
109.0000000000004
 20
160.5
 30
0.0
 41
7.0
 42
7.0
 43
7.0
 50
90.0
  0
INSERT
  5
563F
330
3BAC
100
AcDbEntity
  8
19_寸法線・引出線
440
 16777216
100
AcDbBlockReference
  2
_DotSmall
 10
109.0000000000003
 20
154.5
 30
0.0
 41
7.0
 42
7.0
 43
7.0
 50
270.0
  0
MTEXT
  5
5640
330
3BAC
100
AcDbEntity
  8
19_寸法線・引出線
440
 16777216
100
AcDbMText
 10
105.5000000000003
 20
157.5
 30
0.0
 40
5.0
 41
0.0
 46
0.0
 71
     5
 72
     1
  1
6
  7
文字
 11
0.0000000000000001
 21
1.0
 31
0.0
 73
     1
 44
1.0
  0
POINT
  5
5641
330
3BAC
100
AcDbEntity
  8
Defpoints
 62
     0
440
 16777216
100
AcDbPoint
 10
159.0
 20
160.5
 30
0.0
  0
POINT
  5
5642
330
3BAC
100
AcDbEntity
  8
Defpoints
 62
     0
440
 16777216
100
AcDbPoint
 10
156.0
 20
154.5
 30
0.0
  0
POINT
  5
5643
330
3BAC
100
AcDbEntity
  8
Defpoints
 62
     0
440
 16777216
100
AcDbPoint
 10
109.0000000000003
 20
154.5
 30
0.0
  0
ENDBLK
  5
3BAE
330
3BAC
100
AcDbEntity
  8
0
100
AcDbBlockEnd
  0
BLOCK
  5
3C0D
330
3C0C
100
AcDbEntity
  8
0
100
AcDbBlockBegin
  2
*D11
 70
     1
 10
0.0
 20
0.0
 30
0.0
  3
*D11
  1

  0
LINE
  5
5733
330
3C0C
100
AcDbEntity
  8
19_寸法線・引出線
440
 16777216
100
AcDbLine
 10
159.0
 20
312.0000000000001
 30
0.0
 11
159.0
 21
310.5000000000001
 31
0.0
  0
LINE
  5
5734
330
3C0C
100
AcDbEntity
  8
19_寸法線・引出線
440
 16777216
100
AcDbLine
 10
239.0
 20
312.0000000000001
 30
0.0
 11
239.0
 21
310.5000000000001
 31
0.0
  0
LINE
  5
5735
330
3C0C
100
AcDbEntity
  8
19_寸法線・引出線
440
 16777216
100
AcDbLine
 10
159.0
 20
310.5000000000001
 30
0.0
 11
239.0
 21
310.5000000000001
 31
0.0
  0
MTEXT
  5
5736
330
3C0C
100
AcDbEntity
  8
19_寸法線・引出線
440
 16777216
100
AcDbMText
 10
204.7420046300536
 20
314.0000000000001
 30
0.0
 40
5.0
 41
0.0
 46
0.0
 71
     5
 72
     1
  1
　
  7
文字
 73
     1
 44
1.0
  0
INSERT
  5
5737
330
3C0C
100
AcDbEntity
  8
19_寸法線・引出線
440
 16777216
100
AcDbBlockReference
  2
_DotSmall
 10
159.0
 20
310.5000000000001
 30
0.0
 41
7.0
 42
7.0
 43
7.0
 50
180.0
  0
INSERT
  5
5738
330
3C0C
100
AcDbEntity
  8
19_寸法線・引出線
440
 16777216
100
AcDbBlockReference
  2
_DotSmall
 10
239.0
 20
310.5000000000001
 30
0.0
 41
7.0
 42
7.0
 43
7.0
  0
POINT
  5
5739
330
3C0C
100
AcDbEntity
  8
Defpoints
 62
     0
440
 16777216
100
AcDbPoint
 10
159.0
 20
310.5000000000001
 30
0.0
  0
POINT
  5
573A
330
3C0C
100
AcDbEntity
  8
Defpoints
 62
     0
440
 16777216
100
AcDbPoint
 10
239.0
 20
310.5000000000001
 30
0.0
  0
POINT
  5
573B
330
3C0C
100
AcDbEntity
  8
Defpoints
 62
     0
440
 16777216
100
AcDbPoint
 10
239.0
 20
310.5000000000001
 30
0.0
  0
ENDBLK
  5
3C0E
330
3C0C
100
AcDbEntity
  8
0
100
AcDbBlockEnd
  0
BLOCK
  5
3C19
330
3C18
100
AcDbEntity
  8
0
100
AcDbBlockBegin
  2
*D12
 70
     1
 10
0.0
 20
0.0
 30
0.0
  3
*D12
  1

  0
LINE
  5
5420
330
3C18
100
AcDbEntity
  8
19_寸法線・引出線
440
 16777216
100
AcDbLine
 10
159.0
 20
332.0000000000001
 30
0.0
 11
159.0
 21
330.5000000000001
 31
0.0
  0
LINE
  5
5421
330
3C18
100
AcDbEntity
  8
19_寸法線・引出線
440
 16777216
100
AcDbLine
 10
162.0
 20
332.0000000000001
 30
0.0
 11
162.0
 21
330.5000000000001
 31
0.0
  0
LINE
  5
5422
330
3C18
100
AcDbEntity
  8
19_寸法線・引出線
440
 16777216
100
AcDbLine
 10
159.0
 20
330.5000000000001
 30
0.0
 11
162.0
 21
330.5000000000001
 31
0.0
  0
MTEXT
  5
5423
330
3C18
100
AcDbEntity
  8
19_寸法線・引出線
440
 16777216
100
AcDbMText
 10
156.5664079490411
 20
333.7988537568313
 30
0.0
 40
5.0
 41
0.0
 46
0.0
 71
     5
 72
     1
  1
3
  7
文字
 73
     1
 44
1.0
  0
INSERT
  5
5424
330
3C18
100
AcDbEntity
  8
19_寸法線・引出線
440
 16777216
100
AcDbBlockReference
  2
_DotSmall
 10
159.0
 20
330.5000000000001
 30
0.0
 41
7.0
 42
7.0
 43
7.0
 50
180.0
  0
INSERT
  5
5425
330
3C18
100
AcDbEntity
  8
19_寸法線・引出線
440
 16777216
100
AcDbBlockReference
  2
_DotSmall
 10
162.0
 20
330.5000000000001
 30
0.0
 41
7.0
 42
7.0
 43
7.0
  0
POINT
  5
5426
330
3C18
100
AcDbEntity
  8
Defpoints
 62
     0
440
 16777216
100
AcDbPoint
 10
159.0
 20
330.5000000000001
 30
0.0
  0
POINT
  5
5427
330
3C18
100
AcDbEntity
  8
Defpoints
 62
     0
440
 16777216
100
AcDbPoint
 10
162.0
 20
330.5000000000001
 30
0.0
  0
POINT
  5
5428
330
3C18
100
AcDbEntity
  8
Defpoints
 62
     0
440
 16777216
100
AcDbPoint
 10
162.0
 20
330.5000000000001
 30
0.0
  0
ENDBLK
  5
3C1A
330
3C18
100
AcDbEntity
  8
0
100
AcDbBlockEnd
  0
BLOCK
  5
3C25
330
3C24
100
AcDbEntity
  8
0
100
AcDbBlockBegin
  2
*D13
 70
     1
 10
0.0
 20
0.0
 30
0.0
  3
*D13
  1

  0
LINE
  5
5718
330
3C24
100
AcDbEntity
  8
19_寸法線・引出線
440
 16777216
100
AcDbLine
 10
162.0
 20
332.0000000000001
 30
0.0
 11
162.0
 21
330.5000000000001
 31
0.0
  0
LINE
  5
5719
330
3C24
100
AcDbEntity
  8
19_寸法線・引出線
440
 16777216
100
AcDbLine
 10
198.0
 20
332.0000000000001
 30
0.0
 11
198.0
 21
330.5000000000001
 31
0.0
  0
LINE
  5
571A
330
3C24
100
AcDbEntity
  8
19_寸法線・引出線
440
 16777216
100
AcDbLine
 10
162.0
 20
330.5000000000001
 30
0.0
 11
198.0
 21
330.5000000000001
 31
0.0
  0
INSERT
  5
571B
330
3C24
100
AcDbEntity
  8
19_寸法線・引出線
440
 16777216
100
AcDbBlockReference
  2
_DotSmall
 10
162.0
 20
330.5000000000001
 30
0.0
 41
7.0
 42
7.0
 43
7.0
 50
180.0
  0
INSERT
  5
571C
330
3C24
100
AcDbEntity
  8
19_寸法線・引出線
440
 16777216
100
AcDbBlockReference
  2
_DotSmall
 10
198.0
 20
330.5000000000001
 30
0.0
 41
7.0
 42
7.0
 43
7.0
  0
MTEXT
  5
571D
330
3C24
100
AcDbEntity
  8
19_寸法線・引出線
440
 16777216
100
AcDbMText
 10
180.0
 20
334.0000000000001
 30
0.0
 40
5.0
 41
0.0
 46
0.0
 71
     5
 72
     1
  1
36（40）
  7
文字
 73
     1
 44
1.0
  0
POINT
  5
571E
330
3C24
100
AcDbEntity
  8
Defpoints
 62
     0
440
 16777216
100
AcDbPoint
 10
162.0
 20
330.5000000000001
 30
0.0
  0
POINT
  5
571F
330
3C24
100
AcDbEntity
  8
Defpoints
 62
     0
440
 16777216
100
AcDbPoint
 10
198.0
 20
330.5000000000001
 30
0.0
  0
POINT
  5
5720
330
3C24
100
AcDbEntity
  8
Defpoints
 62
     0
440
 16777216
100
AcDbPoint
 10
198.0
 20
330.5000000000001
 30
0.0
  0
ENDBLK
  5
3C26
330
3C24
100
AcDbEntity
  8
0
100
AcDbBlockEnd
  0
BLOCK
  5
3C31
330
3C30
100
AcDbEntity
  8
0
100
AcDbBlockBegin
  2
*D14
 70
     1
 10
0.0
 20
0.0
 30
0.0
  3
*D14
  1

  0
LINE
  5
51A2
330
3C30
100
AcDbEntity
  8
19_寸法線・引出線
440
 16777216
100
AcDbLine
 10
198.0
 20
332.0000000000001
 30
0.0
 11
198.0
 21
330.5000000000001
 31
0.0
  0
LINE
  5
51A3
330
3C30
100
AcDbEntity
  8
19_寸法線・引出線
440
 16777216
100
AcDbLine
 10
201.0
 20
332.0000000000001
 30
0.0
 11
201.0
 21
330.5000000000001
 31
0.0
  0
LINE
  5
51A4
330
3C30
100
AcDbEntity
  8
19_寸法線・引出線
440
 16777216
100
AcDbLine
 10
198.0
 20
330.5000000000001
 30
0.0
 11
201.0
 21
330.5000000000001
 31
0.0
  0
MTEXT
  5
51A5
330
3C30
100
AcDbEntity
  8
19_寸法線・引出線
440
 16777216
100
AcDbMText
 10
204.414593463729
 20
334.0000000000001
 30
0.0
 40
5.0
 41
0.0
 46
0.0
 71
     5
 72
     1
  1
3
  7
文字
 73
     1
 44
1.0
  0
INSERT
  5
51A6
330
3C30
100
AcDbEntity
  8
19_寸法線・引出線
440
 16777216
100
AcDbBlockReference
  2
_DotSmall
 10
198.0
 20
330.5000000000001
 30
0.0
 41
7.0
 42
7.0
 43
7.0
 50
180.0
  0
INSERT
  5
51A7
330
3C30
100
AcDbEntity
  8
19_寸法線・引出線
440
 16777216
100
AcDbBlockReference
  2
_DotSmall
 10
201.0
 20
330.5000000000001
 30
0.0
 41
7.0
 42
7.0
 43
7.0
  0
POINT
  5
51A8
330
3C30
100
AcDbEntity
  8
Defpoints
 62
     0
440
 16777216
100
AcDbPoint
 10
198.0
 20
330.5000000000001
 30
0.0
  0
POINT
  5
51A9
330
3C30
100
AcDbEntity
  8
Defpoints
 62
     0
440
 16777216
100
AcDbPoint
 10
201.0
 20
330.5000000000001
 30
0.0
  0
POINT
  5
51AA
330
3C30
100
AcDbEntity
  8
Defpoints
 62
     0
440
 16777216
100
AcDbPoint
 10
201.0
 20
330.5000000000001
 30
0.0
  0
ENDBLK
  5
3C32
330
3C30
100
AcDbEntity
  8
0
100
AcDbBlockEnd
  0
BLOCK
  5
3C3D
330
3C3C
100
AcDbEntity
  8
0
100
AcDbBlockBegin
  2
*D15
 70
     1
 10
0.0
 20
0.0
 30
0.0
  3
*D15
  1

  0
LINE
  5
572A
330
3C3C
100
AcDbEntity
  8
19_寸法線・引出線
440
 16777216
100
AcDbLine
 10
201.0
 20
322.0000000000001
 30
0.0
 11
201.0
 21
320.5000000000001
 31
0.0
  0
LINE
  5
572B
330
3C3C
100
AcDbEntity
  8
19_寸法線・引出線
440
 16777216
100
AcDbLine
 10
239.0
 20
322.0000000000001
 30
0.0
 11
239.0
 21
320.5000000000001
 31
0.0
  0
LINE
  5
572C
330
3C3C
100
AcDbEntity
  8
19_寸法線・引出線
440
 16777216
100
AcDbLine
 10
201.0
 20
320.5000000000001
 30
0.0
 11
239.0
 21
320.5000000000001
 31
0.0
  0
INSERT
  5
572D
330
3C3C
100
AcDbEntity
  8
19_寸法線・引出線
440
 16777216
100
AcDbBlockReference
  2
_DotSmall
 10
201.0
 20
320.5000000000001
 30
0.0
 41
7.0
 42
7.0
 43
7.0
 50
180.0
  0
INSERT
  5
572E
330
3C3C
100
AcDbEntity
  8
19_寸法線・引出線
440
 16777216
100
AcDbBlockReference
  2
_DotSmall
 10
239.0
 20
320.5000000000001
 30
0.0
 41
7.0
 42
7.0
 43
7.0
  0
MTEXT
  5
572F
330
3C3C
100
AcDbEntity
  8
19_寸法線・引出線
440
 16777216
100
AcDbMText
 10
220.0
 20
324.0000000000001
 30
0.0
 40
5.0
 41
0.0
 46
0.0
 71
     5
 72
     1
  1
　
  7
文字
 73
     1
 44
1.0
  0
POINT
  5
5730
330
3C3C
100
AcDbEntity
  8
Defpoints
 62
     0
440
 16777216
100
AcDbPoint
 10
201.0
 20
320.5000000000001
 30
0.0
  0
POINT
  5
5731
330
3C3C
100
AcDbEntity
  8
Defpoints
 62
     0
440
 16777216
100
AcDbPoint
 10
239.0
 20
320.5000000000001
 30
0.0
  0
POINT
  5
5732
330
3C3C
100
AcDbEntity
  8
Defpoints
 62
     0
440
 16777216
100
AcDbPoint
 10
239.0
 20
320.5000000000001
 30
0.0
  0
ENDBLK
  5
3C3E
330
3C3C
100
AcDbEntity
  8
0
100
AcDbBlockEnd
  0
BLOCK
  5
3C91
330
3C90
100
AcDbEntity
  8
0
100
AcDbBlockBegin
  2
*D16
 70
     1
 10
0.0
 20
0.0
 30
0.0
  3
*D16
  1

  0
LINE
  5
5644
330
3C90
100
AcDbEntity
  8
19_寸法線・引出線
440
 16777216
100
AcDbLine
 10
496.0000000000007
 20
282.5000217956616
 30
0.0
 11
496.0000000000007
 21
331.0000217956616
 31
0.0
  0
LINE
  5
5645
330
3C90
100
AcDbEntity
  8
19_寸法線・引出線
440
 16777216
100
AcDbLine
 10
670.0000000000005
 20
282.5000217956616
 30
0.0
 11
670.0000000000005
 21
331.0000217956616
 31
0.0
  0
LINE
  5
5646
330
3C90
100
AcDbEntity
  8
19_寸法線・引出線
440
 16777216
100
AcDbLine
 10
506.0000000000008
 20
331.0000217956616
 30
0.0
 11
660.0000000000005
 21
331.0000217956616
 31
0.0
  0
SOLID
  5
5647
330
3C90
100
AcDbEntity
  8
19_寸法線・引出線
440
 16777216
100
AcDbTrace
 10
506.0000000000008
 20
332.6666884623283
 30
0.0
 11
506.0000000000008
 21
329.3333551289949
 31
0.0
 12
496.0000000000007
 22
331.0000217956616
 32
0.0
 13
496.0000000000007
 23
331.0000217956616
 33
0.0
  0
SOLID
  5
5648
330
3C90
100
AcDbEntity
  8
19_寸法線・引出線
440
 16777216
100
AcDbTrace
 10
660.0000000000005
 20
332.6666884623283
 30
0.0
 11
660.0000000000005
 21
329.3333551289949
 31
0.0
 12
670.0000000000005
 22
331.0000217956616
 32
0.0
 13
670.0000000000005
 23
331.0000217956616
 33
0.0
  0
MTEXT
  5
5649
330
3C90
100
AcDbEntity
  8
19_寸法線・引出線
440
 16777216
100
AcDbMText
 10
583.0000000000007
 20
334.5000217956616
 30
0.0
 40
5.0
 41
0.0
 46
0.0
 71
     5
 72
     1
  1
W=
  7
文字
 73
     1
 44
1.0
  0
POINT
  5
564A
330
3C90
100
AcDbEntity
  8
Defpoints
 62
     0
440
 16777216
100
AcDbPoint
 10
496.0000000000007
 20
281.0000217956616
 30
0.0
  0
POINT
  5
564B
330
3C90
100
AcDbEntity
  8
Defpoints
 62
     0
440
 16777216
100
AcDbPoint
 10
670.0000000000005
 20
281.0000217956616
 30
0.0
  0
POINT
  5
564C
330
3C90
100
AcDbEntity
  8
Defpoints
 62
     0
440
 16777216
100
AcDbPoint
 10
670.0000000000005
 20
331.0000217956616
 30
0.0
  0
ENDBLK
  5
3C92
330
3C90
100
AcDbEntity
  8
0
100
AcDbBlockEnd
  0
BLOCK
  5
3CC1
330
3CC0
100
AcDbEntity
  8
0
100
AcDbBlockBegin
  2
*D17
 70
     1
 10
0.0
 20
0.0
 30
0.0
  3
*D17
  1

  0
LINE
  5
5668
330
3CC0
100
AcDbEntity
  8
19_寸法線・引出線
440
 16777216
100
AcDbLine
 10
481.0000000000008
 20
193.5
 30
0.0
 11
481.0000000000008
 21
145.0
 31
0.0
  0
LINE
  5
5669
330
3CC0
100
AcDbEntity
  8
19_寸法線・引出線
440
 16777216
100
AcDbLine
 10
485.0000000000008
 20
193.5000217956616
 30
0.0
 11
485.0000000000008
 21
145.0
 31
0.0
  0
LINE
  5
566A
330
3CC0
100
AcDbEntity
  8
19_寸法線・引出線
440
 16777216
100
AcDbLine
 10
481.0000000000008
 20
145.0
 30
0.0
 11
485.0000000000008
 21
145.0
 31
0.0
  0
MTEXT
  5
566B
330
3CC0
100
AcDbEntity
  8
19_寸法線・引出線
440
 16777216
100
AcDbMText
 10
488.5344826611508
 20
148.5
 30
0.0
 40
5.0
 41
0.0
 46
0.0
 71
     5
 72
     1
  1
4
  7
文字
 73
     1
 44
1.0
  0
INSERT
  5
566C
330
3CC0
100
AcDbEntity
  8
19_寸法線・引出線
440
 16777216
100
AcDbBlockReference
  2
_DotSmall
 10
481.0000000000008
 20
145.0
 30
0.0
 41
7.0
 42
7.0
 43
7.0
 50
180.0
  0
INSERT
  5
566D
330
3CC0
100
AcDbEntity
  8
19_寸法線・引出線
440
 16777216
100
AcDbBlockReference
  2
_DotSmall
 10
485.0000000000008
 20
145.0
 30
0.0
 41
7.0
 42
7.0
 43
7.0
  0
POINT
  5
566E
330
3CC0
100
AcDbEntity
  8
Defpoints
 62
     0
440
 16777216
100
AcDbPoint
 10
481.0000000000008
 20
195.0
 30
0.0
  0
POINT
  5
566F
330
3CC0
100
AcDbEntity
  8
Defpoints
 62
     0
440
 16777216
100
AcDbPoint
 10
485.0000000000008
 20
195.0000217956616
 30
0.0
  0
POINT
  5
5670
330
3CC0
100
AcDbEntity
  8
Defpoints
 62
     0
440
 16777216
100
AcDbPoint
 10
485.0000000000008
 20
145.0
 30
0.0
  0
ENDBLK
  5
3CC2
330
3CC0
100
AcDbEntity
  8
0
100
AcDbBlockEnd
  0
BLOCK
  5
3CCD
330
3CCC
100
AcDbEntity
  8
0
100
AcDbBlockBegin
  2
*D18
 70
     1
 10
0.0
 20
0.0
 30
0.0
  3
*D18
  1

  0
LINE
  5
568C
330
3CCC
100
AcDbEntity
  8
19_寸法線・引出線
440
 16777216
100
AcDbLine
 10
485.0000000000008
 20
193.5000217956616
 30
0.0
 11
485.0000000000008
 21
145.0
 31
0.0
  0
LINE
  5
568D
330
3CCC
100
AcDbEntity
  8
19_寸法線・引出線
440
 16777216
100
AcDbLine
 10
681.0000000000006
 20
171.7250671343179
 30
0.0
 11
681.0000000000006
 21
145.0
 31
0.0
  0
LINE
  5
568E
330
3CCC
100
AcDbEntity
  8
19_寸法線・引出線
440
 16777216
100
AcDbLine
 10
485.0000000000008
 20
145.0
 30
0.0
 11
681.0000000000006
 21
145.0
 31
0.0
  0
INSERT
  5
568F
330
3CCC
100
AcDbEntity
  8
19_寸法線・引出線
440
 16777216
100
AcDbBlockReference
  2
_DotSmall
 10
485.0000000000008
 20
145.0
 30
0.0
 41
7.0
 42
7.0
 43
7.0
 50
180.0
  0
INSERT
  5
5690
330
3CCC
100
AcDbEntity
  8
19_寸法線・引出線
440
 16777216
100
AcDbBlockReference
  2
_DotSmall
 10
681.0000000000006
 20
145.0
 30
0.0
 41
7.0
 42
7.0
 43
7.0
  0
MTEXT
  5
5691
330
3CCC
100
AcDbEntity
  8
19_寸法線・引出線
440
 16777216
100
AcDbMText
 10
583.0000000000008
 20
148.5
 30
0.0
 40
5.0
 41
0.0
 46
0.0
 71
     5
 72
     1
  1
DW
  7
文字
 73
     1
 44
1.0
  0
POINT
  5
5692
330
3CCC
100
AcDbEntity
  8
Defpoints
 62
     0
440
 16777216
100
AcDbPoint
 10
485.0000000000008
 20
195.0000217956616
 30
0.0
  0
POINT
  5
5693
330
3CCC
100
AcDbEntity
  8
Defpoints
 62
     0
440
 16777216
100
AcDbPoint
 10
681.0000000000006
 20
173.2250671343179
 30
0.0
  0
POINT
  5
5694
330
3CCC
100
AcDbEntity
  8
Defpoints
 62
     0
440
 16777216
100
AcDbPoint
 10
681.0000000000006
 20
145.0
 30
0.0
  0
ENDBLK
  5
3CCE
330
3CCC
100
AcDbEntity
  8
0
100
AcDbBlockEnd
  0
BLOCK
  5
3CD9
330
3CD8
100
AcDbEntity
  8
0
100
AcDbBlockBegin
  2
*D19
 70
     1
 10
0.0
 20
0.0
 30
0.0
  3
*D19
  1

  0
LINE
  5
56A7
330
3CD8
100
AcDbEntity
  8
19_寸法線・引出線
440
 16777216
100
AcDbLine
 10
681.0000000000006
 20
171.5000330335533
 30
0.0
 11
681.0000000000006
 21
145.0
 31
0.0
  0
LINE
  5
56A8
330
3CD8
100
AcDbEntity
  8
19_寸法線・引出線
440
 16777216
100
AcDbLine
 10
684.9999999999957
 20
171.7250701421444
 30
0.0
 11
684.9999999999957
 21
145.0
 31
0.0
  0
LINE
  5
56A9
330
3CD8
100
AcDbEntity
  8
19_寸法線・引出線
440
 16777216
100
AcDbLine
 10
681.0000000000006
 20
145.0
 30
0.0
 11
684.9999999999957
 21
145.0
 31
0.0
  0
MTEXT
  5
56AA
330
3CD8
100
AcDbEntity
  8
19_寸法線・引出線
440
 16777216
100
AcDbMText
 10
677.1209613901992
 20
148.5
 30
0.0
 40
5.0
 41
0.0
 46
0.0
 71
     5
 72
     1
  1
4
  7
文字
 73
     1
 44
1.0
  0
INSERT
  5
56AB
330
3CD8
100
AcDbEntity
  8
19_寸法線・引出線
440
 16777216
100
AcDbBlockReference
  2
_DotSmall
 10
681.0000000000006
 20
145.0
 30
0.0
 41
7.0
 42
7.0
 43
7.0
 50
180.0
  0
INSERT
  5
56AC
330
3CD8
100
AcDbEntity
  8
19_寸法線・引出線
440
 16777216
100
AcDbBlockReference
  2
_DotSmall
 10
684.9999999999957
 20
145.0
 30
0.0
 41
7.0
 42
7.0
 43
7.0
  0
POINT
  5
56AD
330
3CD8
100
AcDbEntity
  8
Defpoints
 62
     0
440
 16777216
100
AcDbPoint
 10
681.0000000000006
 20
173.0000330335533
 30
0.0
  0
POINT
  5
56AE
330
3CD8
100
AcDbEntity
  8
Defpoints
 62
     0
440
 16777216
100
AcDbPoint
 10
684.9999999999957
 20
173.2250701421444
 30
0.0
  0
POINT
  5
56AF
330
3CD8
100
AcDbEntity
  8
Defpoints
 62
     0
440
 16777216
100
AcDbPoint
 10
684.9999999999957
 20
145.0
 30
0.0
  0
ENDBLK
  5
3CDA
330
3CD8
100
AcDbEntity
  8
0
100
AcDbBlockEnd
  0
BLOCK
  5
41E1
330
41E0
100
AcDbEntity
  8
0
100
AcDbBlockBegin
  2
_DOT
 70
     0
 10
0.0
 20
0.0
 30
0.0
  3
_DOT
  1

  0
LWPOLYLINE
  5
41E2
330
41E0
100
AcDbEntity
  8
0
100
AcDbPolyline
 90
        2
 70
     1
 43
0.5
 10
-0.25
 20
0.0
 42
1.0
 10
0.25
 20
0.0
 42
1.0
  0
LINE
  5
41E3
330
41E0
100
AcDbEntity
  8
0
100
AcDbLine
 10
-0.5
 20
0.0
 30
0.0
 11
-1.0
 21
0.0
 31
0.0
  0
ENDBLK
  5
41E4
330
41E0
100
AcDbEntity
  8
0
100
AcDbBlockEnd
  0
BLOCK
  5
420A
330
4209
100
AcDbEntity
  8
0
100
AcDbBlockBegin
  2
_Origin2
 70
     0
 10
0.0
 20
0.0
 30
0.0
  3
_Origin2
  1

  0
CIRCLE
  5
420B
330
4209
100
AcDbEntity
  8
0
  6
ByBlock
 62
     0
370
    -2
100
AcDbCircle
 10
0.0
 20
0.0
 30
0.0
 40
0.5
  0
CIRCLE
  5
420C
330
4209
100
AcDbEntity
  8
0
  6
ByBlock
 62
     0
370
    -2
100
AcDbCircle
 10
0.0
 20
0.0
 30
0.0
 40
0.25
  0
LINE
  5
420D
330
4209
100
AcDbEntity
  8
0
  6
ByBlock
 62
     0
370
    -2
100
AcDbLine
 10
-0.5
 20
0.0
 30
0.0
 11
-1.0
 21
0.0
 31
0.0
  0
ENDBLK
  5
420E
330
4209
100
AcDbEntity
  8
0
100
AcDbBlockEnd
  0
BLOCK
  5
4507
330
4504
100
AcDbEntity
  8
0
 62
     1
370
     9
100
AcDbBlockBegin
  2
A$C08C2056F
 70
     0
 10
0.0
 20
0.0
 30
0.0
  3
A$C08C2056F
  1

  0
CIRCLE
  5
4508
330
4504
100
AcDbEntity
  8
4
  6
Continuous
 62
    30
370
     9
100
AcDbCircle
 10
8.749999709744656
 20
12.50000023854221
 30
0.0
 40
4.199999722590998
  0
ARC
  5
4509
330
4504
100
AcDbEntity
  8
4
  6
Continuous
 62
    30
370
     9
100
AcDbCircle
 10
15.74999970974397
 20
2.000000238542156
 30
0.0
 40
0.9999999860259976
100
AcDbArc
 50
180.0
 51
270.0
  0
ARC
  5
450A
330
4504
100
AcDbEntity
  8
4
  6
Continuous
 62
    30
370
     9
100
AcDbCircle
 10
15.74999970974397
 20
23.00000023854227
 30
0.0
 40
0.9999999860259976
100
AcDbArc
 50
90.0
 51
180.0
  0
CIRCLE
  5
450B
330
4504
100
AcDbEntity
  8
4
  6
Continuous
 62
    30
370
     9
100
AcDbCircle
 10
8.749999709744656
 20
12.50000023854221
 30
0.0
 40
6.500000045868997
  0
CIRCLE
  5
450C
330
4504
100
AcDbEntity
  8
4
  6
Continuous
 62
    30
370
     9
100
AcDbCircle
 10
8.749999709744656
 20
12.50000023854221
 30
0.0
 40
3.499999814392002
  0
ARC
  5
450D
330
4504
100
AcDbEntity
  8
4
  6
Continuous
 62
    30
370
     9
100
AcDbCircle
 10
22.24999970974375
 20
1.500000238541986
 30
0.0
 40
0.4999999930129989
100
AcDbArc
 50
180.0
 51
270.0
  0
ARC
  5
450E
330
4504
100
AcDbEntity
  8
4
  6
Continuous
 62
    30
370
     9
100
AcDbCircle
 10
22.24999970974375
 20
23.50000023854193
 30
0.0
 40
0.4999999930129989
100
AcDbArc
 50
90.0
 51
180.0
  0
LINE
  5
450F
330
4504
100
AcDbEntity
  8
4
  6
DASHDOT
 62
    30
370
     9
100
AcDbLine
 10
33.74999970974466
 20
12.50000023854221
 30
0.0
 11
27.41999970974428
 21
12.50000023854221
 31
0.0
  0
LINE
  5
4510
330
4504
100
AcDbEntity
  8
4
  6
DOT
 62
    30
370
     9
100
AcDbLine
 10
30.24999970974443
 20
9.900000238542304
 30
0.0
 11
29.74999970974375
 21
9.900000238542304
 31
0.0
  0
LINE
  5
4511
330
4504
100
AcDbEntity
  8
4
  6
DOT
 62
    30
370
     9
100
AcDbLine
 10
30.24999970974443
 20
15.10000023854218
 30
0.0
 11
29.74999970974375
 21
15.10000023854218
 31
0.0
  0
LINE
  5
4512
330
4504
100
AcDbEntity
  8
4
  6
Continuous
 62
    30
370
     9
100
AcDbLine
 10
28.74999970974466
 20
24.00000023854199
 30
0.0
 11
28.74999970974466
 21
1.000000238541929
 31
0.0
  0
LINE
  5
4513
330
4504
100
AcDbEntity
  8
4
  6
Continuous
 62
    30
370
     9
100
AcDbLine
 10
17.74999970974443
 20
3.130000238542152
 30
0.0
 11
17.74999970974443
 21
2.000000238542156
 31
0.0
  0
LINE
  5
4514
330
4504
100
AcDbEntity
  8
4
  6
Continuous
 62
    30
370
     9
100
AcDbLine
 10
15.74999970974397
 20
2.000000238542156
 30
0.0
 11
15.74999970974397
 21
5.640000238541915
 31
0.0
  0
LINE
  5
4515
330
4504
100
AcDbEntity
  8
4
  6
Continuous
 62
    30
370
     9
100
AcDbLine
 10
14.74999970974375
 20
2.000000238542156
 30
0.0
 11
14.74999970974375
 21
6.890000238541915
 31
0.0
  0
LINE
  5
4516
330
4504
100
AcDbEntity
  8
4
  6
Continuous
 62
    30
370
     9
100
AcDbLine
 10
18.24999970974397
 20
2.500000238542213
 30
0.0
 11
13.66999970974427
 21
8.250000238542156
 31
0.0
  0
LINE
  5
4517
330
4504
100
AcDbEntity
  8
4
  6
Continuous
 62
    30
370
     9
100
AcDbLine
 10
15.24999970974443
 20
8.250000238542156
 30
0.0
 11
21.24999970974466
 21
2.500000238542213
 31
0.0
  0
LINE
  5
4518
330
4504
100
AcDbEntity
  8
4
  6
Continuous
 62
    30
370
     9
100
AcDbLine
 10
17.74999970974443
 20
23.00000023854227
 30
0.0
 11
17.74999970974443
 21
21.87000023854228
 31
0.0
  0
LINE
  5
4519
330
4504
100
AcDbEntity
  8
4
  6
Continuous
 62
    30
370
     9
100
AcDbLine
 10
15.74999970974397
 20
19.360000238542
 30
0.0
 11
15.74999970974397
 21
23.00000023854227
 31
0.0
  0
LINE
  5
451A
330
4504
100
AcDbEntity
  8
4
  6
Continuous
 62
    30
370
     9
100
AcDbLine
 10
14.74999970974375
 20
18.110000238542
 30
0.0
 11
14.74999970974375
 21
23.00000023854227
 31
0.0
  0
LINE
  5
451B
330
4504
100
AcDbEntity
  8
4
  6
Continuous
 62
    30
370
     9
100
AcDbLine
 10
18.24999970974397
 20
22.50000023854221
 30
0.0
 11
13.66999970974427
 21
16.75000023854227
 31
0.0
  0
LINE
  5
451C
330
4504
100
AcDbEntity
  8
4
  6
Continuous
 62
    30
370
     9
100
AcDbLine
 10
15.24999970974443
 20
16.75000023854227
 30
0.0
 11
21.24999970974466
 21
22.50000023854221
 31
0.0
  0
LINE
  5
451D
330
4504
100
AcDbEntity
  8
4
  6
Continuous
 62
    30
370
     9
100
AcDbLine
 10
15.24999970974443
 20
8.250000238542156
 30
0.0
 11
13.66999970974427
 21
8.250000238542156
 31
0.0
  0
POLYLINE
  5
451E
330
4504
100
AcDbEntity
  8
4
  6
Continuous
 62
    30
370
     9
100
AcDb2dPolyline
 66
     1
 10
0.0
 20
0.0
 30
0.0
  0
VERTEX
  5
451F
330
451E
100
AcDbEntity
  8
4
  6
Continuous
 62
    30
370
     9
100
AcDbVertex
100
AcDb2dVertex
 10
15.24999970974443
 20
8.250000238542156
 30
0.0
  0
VERTEX
  5
4520
330
451E
100
AcDbEntity
  8
4
  6
Continuous
 62
    30
370
     9
100
AcDbVertex
100
AcDb2dVertex
 10
15.24999970974443
 20
16.75000023854227
 30
0.0
  0
VERTEX
  5
4521
330
451E
100
AcDbEntity
  8
4
  6
Continuous
 62
    30
370
     9
100
AcDbVertex
100
AcDb2dVertex
 10
13.66999970974427
 20
16.75000023854227
 30
0.0
  0
SEQEND
  5
4522
330
451E
100
AcDbEntity
  8
4
  6
Continuous
370
     9
  0
LINE
  5
4523
330
4504
100
AcDbEntity
  8
4
  6
Continuous
 62
    30
370
     9
100
AcDbLine
 10
18.24999970974397
 20
2.500000238542213
 30
0.0
 11
21.24999970974466
 21
2.500000238542213
 31
0.0
  0
LINE
  5
4524
330
4504
100
AcDbEntity
  8
4
  6
Continuous
 62
    30
370
     9
100
AcDbLine
 10
18.24999970974397
 20
22.50000023854221
 30
0.0
 11
21.24999970974466
 21
22.50000023854221
 31
0.0
  0
LINE
  5
4525
330
4504
100
AcDbEntity
  8
4
  6
Continuous
 62
    30
370
     9
100
AcDbLine
 10
21.24999970974466
 20
22.50000023854221
 30
0.0
 11
21.24999970974466
 21
2.500000238542213
 31
0.0
  0
LINE
  5
4526
330
4504
100
AcDbEntity
  8
4
  6
Continuous
 62
    30
370
     9
100
AcDbLine
 10
15.74999970974397
 20
2.000000238542156
 30
0.0
 11
21.74999970974426
 21
2.000000238542156
 31
0.0
  0
LINE
  5
4527
330
4504
100
AcDbEntity
  8
4
  6
Continuous
 62
    30
370
     9
100
AcDbLine
 10
15.74999970974397
 20
23.00000023854227
 30
0.0
 11
21.74999970974426
 21
23.00000023854227
 31
0.0
  0
LINE
  5
4528
330
4504
100
AcDbEntity
  8
4
  6
Continuous
 62
    30
370
     9
100
AcDbLine
 10
15.74999970974397
 20
1.000000238541929
 30
0.0
 11
29.74999970974375
 21
1.000000238541929
 31
0.0
  0
LINE
  5
4529
330
4504
100
AcDbEntity
  8
4
  6
Continuous
 62
    30
370
     9
100
AcDbLine
 10
15.74999970974397
 20
24.00000023854199
 30
0.0
 11
29.74999970974375
 21
24.00000023854199
 31
0.0
  0
LINE
  5
452A
330
4504
100
AcDbEntity
  8
4
  6
DOT
 62
    30
370
     9
100
AcDbLine
 10
30.24999970974443
 20
15.10000023854218
 30
0.0
 11
30.24999970974443
 21
9.900000238542304
 31
0.0
  0
LINE
  5
452B
330
4504
100
AcDbEntity
  8
4
  6
DOT
 62
    30
370
     9
100
AcDbLine
 10
31.74999970974432
 20
8.500000238541929
 30
0.0
 11
30.24999970974443
 21
9.900000238542304
 31
0.0
  0
LINE
  5
452C
330
4504
100
AcDbEntity
  8
4
  6
DOT
 62
    30
370
     9
100
AcDbLine
 10
31.74999970974432
 20
16.50000023854198
 30
0.0
 11
30.24999970974443
 21
15.10000023854218
 31
0.0
  0
LINE
  5
452D
330
4504
100
AcDbEntity
  8
4
  6
Continuous
 62
    30
370
     9
100
AcDbLine
 10
31.74999970974432
 20
0.0000002385422135
 30
0.0
 11
29.74999970974375
 21
0.0000002385422135
 31
0.0
  0
POLYLINE
  5
452E
330
4504
100
AcDbEntity
  8
4
  6
Continuous
 62
    30
370
     9
100
AcDb2dPolyline
 66
     1
 10
0.0
 20
0.0
 30
0.0
  0
VERTEX
  5
452F
330
452E
100
AcDbEntity
  8
4
  6
Continuous
 62
    30
370
     9
100
AcDbVertex
100
AcDb2dVertex
 10
31.74999970974432
 20
25.00000023854222
 30
0.0
  0
VERTEX
  5
4530
330
452E
100
AcDbEntity
  8
4
  6
Continuous
 62
    30
370
     9
100
AcDbVertex
100
AcDb2dVertex
 10
29.74999970974375
 20
25.00000023854222
 30
0.0
  0
VERTEX
  5
4531
330
452E
100
AcDbEntity
  8
4
  6
Continuous
 62
    30
370
     9
100
AcDbVertex
100
AcDb2dVertex
 10
29.74999970974375
 20
0.0000002385422135
 30
0.0
  0
SEQEND
  5
4532
330
452E
100
AcDbEntity
  8
4
  6
Continuous
370
     9
  0
LINE
  5
4533
330
4504
100
AcDbEntity
  8
4
  6
Continuous
 62
    30
370
     9
100
AcDbLine
 10
31.74999970974432
 20
25.00000023854222
 30
0.0
 11
31.74999970974432
 21
0.0000002385422135
 31
0.0
  0
LINE
  5
4534
330
4504
100
AcDbEntity
  8
4
  6
DASHDOT
 62
    30
370
     9
100
AcDbLine
 10
8.749999709744656
 20
21.25000023854221
 30
0.0
 11
8.749999709744656
 21
3.750000238542213
 31
0.0
  0
LINE
  5
4535
330
4504
100
AcDbEntity
  8
4
  6
DASHDOT
 62
    30
370
     9
100
AcDbLine
 10
17.49999970974466
 20
12.50000023854221
 30
0.0
 11
-0.0000002902553433
 21
12.50000023854221
 31
0.0
  0
LINE
  5
4536
330
4504
100
AcDbEntity
  8
4
  6
Continuous
 62
    30
370
     9
100
AcDbLine
 10
21.74999970974426
 20
23.50000023854193
 30
0.0
 11
21.74999970974426
 21
1.500000238541986
 31
0.0
  0
ENDBLK
  5
4537
330
4504
100
AcDbEntity
  8
0
 62
     1
370
     9
100
AcDbBlockEnd
  0
BLOCK
  5
4607
330
4604
100
AcDbEntity
  8
0
100
AcDbBlockBegin
  2
A$C1DB77F89
 70
     0
 10
0.0
 20
0.0
 30
0.0
  3
A$C1DB77F89
  1

  0
POLYLINE
  5
4608
330
4604
100
AcDbEntity
  8
25
  6
Continuous
 62
    30
370
     9
100
AcDb2dPolyline
 66
     1
 10
0.0
 20
0.0
 30
0.0
  0
VERTEX
  5
4609
330
4608
100
AcDbEntity
  8
25
  6
Continuous
 62
    30
370
     9
100
AcDbVertex
100
AcDb2dVertex
 10
6.805888713342937
 20
13.06618199292137
 30
0.0
  0
VERTEX
  5
460A
330
4608
100
AcDbEntity
  8
25
  6
Continuous
 62
    30
370
     9
100
AcDbVertex
100
AcDb2dVertex
 10
6.649996978127092
 20
13.49999965841419
 30
0.0
  0
VERTEX
  5
460B
330
4608
100
AcDbEntity
  8
25
  6
Continuous
 62
    30
370
     9
100
AcDbVertex
100
AcDb2dVertex
 10
5.149996978127092
 20
13.49999965841419
 30
0.0
  0
VERTEX
  5
460C
330
4608
100
AcDbEntity
  8
25
  6
Continuous
 62
    30
370
     9
100
AcDbVertex
100
AcDb2dVertex
 10
4.994105242911246
 20
13.06618199292137
 30
0.0
  0
SEQEND
  5
460D
330
4608
100
AcDbEntity
  8
25
  6
Continuous
370
     9
  0
ARC
  5
460E
330
4604
100
AcDbEntity
  8
25
  6
Continuous
 62
    30
370
     9
100
AcDbCircle
 10
6.899996978064336
 20
13.09999965809623
 30
0.0
 40
0.0999999999517278
100
AcDbArc
 50
199.7658247523251
 51
340.2341752718978
  0
POLYLINE
  5
460F
330
4604
100
AcDbEntity
  8
25
  6
Continuous
 62
    30
370
     9
100
AcDb2dPolyline
 66
     1
 10
0.0
 20
0.0
 30
0.0
  0
VERTEX
  5
4610
330
460F
100
AcDbEntity
  8
25
  6
Continuous
 62
    30
370
     9
100
AcDbVertex
100
AcDb2dVertex
 10
8.805888713341119
 20
13.06618199292137
 30
0.0
  0
VERTEX
  5
4611
330
460F
100
AcDbEntity
  8
25
  6
Continuous
 62
    30
370
     9
100
AcDbVertex
100
AcDb2dVertex
 10
8.649996978127092
 20
13.49999965841419
 30
0.0
  0
VERTEX
  5
4612
330
460F
100
AcDbEntity
  8
25
  6
Continuous
 62
    30
370
     9
100
AcDbVertex
100
AcDb2dVertex
 10
7.149996978127092
 20
13.49999965841419
 30
0.0
  0
VERTEX
  5
4613
330
460F
100
AcDbEntity
  8
25
  6
Continuous
 62
    30
370
     9
100
AcDbVertex
100
AcDb2dVertex
 10
6.994105242911246
 20
13.06618199292137
 30
0.0
  0
SEQEND
  5
4614
330
460F
100
AcDbEntity
  8
25
  6
Continuous
370
     9
  0
ARC
  5
4615
330
4604
100
AcDbEntity
  8
25
  6
Continuous
 62
    30
370
     9
100
AcDbCircle
 10
8.899996978059789
 20
13.09999965699404
 30
0.0
 40
0.099999999583802
100
AcDbArc
 50
199.7658241574301
 51
340.2341758671422
  0
POLYLINE
  5
4616
330
4604
100
AcDbEntity
  8
25
  6
Continuous
 62
    30
370
     9
100
AcDb2dPolyline
 66
     1
 10
0.0
 20
0.0
 30
0.0
  0
VERTEX
  5
4617
330
4616
100
AcDbEntity
  8
25
  6
Continuous
 62
    30
370
     9
100
AcDbVertex
100
AcDb2dVertex
 10
9.899996978127092
 20
13.49999965841419
 30
0.0
  0
VERTEX
  5
4618
330
4616
100
AcDbEntity
  8
25
  6
Continuous
 62
    30
370
     9
100
AcDbVertex
100
AcDb2dVertex
 10
9.149996978127092
 20
13.49999965841419
 30
0.0
  0
VERTEX
  5
4619
330
4616
100
AcDbEntity
  8
25
  6
Continuous
 62
    30
370
     9
100
AcDbVertex
100
AcDb2dVertex
 10
8.994105242911246
 20
13.06618199292137
 30
0.0
  0
SEQEND
  5
461A
330
4616
100
AcDbEntity
  8
25
  6
Continuous
370
     9
  0
ARC
  5
461B
330
4604
100
AcDbEntity
  8
25
  6
Continuous
 62
    30
370
     9
100
AcDbCircle
 10
9.899996978119816
 20
13.99999965842136
 30
0.0
 40
0.4999999999942731
100
AcDbArc
 50
270.0
 51
90.0
  0
ARC
  5
461C
330
4604
100
AcDbEntity
  8
25
  6
Continuous
 62
    30
370
     9
100
AcDbCircle
 10
1.899996978068884
 20
13.9999996584724
 30
0.0
 40
0.5000000000576251
100
AcDbArc
 50
90.0
 51
270.0
  0
POLYLINE
  5
461D
330
4604
100
AcDbEntity
  8
25
  6
Continuous
 62
    30
370
     9
100
AcDb2dPolyline
 66
     1
 10
0.0
 20
0.0
 30
0.0
  0
VERTEX
  5
461E
330
461D
100
AcDbEntity
  8
25
  6
Continuous
 62
    30
370
     9
100
AcDbVertex
100
AcDb2dVertex
 10
2.805888713342937
 20
13.06618199292137
 30
0.0
  0
VERTEX
  5
461F
330
461D
100
AcDbEntity
  8
25
  6
Continuous
 62
    30
370
     9
100
AcDbVertex
100
AcDb2dVertex
 10
2.649996978127092
 20
13.49999965841419
 30
0.0
  0
VERTEX
  5
4620
330
461D
100
AcDbEntity
  8
25
  6
Continuous
 62
    30
370
     9
100
AcDbVertex
100
AcDb2dVertex
 10
1.899996978127092
 20
13.49999965841419
 30
0.0
  0
SEQEND
  5
4621
330
461D
100
AcDbEntity
  8
25
  6
Continuous
370
     9
  0
ARC
  5
4622
330
4604
100
AcDbEntity
  8
25
  6
Continuous
 62
    30
370
     9
100
AcDbCircle
 10
2.899996978388116
 20
13.09999965810362
 30
0.0
 40
0.0999999996491264
100
AcDbArc
 50
199.7658246928973
 51
340.234175205239
  0
POLYLINE
  5
4623
330
4604
100
AcDbEntity
  8
25
  6
Continuous
 62
    30
370
     9
100
AcDb2dPolyline
 66
     1
 10
0.0
 20
0.0
 30
0.0
  0
VERTEX
  5
4624
330
4623
100
AcDbEntity
  8
25
  6
Continuous
 62
    30
370
     9
100
AcDbVertex
100
AcDb2dVertex
 10
4.805888713342937
 20
13.06618199292137
 30
0.0
  0
VERTEX
  5
4625
330
4623
100
AcDbEntity
  8
25
  6
Continuous
 62
    30
370
     9
100
AcDbVertex
100
AcDb2dVertex
 10
4.649996978127092
 20
13.49999965841419
 30
0.0
  0
VERTEX
  5
4626
330
4623
100
AcDbEntity
  8
25
  6
Continuous
 62
    30
370
     9
100
AcDbVertex
100
AcDb2dVertex
 10
3.149996978127092
 20
13.49999965841419
 30
0.0
  0
VERTEX
  5
4627
330
4623
100
AcDbEntity
  8
25
  6
Continuous
 62
    30
370
     9
100
AcDbVertex
100
AcDb2dVertex
 10
2.994105242911246
 20
13.06618199292137
 30
0.0
  0
SEQEND
  5
4628
330
4623
100
AcDbEntity
  8
25
  6
Continuous
370
     9
  0
ARC
  5
4629
330
4604
100
AcDbEntity
  8
25
  6
Continuous
 62
    30
370
     9
100
AcDbCircle
 10
4.899996978226226
 20
13.09999965809976
 30
0.0
 40
0.09999999980032
100
AcDbArc
 50
199.765824721718
 51
340.2341752385658
  0
ARC
  5
462A
330
4604
100
AcDbEntity
  8
25
  6
Continuous
 62
    30
370
     9
100
AcDbCircle
 10
2.899996978816488
 20
11.59999965870378
 30
0.0
 40
0.0999999994498856
100
AcDbArc
 50
199.7658249332307
 51
340.2341747985721
  0
POLYLINE
  5
462B
330
4604
100
AcDbEntity
  8
25
  6
Continuous
 62
    30
370
     9
100
AcDb2dPolyline
 66
     1
 10
0.0
 20
0.0
 30
0.0
  0
VERTEX
  5
462C
330
462B
100
AcDbEntity
  8
25
  6
Continuous
 62
    30
370
     9
100
AcDbVertex
100
AcDb2dVertex
 10
4.805888713342937
 20
11.56618199292137
 30
0.0
  0
VERTEX
  5
462D
330
462B
100
AcDbEntity
  8
25
  6
Continuous
 62
    30
370
     9
100
AcDbVertex
100
AcDb2dVertex
 10
4.649996978127092
 20
11.99999965841419
 30
0.0
  0
VERTEX
  5
462E
330
462B
100
AcDbEntity
  8
25
  6
Continuous
 62
    30
370
     9
100
AcDbVertex
100
AcDb2dVertex
 10
3.149996978127092
 20
11.99999965841419
 30
0.0
  0
VERTEX
  5
462F
330
462B
100
AcDbEntity
  8
25
  6
Continuous
 62
    30
370
     9
100
AcDbVertex
100
AcDb2dVertex
 10
2.994105242911246
 20
11.56618199292137
 30
0.0
  0
SEQEND
  5
4630
330
462B
100
AcDbEntity
  8
25
  6
Continuous
370
     9
  0
ARC
  5
4631
330
4604
100
AcDbEntity
  8
25
  6
Continuous
 62
    30
370
     9
100
AcDbCircle
 10
4.899996978654598
 20
11.59999965870014
 30
0.0
 40
0.0999999996008654
100
AcDbArc
 50
199.765824964014
 51
340.2341748318989
  0
POLYLINE
  5
4632
330
4604
100
AcDbEntity
  8
25
  6
Continuous
 62
    30
370
     9
100
AcDb2dPolyline
 66
     1
 10
0.0
 20
0.0
 30
0.0
  0
VERTEX
  5
4633
330
4632
100
AcDbEntity
  8
25
  6
Continuous
 62
    30
370
     9
100
AcDbVertex
100
AcDb2dVertex
 10
6.805888713342937
 20
11.56618199292137
 30
0.0
  0
VERTEX
  5
4634
330
4632
100
AcDbEntity
  8
25
  6
Continuous
 62
    30
370
     9
100
AcDbVertex
100
AcDb2dVertex
 10
6.649996978127092
 20
11.99999965841419
 30
0.0
  0
VERTEX
  5
4635
330
4632
100
AcDbEntity
  8
25
  6
Continuous
 62
    30
370
     9
100
AcDbVertex
100
AcDb2dVertex
 10
5.149996978127092
 20
11.99999965841419
 30
0.0
  0
VERTEX
  5
4636
330
4632
100
AcDbEntity
  8
25
  6
Continuous
 62
    30
370
     9
100
AcDbVertex
100
AcDb2dVertex
 10
4.994105242911246
 20
11.56618199292137
 30
0.0
  0
SEQEND
  5
4637
330
4632
100
AcDbEntity
  8
25
  6
Continuous
370
     9
  0
ARC
  5
4638
330
4604
100
AcDbEntity
  8
25
  6
Continuous
 62
    30
370
     9
100
AcDbCircle
 10
6.899996978492708
 20
11.59999965869662
 30
0.0
 40
0.099999999752273
100
AcDbArc
 50
199.7658249926638
 51
340.234174865231
  0
POLYLINE
  5
4639
330
4604
100
AcDbEntity
  8
25
  6
Continuous
 62
    30
370
     9
100
AcDb2dPolyline
 66
     1
 10
0.0
 20
0.0
 30
0.0
  0
VERTEX
  5
463A
330
4639
100
AcDbEntity
  8
25
  6
Continuous
 62
    30
370
     9
100
AcDbVertex
100
AcDb2dVertex
 10
8.805888713341119
 20
11.56618199292137
 30
0.0
  0
VERTEX
  5
463B
330
4639
100
AcDbEntity
  8
25
  6
Continuous
 62
    30
370
     9
100
AcDbVertex
100
AcDb2dVertex
 10
8.649996978127092
 20
11.99999965841419
 30
0.0
  0
VERTEX
  5
463C
330
4639
100
AcDbEntity
  8
25
  6
Continuous
 62
    30
370
     9
100
AcDbVertex
100
AcDb2dVertex
 10
7.149996978127092
 20
11.99999965841419
 30
0.0
  0
VERTEX
  5
463D
330
4639
100
AcDbEntity
  8
25
  6
Continuous
 62
    30
370
     9
100
AcDbVertex
100
AcDb2dVertex
 10
6.994105242911246
 20
11.56618199292137
 30
0.0
  0
SEQEND
  5
463E
330
4639
100
AcDbEntity
  8
25
  6
Continuous
370
     9
  0
ARC
  5
463F
330
4604
100
AcDbEntity
  8
25
  6
Continuous
 62
    30
370
     9
100
AcDbCircle
 10
8.899996978485432
 20
11.59999965847095
 30
0.0
 40
0.0999999996816986
100
AcDbArc
 50
199.7658248723008
 51
340.2341749882611
  0
POLYLINE
  5
4640
330
4604
100
AcDbEntity
  8
25
  6
Continuous
 62
    30
370
     9
100
AcDb2dPolyline
 66
     1
 10
0.0
 20
0.0
 30
0.0
  0
VERTEX
  5
4641
330
4640
100
AcDbEntity
  8
25
  6
Continuous
 62
    30
370
     9
100
AcDbVertex
100
AcDb2dVertex
 10
9.899996978127092
 20
11.99999965841419
 30
0.0
  0
VERTEX
  5
4642
330
4640
100
AcDbEntity
  8
25
  6
Continuous
 62
    30
370
     9
100
AcDbVertex
100
AcDb2dVertex
 10
9.149996978127092
 20
11.99999965841419
 30
0.0
  0
VERTEX
  5
4643
330
4640
100
AcDbEntity
  8
25
  6
Continuous
 62
    30
370
     9
100
AcDbVertex
100
AcDb2dVertex
 10
8.994105242911246
 20
11.56618199292137
 30
0.0
  0
SEQEND
  5
4644
330
4640
100
AcDbEntity
  8
25
  6
Continuous
370
     9
  0
ARC
  5
4645
330
4604
100
AcDbEntity
  8
25
  6
Continuous
 62
    30
370
     9
100
AcDbCircle
 10
9.899996978125273
 20
12.4999996584142
 30
0.0
 40
0.5000000000001707
100
AcDbArc
 50
270.0
 51
90.0
  0
POLYLINE
  5
4646
330
4604
100
AcDbEntity
  8
25
  6
Continuous
 62
    30
370
     9
100
AcDb2dPolyline
 66
     1
 10
0.0
 20
0.0
 30
0.0
  0
VERTEX
  5
4647
330
4646
100
AcDbEntity
  8
25
  6
Continuous
 62
    30
370
     9
100
AcDbVertex
100
AcDb2dVertex
 10
1.899996978127092
 20
12.9999996584142
 30
0.0
  0
VERTEX
  5
4648
330
4646
100
AcDbEntity
  8
25
  6
Continuous
 62
    30
370
     9
100
AcDbVertex
100
AcDb2dVertex
 10
9.899996978127092
 20
12.9999996584142
 30
0.0
  0
SEQEND
  5
4649
330
4646
100
AcDbEntity
  8
25
  6
Continuous
370
     9
  0
ARC
  5
464A
330
4604
100
AcDbEntity
  8
25
  6
Continuous
 62
    30
370
     9
100
AcDbCircle
 10
1.899996978067065
 20
12.4999996584724
 30
0.0
 40
0.5000000000580373
100
AcDbArc
 50
90.0
 51
270.0
  0
POLYLINE
  5
464B
330
4604
100
AcDbEntity
  8
25
  6
Continuous
 62
    30
370
     9
100
AcDb2dPolyline
 66
     1
 10
0.0
 20
0.0
 30
0.0
  0
VERTEX
  5
464C
330
464B
100
AcDbEntity
  8
25
  6
Continuous
 62
    30
370
     9
100
AcDbVertex
100
AcDb2dVertex
 10
2.805888713342937
 20
11.56618199292137
 30
0.0
  0
VERTEX
  5
464D
330
464B
100
AcDbEntity
  8
25
  6
Continuous
 62
    30
370
     9
100
AcDbVertex
100
AcDb2dVertex
 10
2.649996978127092
 20
11.99999965841419
 30
0.0
  0
VERTEX
  5
464E
330
464B
100
AcDbEntity
  8
25
  6
Continuous
 62
    30
370
     9
100
AcDbVertex
100
AcDb2dVertex
 10
1.899996978127092
 20
11.99999965841419
 30
0.0
  0
SEQEND
  5
464F
330
464B
100
AcDbEntity
  8
25
  6
Continuous
370
     9
  0
ARC
  5
4650
330
4604
100
AcDbEntity
  8
25
  6
Continuous
 62
    30
370
     9
100
AcDbCircle
 10
4.89999697996609
 20
7.827459717342605
 30
0.0
 40
0.50000000175487
100
AcDbArc
 50
180.0000000962996
 51
208.1785900999872
  0
POLYLINE
  5
4651
330
4604
100
AcDbEntity
  8
25
  6
Continuous
 62
    30
370
     9
100
AcDb2dPolyline
 66
     1
 10
0.0
 20
0.0
 30
0.0
  0
VERTEX
  5
4652
330
4651
100
AcDbEntity
  8
25
  6
Continuous
 62
    30
370
     9
100
AcDbVertex
100
AcDb2dVertex
 10
4.399996978211675
 20
9.499999658410558
 30
0.0
  0
VERTEX
  5
4653
330
4651
100
AcDbEntity
  8
25
  6
Continuous
 62
    30
370
     9
100
AcDbVertex
100
AcDb2dVertex
 10
4.399996978211675
 20
7.827459716502232
 30
0.0
  0
SEQEND
  5
4654
330
4651
100
AcDbEntity
  8
25
  6
Continuous
370
     9
  0
ARC
  5
4655
330
4604
100
AcDbEntity
  8
25
  6
Continuous
 62
    30
370
     9
100
AcDbCircle
 10
4.899996978393573
 20
9.499999658228659
 30
0.0
 40
0.5000000001846133
100
AcDbArc
 50
90.0
 51
179.9999999791559
  0
ARC
  5
4656
330
4604
100
AcDbEntity
  8
25
  6
Continuous
 62
    30
370
     9
100
AcDbCircle
 10
6.899996978170747
 20
9.499999658399644
 30
0.0
 40
0.4999999999556623
100
AcDbArc
 50
0.0000000016675267
 51
90.0
  0
POLYLINE
  5
4657
330
4604
100
AcDbEntity
  8
25
  6
Continuous
 62
    30
370
     9
100
AcDb2dPolyline
 66
     1
 10
0.0
 20
0.0
 30
0.0
  0
VERTEX
  5
4658
330
4657
100
AcDbEntity
  8
25
  6
Continuous
 62
    30
370
     9
100
AcDbVertex
100
AcDb2dVertex
 10
7.399996978127092
 20
7.827459716502232
 30
0.0
  0
VERTEX
  5
4659
330
4657
100
AcDbEntity
  8
25
  6
Continuous
 62
    30
370
     9
100
AcDbVertex
100
AcDb2dVertex
 10
7.399996978127092
 20
9.499999658414196
 30
0.0
  0
SEQEND
  5
465A
330
4657
100
AcDbEntity
  8
25
  6
Continuous
370
     9
  0
ARC
  5
465B
330
4604
100
AcDbEntity
  8
25
  6
Continuous
 62
    30
370
     9
100
AcDbCircle
 10
6.899996976920192
 20
7.827459716753253
 30
0.0
 40
0.500000001181884
100
AcDbArc
 50
331.8214099300088
 51
359.9999999712352
  0
POLYLINE
  5
465C
330
4604
100
AcDbEntity
  8
25
  6
Continuous
 62
    30
370
     9
100
AcDb2dPolyline
 66
     1
 10
0.0
 20
0.0
 30
0.0
  0
VERTEX
  5
465D
330
465C
100
AcDbEntity
  8
25
  6
Continuous
 62
    30
370
     9
100
AcDbVertex
100
AcDb2dVertex
 10
6.899996978127092
 20
9.999999658410558
 30
0.0
  0
VERTEX
  5
465E
330
465C
100
AcDbEntity
  8
25
  6
Continuous
 62
    30
370
     9
100
AcDbVertex
100
AcDb2dVertex
 10
4.899996978211675
 20
9.999999658410558
 30
0.0
  0
SEQEND
  5
465F
330
465C
100
AcDbEntity
  8
25
  6
Continuous
370
     9
  0
ARC
  5
4660
330
4604
100
AcDbEntity
  8
25
  6
Continuous
 62
    30
370
     9
100
AcDbCircle
 10
6.403143375014224
 20
6.499999658832564
 30
0.0
 40
0.5000000004177422
100
AcDbArc
 50
270.0
 51
331.8214098784478
  0
POLYLINE
  5
4661
330
4604
100
AcDbEntity
  8
25
  6
Continuous
 62
    30
370
     9
100
AcDb2dPolyline
 66
     1
 10
0.0
 20
0.0
 30
0.0
  0
VERTEX
  5
4662
330
4661
100
AcDbEntity
  8
25
  6
Continuous
 62
    30
370
     9
100
AcDbVertex
100
AcDb2dVertex
 10
5.396850580675163
 20
5.999999658414196
 30
0.0
  0
VERTEX
  5
4663
330
4661
100
AcDbEntity
  8
25
  6
Continuous
 62
    30
370
     9
100
AcDbVertex
100
AcDb2dVertex
 10
6.403143375579929
 20
5.999999658414196
 30
0.0
  0
SEQEND
  5
4664
330
4661
100
AcDbEntity
  8
25
  6
Continuous
370
     9
  0
ARC
  5
4665
330
4604
100
AcDbEntity
  8
25
  6
Continuous
 62
    30
370
     9
100
AcDbCircle
 10
5.396850581311809
 20
6.499999659320053
 30
0.0
 40
0.5000000009898113
100
AcDbArc
 50
208.1785901669468
 51
270.0
  0
ARC
  5
4666
330
4604
100
AcDbEntity
  8
25
  6
Continuous
 62
    30
370
     9
100
AcDbCircle
 10
2.558820471137551
 20
4.355816276149596
 30
0.0
 40
0.8000000003723128
100
AcDbArc
 50
87.39278786837449
 51
134.5057164658098
  0
ARC
  5
4667
330
4604
100
AcDbEntity
  8
25
  6
Continuous
 62
    30
370
     9
100
AcDbCircle
 10
9.241173485620493
 20
4.355816277252017
 30
0.0
 40
0.7999999992137226
100
AcDbArc
 50
45.49428350450612
 51
92.60721217119849
  0
ARC
  5
4668
330
4604
100
AcDbEntity
  8
25
  6
Continuous
 62
    30
370
     9
100
AcDbCircle
 10
7.600626257974909
 20
4.499999657908517
 30
0.0
 40
0.4999999994944488
100
AcDbArc
 50
270.0
 51
331.8214099219451
  0
POLYLINE
  5
4669
330
4604
100
AcDbEntity
  8
25
  6
Continuous
 62
    30
370
     9
100
AcDb2dPolyline
 66
     1
 10
0.0
 20
0.0
 30
0.0
  0
VERTEX
  5
466A
330
4669
100
AcDbEntity
  8
25
  6
Continuous
 62
    30
370
     9
100
AcDbVertex
100
AcDb2dVertex
 10
4.199367698636706
 20
3.999999658414196
 30
0.0
  0
VERTEX
  5
466B
330
4669
100
AcDbEntity
  8
25
  6
Continuous
 62
    30
370
     9
100
AcDbVertex
100
AcDb2dVertex
 10
7.600626257617477
 20
3.999999658414196
 30
0.0
  0
SEQEND
  5
466C
330
4669
100
AcDbEntity
  8
25
  6
Continuous
370
     9
  0
ARC
  5
466D
330
4604
100
AcDbEntity
  8
25
  6
Continuous
 62
    30
370
     9
100
AcDbCircle
 10
4.199367699002323
 20
4.499999658818012
 30
0.0
 40
0.5000000005130044
100
AcDbArc
 50
208.178590130901
 51
270.0
  0
POLYLINE
  5
466E
330
4604
100
AcDbEntity
  8
25
  6
Continuous
 62
    30
370
     9
100
AcDb2dPolyline
 66
     1
 10
0.0
 20
0.0
 30
0.0
  0
VERTEX
  5
466F
330
466E
100
AcDbEntity
  8
25
  6
Continuous
 62
    30
370
     9
100
AcDbVertex
100
AcDb2dVertex
 10
4.459256993197413
 20
7.59134901024521
 30
0.0
  0
VERTEX
  5
4670
330
466E
100
AcDbEntity
  8
25
  6
Continuous
 62
    30
370
     9
100
AcDbVertex
100
AcDb2dVertex
 10
4.956110595660902
 20
6.263888952157174
 30
0.0
  0
SEQEND
  5
4671
330
466E
100
AcDbEntity
  8
25
  6
Continuous
370
     9
  0
POLYLINE
  5
4672
330
4604
100
AcDbEntity
  8
25
  6
Continuous
 62
    30
370
     9
100
AcDb2dPolyline
 66
     1
 10
0.0
 20
0.0
 30
0.0
  0
VERTEX
  5
4673
330
4672
100
AcDbEntity
  8
25
  6
Continuous
 62
    30
370
     9
100
AcDbVertex
100
AcDb2dVertex
 10
6.84388336059419
 20
6.263888952157174
 30
0.0
  0
VERTEX
  5
4674
330
4672
100
AcDbEntity
  8
25
  6
Continuous
 62
    30
370
     9
100
AcDbVertex
100
AcDb2dVertex
 10
7.340736963140443
 20
7.59134901024521
 30
0.0
  0
SEQEND
  5
4675
330
4672
100
AcDbEntity
  8
25
  6
Continuous
370
     9
  0
ARC
  5
4676
330
4604
100
AcDbEntity
  8
25
  6
Continuous
 62
    30
370
     9
100
AcDbCircle
 10
8.403225334497165
 20
3.500041221081517
 30
0.0
 40
0.9967716444691671
100
AcDbArc
 50
359.9976109217805
 51
107.3411964578723
  0
ARC
  5
4677
330
4604
100
AcDbEntity
  8
25
  6
Continuous
 62
    30
370
     9
100
AcDbCircle
 10
2.606949688001805
 20
5.798185038183362
 30
0.0
 40
0.6433039816279982
100
AcDbArc
 50
268.9544781629967
 51
333.3778362011789
  0
ARC
  5
4678
330
4604
100
AcDbEntity
  8
25
  6
Continuous
 62
    30
370
     9
100
AcDbCircle
 10
9.203482814118615
 20
5.764631215599308
 30
0.0
 40
0.6096444429571222
100
AcDbArc
 50
201.0451668605925
 51
270.1221473751875
  0
ARC
  5
4679
330
4604
100
AcDbEntity
  8
25
  6
Continuous
 62
    30
370
     9
100
AcDbCircle
 10
2.277180816744703
 20
1.183708861285879
 30
0.0
 40
0.799999999495552
100
AcDbArc
 50
32.59330073898086
 51
55.8703643037749
  0
ARC
  5
467A
330
4604
100
AcDbEntity
  8
25
  6
Continuous
 62
    30
370
     9
100
AcDbCircle
 10
8.6251055785375
 20
2.508141242709939
 30
0.0
 40
0.7999999998763499
100
AcDbArc
 50
304.1296356905432
 51
343.8141689822105
  0
ARC
  5
467B
330
4604
100
AcDbEntity
  8
25
  6
Continuous
 62
    30
370
     9
100
AcDbCircle
 10
-4.220304213739154
 20
2.966578945675962
 30
0.0
 40
13.63074416821382
100
AcDbArc
 50
357.1344226119691
 51
2.242940267126464
  0
ARC
  5
467C
330
4604
100
AcDbEntity
  8
25
  6
Continuous
 62
    30
370
     9
100
AcDbCircle
 10
16.01984916079596
 20
2.966558246532144
 30
0.0
 40
13.63029468564961
100
AcDbArc
 50
177.7570734985705
 51
182.865584844731
  0
ARC
  5
467D
330
4604
100
AcDbEntity
  8
25
  6
Continuous
 62
    30
370
     9
100
AcDbCircle
 10
3.174888378084006
 20
2.508141242801968
 30
0.0
 40
0.800000000218594
100
AcDbArc
 50
196.1858310089189
 51
235.8703642914354
  0
ARC
  5
467E
330
4604
100
AcDbEntity
  8
25
  6
Continuous
 62
    30
370
     9
100
AcDbCircle
 10
5.895224976786266
 20
4.499997066389312
 30
0.0
 40
3.499999999706477
100
AcDbArc
 50
252.5933007545323
 51
270.0
  0
ARC
  5
467F
330
4604
100
AcDbEntity
  8
25
  6
Continuous
 62
    30
370
     9
100
AcDbCircle
 10
4.60886981297699
 20
0.396914029425659
 30
0.0
 40
0.8000000022240566
100
AcDbArc
 50
72.59330080421527
 51
95.87036429077611
  0
ARC
  5
4680
330
4604
100
AcDbEntity
  8
25
  6
Continuous
 62
    30
370
     9
100
AcDbCircle
 10
7.181580140249025
 20
0.396914037316435
 30
0.0
 40
0.7999999944003231
100
AcDbArc
 50
84.12963560742035
 51
107.4066993225232
  0
ARC
  5
4681
330
4604
100
AcDbEntity
  8
25
  6
Continuous
 62
    30
370
     9
100
AcDbCircle
 10
5.895224976950885
 20
4.499997066254707
 30
0.0
 40
3.499999999602566
100
AcDbArc
 50
270.0
 51
287.4066992478153
  0
ARC
  5
4682
330
4604
100
AcDbEntity
  8
25
  6
Continuous
 62
    30
370
     9
100
AcDbCircle
 10
5.904768979361506
 20
7.500006637066292
 30
0.0
 40
7.50000697865208
100
AcDbArc
 50
248.9605629648394
 51
291.0394370351544
  0
ARC
  5
4683
330
4604
100
AcDbEntity
  8
25
  6
Continuous
 62
    30
370
     9
100
AcDbCircle
 10
5.410531575953882
 20
4.838442139937171
 30
0.0
 40
4.863620734265068
100
AcDbArc
 50
223.3466882737126
 51
243.1280981137764
  0
ARC
  5
4684
330
4604
100
AcDbEntity
  8
25
  6
Continuous
 62
    30
370
     9
100
AcDbCircle
 10
6.399926380192709
 20
4.837210679255747
 30
0.0
 40
4.862106418377631
100
AcDbArc
 50
296.86879041713
 51
316.6564231953803
  0
ARC
  5
4685
330
4604
100
AcDbEntity
  8
25
  6
Continuous
 62
    30
370
     9
100
AcDbCircle
 10
7.906705363068226
 20
3.093722185331728
 30
0.0
 40
2.580228105849279
100
AcDbArc
 50
321.8539819517255
 51
17.86177199149635
  0
ARC
  5
4686
330
4604
100
AcDbEntity
  8
25
  6
Continuous
 62
    30
370
     9
100
AcDbCircle
 10
3.870899324769425
 20
3.10130775186252
 30
0.0
 40
2.559928795627366
100
AcDbArc
 50
161.5059118312551
 51
218.7210099115469
  0
ARC
  5
4687
330
4604
100
AcDbEntity
  8
25
  6
Continuous
 62
    30
370
     9
100
AcDbCircle
 10
3.399996978159833
 20
3.499999658439662
 30
0.0
 40
2.000000000031605
100
AcDbArc
 50
134.5057164708604
 51
168.0728717004411
  0
ARC
  5
4688
330
4604
100
AcDbEntity
  8
25
  6
Continuous
 62
    30
370
     9
100
AcDbCircle
 10
7.357888309377358
 20
4.027225988569909
 30
0.0
 40
2.836081636432473
100
AcDbArc
 50
268.0908036585025
 51
301.715008508319
  0
ARC
  5
4689
330
4604
100
AcDbEntity
  8
25
  6
Continuous
 62
    30
370
     9
100
AcDbCircle
 10
4.149852954365996
 20
2.93772385216738
 30
0.0
 40
1.785306298378408
100
AcDbArc
 50
227.8245660391208
 51
282.1972074542316
  0
ARC
  5
468A
330
4604
100
AcDbEntity
  8
25
  6
Continuous
 62
    30
370
     9
100
AcDbCircle
 10
9.303503727787756
 20
1.472416311058339
 30
0.0
 40
0.4384055161849986
100
AcDbArc
 50
121.5733135550732
 51
143.2574519083748
  0
ARC
  5
468B
330
4604
100
AcDbEntity
  8
25
  6
Continuous
 62
    30
370
     9
100
AcDbCircle
 10
8.713845773893353
 20
1.835443083431471
 30
0.0
 40
0.258773873277653
100
AcDbArc
 50
301.4340854279726
 51
337.0835239590601
  0
ARC
  5
468C
330
4604
100
AcDbEntity
  8
25
  6
Continuous
 62
    30
370
     9
100
AcDbCircle
 10
3.419490467944342
 20
3.484884254418773
 30
0.0
 40
1.019605537066553
100
AcDbArc
 50
76.31659549565897
 51
179.1505728944756
  0
ARC
  5
468D
330
4604
100
AcDbEntity
  8
25
  6
Continuous
 62
    30
370
     9
100
AcDbCircle
 10
8.399996978689159
 20
3.499999658654303
 30
0.0
 40
1.999999999434325
100
AcDbArc
 50
11.10263895331856
 51
45.49428353694
  0
ARC
  5
468E
330
4604
100
AcDbEntity
  8
25
  6
Continuous
 62
    30
370
     9
100
AcDbCircle
 10
11.39999697795883
 20
8.699999658396734
 30
0.0
 40
0.3999999998742194
100
AcDbArc
 50
228.9201148224626
 51
43.43232549948537
  0
POLYLINE
  5
468F
330
4604
100
AcDbEntity
  8
25
  6
Continuous
 62
    30
370
     9
100
AcDb2dPolyline
 66
     1
 10
0.0
 20
0.0
 30
0.0
  0
VERTEX
  5
4690
330
468F
100
AcDbEntity
  8
25
  6
Continuous
 62
    30
370
     9
100
AcDbVertex
100
AcDb2dVertex
 10
11.69047174203024
 20
6.174998588480264
 30
0.0
  0
VERTEX
  5
4691
330
468F
100
AcDbEntity
  8
25
  6
Continuous
 62
    30
370
     9
100
AcDbVertex
100
AcDb2dVertex
 10
9.399996978127092
 20
8.699999658411172
 30
0.0
  0
VERTEX
  5
4692
330
468F
100
AcDbEntity
  8
25
  6
Continuous
 62
    30
370
     9
100
AcDbVertex
100
AcDb2dVertex
 10
9.399996978125273
 20
9.999999658410558
 30
0.0
  0
VERTEX
  5
4693
330
468F
100
AcDbEntity
  8
25
  6
Continuous
 62
    30
370
     9
100
AcDbVertex
100
AcDb2dVertex
 10
11.13715271729006
 20
8.398482006289157
 30
0.0
  0
SEQEND
  5
4694
330
468F
100
AcDbEntity
  8
25
  6
Continuous
370
     9
  0
ARC
  5
4695
330
4604
100
AcDbEntity
  8
25
  6
Continuous
 62
    30
370
     9
100
AcDbCircle
 10
11.39999697824396
 20
5.899999658343006
 30
0.0
 40
0.4000000000212595
100
AcDbArc
 50
228.9201147869298
 51
43.43232553314894
  0
POLYLINE
  5
4696
330
4604
100
AcDbEntity
  8
25
  6
Continuous
 62
    30
370
     9
100
AcDb2dPolyline
 66
     1
 10
0.0
 20
0.0
 30
0.0
  0
VERTEX
  5
4697
330
4696
100
AcDbEntity
  8
25
  6
Continuous
 62
    30
370
     9
100
AcDbVertex
100
AcDb2dVertex
 10
8.041366242632648
 20
4.263888952157174
 30
0.0
  0
VERTEX
  5
4698
330
4696
100
AcDbEntity
  8
25
  6
Continuous
 62
    30
370
     9
100
AcDbVertex
100
AcDb2dVertex
 10
9.399996978127092
 20
7.199999658411172
 30
0.0
  0
VERTEX
  5
4699
330
4696
100
AcDbEntity
  8
25
  6
Continuous
 62
    30
370
     9
100
AcDbVertex
100
AcDb2dVertex
 10
11.13715271729143
 20
5.598482006286246
 30
0.0
  0
SEQEND
  5
469A
330
4696
100
AcDbEntity
  8
25
  6
Continuous
370
     9
  0
POLYLINE
  5
469B
330
4604
100
AcDbEntity
  8
25
  6
Continuous
 62
    30
370
     9
100
AcDb2dPolyline
 66
     1
 10
0.0
 20
0.0
 30
0.0
  0
VERTEX
  5
469C
330
469B
100
AcDbEntity
  8
25
  6
Continuous
 62
    30
370
     9
100
AcDbVertex
100
AcDb2dVertex
 10
0.6628412390514314
 20
8.398482006285519
 30
0.0
  0
VERTEX
  5
469D
330
469B
100
AcDbEntity
  8
25
  6
Continuous
 62
    30
370
     9
100
AcDbVertex
100
AcDb2dVertex
 10
2.399996978212584
 20
9.999999658410558
 30
0.0
  0
VERTEX
  5
469E
330
469B
100
AcDbEntity
  8
25
  6
Continuous
 62
    30
370
     9
100
AcDbVertex
100
AcDb2dVertex
 10
2.399996978211675
 20
8.699999658411172
 30
0.0
  0
SEQEND
  5
469F
330
469B
100
AcDbEntity
  8
25
  6
Continuous
370
     9
  0
ARC
  5
46A0
330
4604
100
AcDbEntity
  8
25
  6
Continuous
 62
    30
370
     9
100
AcDbCircle
 10
0.399996978258514
 20
8.699999658407648
 30
0.0
 40
0.4000000000370957
100
AcDbArc
 50
136.5676744896474
 51
311.0798851894971
  0
ARC
  5
46A1
330
4604
100
AcDbEntity
  8
25
  6
Continuous
 62
    30
370
     9
100
AcDbCircle
 10
0.3999969783167216
 20
5.899999658444755
 30
0.0
 40
0.4000000000550149
100
AcDbArc
 50
136.56767449916
 51
311.0798851797927
  0
POLYLINE
  5
46A2
330
4604
100
AcDbEntity
  8
25
  6
Continuous
 62
    30
370
     9
100
AcDb2dPolyline
 66
     1
 10
0.0
 20
0.0
 30
0.0
  0
VERTEX
  5
46A3
330
46A2
100
AcDbEntity
  8
25
  6
Continuous
 62
    30
370
     9
100
AcDbVertex
100
AcDb2dVertex
 10
2.399996978211675
 20
8.699999658411172
 30
0.0
  0
VERTEX
  5
46A4
330
46A2
100
AcDbEntity
  8
25
  6
Continuous
 62
    30
370
     9
100
AcDbVertex
100
AcDb2dVertex
 10
0.1095222143126193
 20
6.174998588480264
 30
0.0
  0
SEQEND
  5
46A5
330
46A2
100
AcDbEntity
  8
25
  6
Continuous
370
     9
  0
POLYLINE
  5
46A6
330
4604
100
AcDbEntity
  8
25
  6
Continuous
 62
    30
370
     9
100
AcDb2dPolyline
 66
     1
 10
0.0
 20
0.0
 30
0.0
  0
VERTEX
  5
46A7
330
46A6
100
AcDbEntity
  8
25
  6
Continuous
 62
    30
370
     9
100
AcDbVertex
100
AcDb2dVertex
 10
0.6628412390514314
 20
5.598482006286246
 30
0.0
  0
VERTEX
  5
46A8
330
46A6
100
AcDbEntity
  8
25
  6
Continuous
 62
    30
370
     9
100
AcDbVertex
100
AcDb2dVertex
 10
2.399996978211675
 20
7.199999658411172
 30
0.0
  0
VERTEX
  5
46A9
330
46A6
100
AcDbEntity
  8
25
  6
Continuous
 62
    30
370
     9
100
AcDbVertex
100
AcDb2dVertex
 10
3.758627713622445
 20
4.263888952157174
 30
0.0
  0
SEQEND
  5
46AA
330
46A6
100
AcDbEntity
  8
25
  6
Continuous
370
     9
  0
POLYLINE
  5
46AB
330
4604
100
AcDbEntity
  8
25
  6
Continuous
 62
    30
370
     9
100
AcDb2dPolyline
 66
     1
 10
0.0
 20
0.0
 30
0.0
  0
VERTEX
  5
46AC
330
46AB
100
AcDbEntity
  8
25
  6
Continuous
 62
    30
370
     9
100
AcDbVertex
100
AcDb2dVertex
 10
11.69047174202797
 20
8.974998588479536
 30
0.0
  0
VERTEX
  5
46AD
330
46AB
100
AcDbEntity
  8
25
  6
Continuous
 62
    30
370
     9
100
AcDbVertex
100
AcDb2dVertex
 10
9.399996978127092
 20
11.49999965841056
 30
0.0
  0
VERTEX
  5
46AE
330
46AB
100
AcDbEntity
  8
25
  6
Continuous
 62
    30
370
     9
100
AcDbVertex
100
AcDb2dVertex
 10
2.399996978211675
 20
11.49999965841056
 30
0.0
  0
VERTEX
  5
46AF
330
46AB
100
AcDbEntity
  8
25
  6
Continuous
 62
    30
370
     9
100
AcDbVertex
100
AcDb2dVertex
 10
0.1095222143126193
 20
8.974998588479536
 30
0.0
  0
SEQEND
  5
46B0
330
46AB
100
AcDbEntity
  8
25
  6
Continuous
370
     9
  0
POLYLINE
  5
46B1
330
4604
100
AcDbEntity
  8
25
  6
Continuous
 62
    30
370
     9
100
AcDb2dPolyline
 66
     1
 10
0.0
 20
0.0
 30
0.0
  0
VERTEX
  5
46B2
330
46B1
100
AcDbEntity
  8
25
  6
Continuous
 62
    30
370
     9
100
AcDbVertex
100
AcDb2dVertex
 10
1.899996978121635
 20
14.49999965841545
 30
0.0
  0
VERTEX
  5
46B3
330
46B1
100
AcDbEntity
  8
25
  6
Continuous
 62
    30
370
     9
100
AcDbVertex
100
AcDb2dVertex
 10
9.899996978121635
 20
14.49999965841545
 30
0.0
  0
SEQEND
  5
46B4
330
46B1
100
AcDbEntity
  8
25
  6
Continuous
370
     9
  0
ENDBLK
  5
46B5
330
4604
100
AcDbEntity
  8
0
100
AcDbBlockEnd
  0
BLOCK
  5
4C53
330
4C52
100
AcDbEntity
  8
0
100
AcDbBlockBegin
  2
*D24
 70
     1
 10
0.0
 20
0.0
 30
0.0
  3
*D24
  1

  0
LINE
  5
574E
330
4C52
100
AcDbEntity
  8
19_寸法線・引出線
440
 16777216
100
AcDbLine
 10
497.5000000000007
 20
281.0000217956616
 30
0.0
 11
545.9999999999995
 21
281.0000217956616
 31
0.0
  0
LINE
  5
574F
330
4C52
100
AcDbEntity
  8
19_寸法線・引出線
440
 16777216
100
AcDbLine
 10
544.5000000000008
 20
237.0000217956616
 30
0.0
 11
545.9999999999994
 21
237.0000217956616
 31
0.0
  0
LINE
  5
5750
330
4C52
100
AcDbEntity
  8
19_寸法線・引出線
440
 16777216
100
AcDbLine
 10
545.9999999999995
 20
281.0000217956616
 30
0.0
 11
545.9999999999994
 21
237.0000217956616
 31
0.0
  0
INSERT
  5
5751
330
4C52
100
AcDbEntity
  8
19_寸法線・引出線
440
 16777216
100
AcDbBlockReference
  2
_DotSmall
 10
545.9999999999995
 20
281.0000217956616
 30
0.0
 41
7.0
 42
7.0
 43
7.0
 50
90.0
  0
INSERT
  5
5752
330
4C52
100
AcDbEntity
  8
19_寸法線・引出線
440
 16777216
100
AcDbBlockReference
  2
_DotSmall
 10
545.9999999999994
 20
237.0000217956616
 30
0.0
 41
7.0
 42
7.0
 43
7.0
 50
270.0
  0
MTEXT
  5
5753
330
4C52
100
AcDbEntity
  8
19_寸法線・引出線
440
 16777216
100
AcDbMText
 10
542.4999999999994
 20
259.0000217956617
 30
0.0
 40
5.0
 41
0.0
 46
0.0
 71
     5
 72
     1
  1
　
  7
文字
 11
0.0000000000000001
 21
1.0
 31
0.0
 73
     1
 44
1.0
  0
POINT
  5
5754
330
4C52
100
AcDbEntity
  8
Defpoints
 62
     0
440
 16777216
100
AcDbPoint
 10
496.0000000000007
 20
281.0000217956616
 30
0.0
  0
POINT
  5
5755
330
4C52
100
AcDbEntity
  8
Defpoints
 62
     0
440
 16777216
100
AcDbPoint
 10
546.0000000000007
 20
237.0000217956616
 30
0.0
  0
POINT
  5
5756
330
4C52
100
AcDbEntity
  8
Defpoints
 62
     0
440
 16777216
100
AcDbPoint
 10
545.9999999999994
 20
237.0000217956616
 30
0.0
  0
ENDBLK
  5
4C54
330
4C52
100
AcDbEntity
  8
0
100
AcDbBlockEnd
  0
BLOCK
  5
4C6B
330
4C6A
100
AcDbEntity
  8
0
100
AcDbBlockBegin
  2
*D25
 70
     1
 10
0.0
 20
0.0
 30
0.0
  3
*D25
  1

  0
LINE
  5
5745
330
4C6A
100
AcDbEntity
  8
19_寸法線・引出線
440
 16777216
100
AcDbLine
 10
544.4999999999994
 20
237.0000217956616
 30
0.0
 11
545.9999999999971
 21
237.0000217956616
 31
0.0
  0
LINE
  5
5746
330
4C6A
100
AcDbEntity
  8
19_寸法線・引出線
440
 16777216
100
AcDbLine
 10
544.5000000000008
 20
195.0000217956616
 30
0.0
 11
545.9999999999971
 21
195.0000217956616
 31
0.0
  0
LINE
  5
5747
330
4C6A
100
AcDbEntity
  8
19_寸法線・引出線
440
 16777216
100
AcDbLine
 10
545.9999999999971
 20
237.0000217956616
 30
0.0
 11
545.9999999999971
 21
195.0000217956616
 31
0.0
  0
INSERT
  5
5748
330
4C6A
100
AcDbEntity
  8
19_寸法線・引出線
440
 16777216
100
AcDbBlockReference
  2
_DotSmall
 10
545.9999999999971
 20
237.0000217956616
 30
0.0
 41
7.0
 42
7.0
 43
7.0
 50
90.0
  0
INSERT
  5
5749
330
4C6A
100
AcDbEntity
  8
19_寸法線・引出線
440
 16777216
100
AcDbBlockReference
  2
_DotSmall
 10
545.9999999999971
 20
195.0000217956616
 30
0.0
 41
7.0
 42
7.0
 43
7.0
 50
270.0
  0
MTEXT
  5
574A
330
4C6A
100
AcDbEntity
  8
19_寸法線・引出線
440
 16777216
100
AcDbMText
 10
542.4999999999971
 20
216.0000217956617
 30
0.0
 40
5.0
 41
0.0
 46
0.0
 71
     5
 72
     1
  1
42（46）
  7
文字
 11
0.0000000000000001
 21
1.0
 31
0.0
 73
     1
 44
1.0
  0
POINT
  5
574B
330
4C6A
100
AcDbEntity
  8
Defpoints
 62
     0
440
 16777216
100
AcDbPoint
 10
545.9999999999994
 20
237.0000217956616
 30
0.0
  0
POINT
  5
574C
330
4C6A
100
AcDbEntity
  8
Defpoints
 62
     0
440
 16777216
100
AcDbPoint
 10
546.0000000000007
 20
195.0000217956616
 30
0.0
  0
POINT
  5
574D
330
4C6A
100
AcDbEntity
  8
Defpoints
 62
     0
440
 16777216
100
AcDbPoint
 10
545.9999999999971
 20
195.0000217956616
 30
0.0
  0
ENDBLK
  5
4C6C
330
4C6A
100
AcDbEntity
  8
0
100
AcDbBlockEnd
  0
BLOCK
  5
4D0C
330
4D0B
100
AcDbEntity
  8
0
100
AcDbBlockBegin
  2
*D26
 70
     1
 10
0.0
 20
0.0
 30
0.0
  3
*D26
  1

  0
LINE
  5
573C
330
4D0B
100
AcDbEntity
  8
19_寸法線・引出線
440
 16777216
100
AcDbLine
 10
534.4999999999998
 20
234.0000217956616
 30
0.0
 11
535.9999999999976
 21
234.0000217956616
 31
0.0
  0
LINE
  5
573D
330
4D0B
100
AcDbEntity
  8
19_寸法線・引出線
440
 16777216
100
AcDbLine
 10
534.4999999999998
 20
198.0000217956616
 30
0.0
 11
535.9999999999976
 21
198.0000217956616
 31
0.0
  0
LINE
  5
573E
330
4D0B
100
AcDbEntity
  8
19_寸法線・引出線
440
 16777216
100
AcDbLine
 10
535.9999999999976
 20
234.0000217956616
 30
0.0
 11
535.9999999999976
 21
198.0000217956616
 31
0.0
  0
INSERT
  5
573F
330
4D0B
100
AcDbEntity
  8
19_寸法線・引出線
440
 16777216
100
AcDbBlockReference
  2
_DotSmall
 10
535.9999999999976
 20
234.0000217956616
 30
0.0
 41
7.0
 42
7.0
 43
7.0
 50
90.0
  0
INSERT
  5
5740
330
4D0B
100
AcDbEntity
  8
19_寸法線・引出線
440
 16777216
100
AcDbBlockReference
  2
_DotSmall
 10
535.9999999999976
 20
198.0000217956616
 30
0.0
 41
7.0
 42
7.0
 43
7.0
 50
270.0
  0
MTEXT
  5
5741
330
4D0B
100
AcDbEntity
  8
19_寸法線・引出線
440
 16777216
100
AcDbMText
 10
532.4999999999976
 20
216.0000217956617
 30
0.0
 40
5.0
 41
0.0
 46
0.0
 71
     5
 72
     1
  1
36（40）
  7
文字
 11
0.0000000000000001
 21
1.0
 31
0.0
 73
     1
 44
1.0
  0
POINT
  5
5742
330
4D0B
100
AcDbEntity
  8
Defpoints
 62
     0
440
 16777216
100
AcDbPoint
 10
535.9999999999998
 20
234.0000217956616
 30
0.0
  0
POINT
  5
5743
330
4D0B
100
AcDbEntity
  8
Defpoints
 62
     0
440
 16777216
100
AcDbPoint
 10
535.9999999999998
 20
198.0000217956616
 30
0.0
  0
POINT
  5
5744
330
4D0B
100
AcDbEntity
  8
Defpoints
 62
     0
440
 16777216
100
AcDbPoint
 10
535.9999999999976
 20
198.0000217956616
 30
0.0
  0
ENDBLK
  5
4D0D
330
4D0B
100
AcDbEntity
  8
0
100
AcDbBlockEnd
  0
BLOCK
  5
4D18
330
4D17
100
AcDbEntity
  8
0
100
AcDbBlockBegin
  2
*D27
 70
     1
 10
0.0
 20
0.0
 30
0.0
  3
*D27
  1

  0
LINE
  5
55BD
330
4D17
100
AcDbEntity
  8
19_寸法線・引出線
440
 16777216
100
AcDbLine
 10
537.4999999999953
 20
237.0000217956616
 30
0.0
 11
535.9999999999973
 21
237.0000217956616
 31
0.0
  0
LINE
  5
55BE
330
4D17
100
AcDbEntity
  8
19_寸法線・引出線
440
 16777216
100
AcDbLine
 10
537.4999999999953
 20
234.0000217956616
 30
0.0
 11
535.9999999999973
 21
234.0000217956616
 31
0.0
  0
LINE
  5
55BF
330
4D17
100
AcDbEntity
  8
19_寸法線・引出線
440
 16777216
100
AcDbLine
 10
535.9999999999973
 20
237.0000217956616
 30
0.0
 11
535.9999999999973
 21
234.0000217956616
 31
0.0
  0
MTEXT
  5
55C0
330
4D17
100
AcDbEntity
  8
19_寸法線・引出線
440
 16777216
100
AcDbMText
 10
532.4999999999962
 20
240.5342082345426
 30
0.0
 40
5.0
 41
0.0
 46
0.0
 71
     5
 72
     1
  1
3
  7
文字
 11
0.0000000000000001
 21
1.0
 31
0.0
 73
     1
 44
1.0
  0
INSERT
  5
55C1
330
4D17
100
AcDbEntity
  8
19_寸法線・引出線
440
 16777216
100
AcDbBlockReference
  2
_DotSmall
 10
535.9999999999973
 20
237.0000217956616
 30
0.0
 41
7.0
 42
7.0
 43
7.0
 50
90.0
  0
INSERT
  5
55C2
330
4D17
100
AcDbEntity
  8
19_寸法線・引出線
440
 16777216
100
AcDbBlockReference
  2
_DotSmall
 10
535.9999999999973
 20
234.0000217956616
 30
0.0
 41
7.0
 42
7.0
 43
7.0
 50
270.0
  0
POINT
  5
55C3
330
4D17
100
AcDbEntity
  8
Defpoints
 62
     0
440
 16777216
100
AcDbPoint
 10
535.9999999999953
 20
237.0000217956616
 30
0.0
  0
POINT
  5
55C4
330
4D17
100
AcDbEntity
  8
Defpoints
 62
     0
440
 16777216
100
AcDbPoint
 10
535.9999999999953
 20
234.0000217956616
 30
0.0
  0
POINT
  5
55C5
330
4D17
100
AcDbEntity
  8
Defpoints
 62
     0
440
 16777216
100
AcDbPoint
 10
535.9999999999973
 20
234.0000217956616
 30
0.0
  0
ENDBLK
  5
4D19
330
4D17
100
AcDbEntity
  8
0
100
AcDbBlockEnd
  0
BLOCK
  5
4D24
330
4D23
100
AcDbEntity
  8
0
100
AcDbBlockBegin
  2
*D28
 70
     1
 10
0.0
 20
0.0
 30
0.0
  3
*D28
  1

  0
LINE
  5
4E2A
330
4D23
100
AcDbEntity
  8
19_寸法線・引出線
440
 16777216
100
AcDbLine
 10
537.4999999999953
 20
198.0000217956616
 30
0.0
 11
535.9999999999983
 21
198.0000217956616
 31
0.0
  0
LINE
  5
4E2B
330
4D23
100
AcDbEntity
  8
19_寸法線・引出線
440
 16777216
100
AcDbLine
 10
482.5000000000009
 20
195.0000217956616
 30
0.0
 11
535.9999999999983
 21
195.0000217956616
 31
0.0
  0
LINE
  5
4E2C
330
4D23
100
AcDbEntity
  8
19_寸法線・引出線
440
 16777216
100
AcDbLine
 10
535.9999999999983
 20
198.0000217956616
 30
0.0
 11
535.9999999999983
 21
195.0000217956616
 31
0.0
  0
MTEXT
  5
4E2D
330
4D23
100
AcDbEntity
  8
19_寸法線・引出線
440
 16777216
100
AcDbMText
 10
532.4999999999971
 20
191.4066775583553
 30
0.0
 40
5.0
 41
0.0
 46
0.0
 71
     5
 72
     1
  1
3
  7
文字
 11
0.0000000000000001
 21
1.0
 31
0.0
 73
     1
 44
1.0
  0
INSERT
  5
4E2E
330
4D23
100
AcDbEntity
  8
19_寸法線・引出線
440
 16777216
100
AcDbBlockReference
  2
_DotSmall
 10
535.9999999999983
 20
198.0000217956616
 30
0.0
 41
7.0
 42
7.0
 43
7.0
 50
90.0
  0
INSERT
  5
4E2F
330
4D23
100
AcDbEntity
  8
19_寸法線・引出線
440
 16777216
100
AcDbBlockReference
  2
_DotSmall
 10
535.9999999999983
 20
195.0000217956616
 30
0.0
 41
7.0
 42
7.0
 43
7.0
 50
270.0
  0
POINT
  5
4E30
330
4D23
100
AcDbEntity
  8
Defpoints
 62
     0
440
 16777216
100
AcDbPoint
 10
535.9999999999953
 20
198.0000217956616
 30
0.0
  0
POINT
  5
4E31
330
4D23
100
AcDbEntity
  8
Defpoints
 62
     0
440
 16777216
100
AcDbPoint
 10
481.0000000000009
 20
195.0000217956616
 30
0.0
  0
POINT
  5
4E32
330
4D23
100
AcDbEntity
  8
Defpoints
 62
     0
440
 16777216
100
AcDbPoint
 10
535.9999999999983
 20
195.0000217956616
 30
0.0
  0
ENDBLK
  5
4D25
330
4D23
100
AcDbEntity
  8
0
100
AcDbBlockEnd
  0
BLOCK
  5
5009
330
5008
100
AcDbEntity
  8
0
100
AcDbBlockBegin
  2
*D29
 70
     1
 10
0.0
 20
0.0
 30
0.0
  3
*D29
  1

  0
LINE
  5
5757
330
5008
100
AcDbEntity
  8
19_寸法線・引出線
440
 16777216
100
AcDbLine
 10
497.5000000000007
 20
281.0000217956616
 30
0.0
 11
555.9999999999995
 21
281.0000217956616
 31
0.0
  0
LINE
  5
5758
330
5008
100
AcDbEntity
  8
19_寸法線・引出線
440
 16777216
100
AcDbLine
 10
497.5000000000007
 20
195.0000217956616
 30
0.0
 11
555.9999999999994
 21
195.0000217956616
 31
0.0
  0
LINE
  5
5759
330
5008
100
AcDbEntity
  8
19_寸法線・引出線
440
 16777216
100
AcDbLine
 10
555.9999999999995
 20
281.0000217956616
 30
0.0
 11
555.9999999999994
 21
195.0000217956616
 31
0.0
  0
MTEXT
  5
575A
330
5008
100
AcDbEntity
  8
19_寸法線・引出線
440
 16777216
100
AcDbMText
 10
552.4999999999995
 20
241.953605093069
 30
0.0
 40
5.0
 41
0.0
 46
0.0
 71
     5
 72
     1
  1
　
  7
文字
 11
0.0000000000000001
 21
1.0
 31
0.0
 73
     1
 44
1.0
  0
INSERT
  5
575B
330
5008
100
AcDbEntity
  8
19_寸法線・引出線
440
 16777216
100
AcDbBlockReference
  2
_DotSmall
 10
555.9999999999995
 20
281.0000217956616
 30
0.0
 41
7.0
 42
7.0
 43
7.0
 50
90.0
  0
INSERT
  5
575C
330
5008
100
AcDbEntity
  8
19_寸法線・引出線
440
 16777216
100
AcDbBlockReference
  2
_DotSmall
 10
555.9999999999994
 20
195.0000217956616
 30
0.0
 41
7.0
 42
7.0
 43
7.0
 50
270.0
  0
POINT
  5
575D
330
5008
100
AcDbEntity
  8
Defpoints
 62
     0
440
 16777216
100
AcDbPoint
 10
496.0000000000007
 20
281.0000217956616
 30
0.0
  0
POINT
  5
575E
330
5008
100
AcDbEntity
  8
Defpoints
 62
     0
440
 16777216
100
AcDbPoint
 10
496.0000000000007
 20
195.0000217956616
 30
0.0
  0
POINT
  5
575F
330
5008
100
AcDbEntity
  8
Defpoints
 62
     0
440
 16777216
100
AcDbPoint
 10
555.9999999999994
 20
195.0000217956616
 30
0.0
  0
ENDBLK
  5
500A
330
5008
100
AcDbEntity
  8
0
100
AcDbBlockEnd
  0
BLOCK
  5
53F1
330
53F0
100
AcDbEntity
  8
0
100
AcDbBlockBegin
  2
*D30
 70
     1
 10
0.0
 20
0.0
 30
0.0
  3
*D30
  1

  0
LINE
  5
5721
330
53F0
100
AcDbEntity
  8
19_寸法線・引出線
440
 16777216
100
AcDbLine
 10
159.0
 20
322.0000000000001
 30
0.0
 11
159.0
 21
320.5000000000001
 31
0.0
  0
LINE
  5
5722
330
53F0
100
AcDbEntity
  8
19_寸法線・引出線
440
 16777216
100
AcDbLine
 10
201.0
 20
322.0000000000001
 30
0.0
 11
201.0
 21
320.5000000000001
 31
0.0
  0
LINE
  5
5723
330
53F0
100
AcDbEntity
  8
19_寸法線・引出線
440
 16777216
100
AcDbLine
 10
159.0
 20
320.5000000000001
 30
0.0
 11
201.0
 21
320.5000000000001
 31
0.0
  0
INSERT
  5
5724
330
53F0
100
AcDbEntity
  8
19_寸法線・引出線
440
 16777216
100
AcDbBlockReference
  2
_DotSmall
 10
159.0
 20
320.5000000000001
 30
0.0
 41
7.0
 42
7.0
 43
7.0
 50
180.0
  0
INSERT
  5
5725
330
53F0
100
AcDbEntity
  8
19_寸法線・引出線
440
 16777216
100
AcDbBlockReference
  2
_DotSmall
 10
201.0
 20
320.5000000000001
 30
0.0
 41
7.0
 42
7.0
 43
7.0
  0
MTEXT
  5
5726
330
53F0
100
AcDbEntity
  8
19_寸法線・引出線
440
 16777216
100
AcDbMText
 10
180.0
 20
324.0000000000001
 30
0.0
 40
5.0
 41
0.0
 46
0.0
 71
     5
 72
     1
  1
42（46）
  7
文字
 73
     1
 44
1.0
  0
POINT
  5
5727
330
53F0
100
AcDbEntity
  8
Defpoints
 62
     0
440
 16777216
100
AcDbPoint
 10
159.0
 20
320.5000000000001
 30
0.0
  0
POINT
  5
5728
330
53F0
100
AcDbEntity
  8
Defpoints
 62
     0
440
 16777216
100
AcDbPoint
 10
201.0
 20
320.5000000000001
 30
0.0
  0
POINT
  5
5729
330
53F0
100
AcDbEntity
  8
Defpoints
 62
     0
440
 16777216
100
AcDbPoint
 10
201.0
 20
320.5000000000001
 30
0.0
  0
ENDBLK
  5
53F2
330
53F0
100
AcDbEntity
  8
0
100
AcDbBlockEnd
  0
ENDSEC
  0
SECTION
  2
ENTITIES
  0
LINE
  5
5D5
330
1F
100
AcDbEntity
  8
02_図枠
100
AcDbLine
 10
40.0
 20
572.0
 30
0.0
 11
40.0
 21
22.0
 31
0.0
  0
LINE
  5
5D6
330
1F
100
AcDbEntity
  8
02_図枠
100
AcDbLine
 10
40.0
 20
22.0
 30
0.0
 11
809.9999999999999
 21
22.0
 31
0.0
  0
LINE
  5
5D7
330
1F
100
AcDbEntity
  8
02_図枠
100
AcDbLine
 10
809.9999999999999
 20
22.0
 30
0.0
 11
809.9999999999999
 21
571.9999999999998
 31
0.0
  0
LINE
  5
5D8
330
1F
100
AcDbEntity
  8
02_図枠
100
AcDbLine
 10
809.9999999999999
 20
571.9999999999998
 30
0.0
 11
40.0
 21
572.0
 31
0.0
  0
LINE
  5
5D9
330
1F
100
AcDbEntity
  8
02_図枠
100
AcDbLine
 10
424.9999999999999
 20
572.0
 30
0.0
 11
424.9999999999999
 21
582.0
 31
0.0
  0
LINE
  5
636
330
1F
100
AcDbEntity
  8
02_図枠
100
AcDbLine
 10
40.0
 20
56.99999999999999
 30
0.0
 11
809.9999999999999
 21
56.99999999999999
 31
0.0
  0
LINE
  5
638
330
1F
100
AcDbEntity
  8
02_図枠
100
AcDbLine
 10
46.99999999999999
 20
50.0
 30
0.0
 11
195.0
 21
50.0
 31
0.0
  0
LINE
  5
639
330
1F
100
AcDbEntity
  8
02_図枠
100
AcDbLine
 10
46.99999999999999
 20
42.99999999999999
 30
0.0
 11
195.0
 21
42.99999999999999
 31
0.0
  0
LINE
  5
63A
330
1F
100
AcDbEntity
  8
02_図枠
100
AcDbLine
 10
46.99999999999999
 20
36.0
 30
0.0
 11
195.0
 21
36.0
 31
0.0
  0
LINE
  5
63B
330
1F
100
AcDbEntity
  8
02_図枠
100
AcDbLine
 10
46.99999999999999
 20
29.0
 30
0.0
 11
195.0
 21
29.0
 31
0.0
  0
LINE
  5
63C
330
1F
100
AcDbEntity
  8
02_図枠
100
AcDbLine
 10
335.0
 20
56.99999999999999
 30
0.0
 11
335.0
 21
22.0
 31
0.0
  0
LINE
  5
63D
330
1F
100
AcDbEntity
  8
02_図枠
100
AcDbLine
 10
504.9999999999999
 20
56.99999999999999
 30
0.0
 11
504.9999999999999
 21
22.0
 31
0.0
  0
LINE
  5
63E
330
1F
100
AcDbEntity
  8
02_図枠
100
AcDbLine
 10
195.0
 20
56.99999999999999
 30
0.0
 11
195.0
 21
22.0
 31
0.0
  0
LINE
  5
63F
330
1F
100
AcDbEntity
  8
02_図枠
100
AcDbLine
 10
560.0
 20
50.0
 30
0.0
 11
660.0
 21
50.0
 31
0.0
  0
LINE
  5
640
330
1F
100
AcDbEntity
  8
02_図枠
100
AcDbLine
 10
645.0
 20
42.99999999999999
 30
0.0
 11
655.0
 21
42.99999999999999
 31
0.0
  0
LINE
  5
641
330
1F
100
AcDbEntity
  8
02_図枠
100
AcDbLine
 10
660.0
 20
36.0
 30
0.0
 11
809.9999999999999
 21
36.0
 31
0.0
  0
LINE
  5
642
330
1F
100
AcDbEntity
  8
02_図枠
100
AcDbLine
 10
645.0
 20
29.0
 30
0.0
 11
655.0
 21
29.0
 31
0.0
  0
LINE
  5
643
330
1F
100
AcDbEntity
  8
02_図枠
100
AcDbLine
 10
195.0
 20
39.5
 30
0.0
 11
504.9999999999999
 21
39.5
 31
0.0
  0
LINE
  5
644
330
1F
100
AcDbEntity
  8
02_図枠
100
AcDbLine
 10
560.0
 20
56.99999999999999
 30
0.0
 11
560.0
 21
22.0
 31
0.0
  0
LINE
  5
645
330
1F
100
AcDbEntity
  8
02_図枠
100
AcDbLine
 10
585.0
 20
56.99999999999999
 30
0.0
 11
585.0
 21
22.0
 31
0.0
  0
LINE
  5
646
330
1F
100
AcDbEntity
  8
02_図枠
100
AcDbLine
 10
610.0
 20
56.99999999999999
 30
0.0
 11
610.0
 21
22.0
 31
0.0
  0
LINE
  5
647
330
1F
100
AcDbEntity
  8
02_図枠
100
AcDbLine
 10
635.0
 20
56.99999999999999
 30
0.0
 11
635.0
 21
22.0
 31
0.0
  0
LINE
  5
648
330
1F
100
AcDbEntity
  8
02_図枠
100
AcDbLine
 10
660.0
 20
56.99999999999999
 30
0.0
 11
660.0
 21
22.0
 31
0.0
  0
LINE
  5
649
330
1F
100
AcDbEntity
  8
02_図枠
100
AcDbLine
 10
779.9999999999998
 20
56.99999999999999
 30
0.0
 11
779.9999999999998
 21
36.0
 31
0.0
  0
LINE
  5
64A
330
1F
100
AcDbEntity
  8
02_図枠
100
AcDbLine
 10
739.9999999999998
 20
56.99999999999999
 30
0.0
 11
739.9999999999998
 21
36.0
 31
0.0
  0
LINE
  5
64B
330
1F
100
AcDbEntity
  8
02_図枠
100
AcDbLine
 10
699.9999999999999
 20
56.99999999999999
 30
0.0
 11
699.9999999999999
 21
36.0
 31
0.0
  0
LINE
  5
64C
330
1F
100
AcDbEntity
  8
02_図枠
100
AcDbLine
 10
779.9999999999998
 20
50.0
 30
0.0
 11
809.9999999999999
 21
50.0
 31
0.0
  0
TEXT
  5
64E
330
1F
100
AcDbEntity
  8
20_文字
100
AcDbText
 10
786.9499999999999
 20
51.74999999999999
 30
0.0
 40
3.499999999999999
  1
図面番号
  7
文字
 72
     4
 11
794.9999999999999
 21
53.49999999999999
 31
0.0
100
AcDbText
  0
TEXT
  5
64F
330
1F
100
AcDbEntity
  8
01_仮想線
100
AcDbText
 10
793.6666666666665
 20
39.42857142857143
 30
0.0
 40
5.0
  1
*
 41
0.7
  7
文字
 72
     4
 11
794.9999999999999
 21
42.99999999999999
 31
0.0
100
AcDbText
  0
TEXT
  5
650
330
1F
100
AcDbEntity
  8
20_文字
100
AcDbText
 10
695.4999999999999
 20
25.5
 30
0.0
 40
7.0
  1
BXルーテス株式会社
  7
文字
 72
     4
 11
734.9999999999998
 21
29.0
 31
0.0
100
AcDbText
  0
TEXT
  5
652
330
1F
100
AcDbEntity
  8
20_文字
100
AcDbText
 10
741.9999999999999
 20
51.74999999999999
 30
0.0
 40
3.499999999999999
  1
納り図第
  7
文字
 11
741.9999999999999
 21
53.49999999999999
 31
0.0
100
AcDbText
 73
     2
  0
TEXT
  5
653
330
1F
100
AcDbEntity
  8
20_文字
100
AcDbText
 10
770.5333333333332
 20
37.75
 30
0.0
 40
3.499999999999999
  1
参照
  7
文字
 72
     2
 11
777.9999999999999
 21
39.5
 31
0.0
100
AcDbText
 73
     2
  0
TEXT
  5
655
330
1F
100
AcDbEntity
  8
20_文字
100
AcDbText
 10
770.7666666666665
 20
42.24999999999999
 30
0.0
 40
3.499999999999999
  1
号図
  7
文字
 72
     2
 11
777.9999999999999
 21
43.99999999999999
 31
0.0
100
AcDbText
 73
     2
  0
TEXT
  5
656
330
1F
100
AcDbEntity
  8
20_文字
100
AcDbText
 10
701.9999999999998
 20
51.74999999999999
 30
0.0
 40
3.499999999999999
  1
断面図第
  7
文字
 11
701.9999999999998
 21
53.49999999999999
 31
0.0
100
AcDbText
 73
     2
  0
TEXT
  5
657
330
1F
100
AcDbEntity
  8
20_文字
100
AcDbText
 10
730.5333333333331
 20
37.75
 30
0.0
 40
3.499999999999999
  1
参照
  7
文字
 72
     2
 11
737.9999999999999
 21
39.5
 31
0.0
100
AcDbText
 73
     2
  0
TEXT
  5
658
330
1F
100
AcDbEntity
  8
20_文字
100
AcDbText
 10
730.7666666666665
 20
42.24999999999999
 30
0.0
 40
3.499999999999999
  1
号図
  7
文字
 72
     2
 11
737.9999999999999
 21
43.99999999999999
 31
0.0
100
AcDbText
 73
     2
  0
TEXT
  5
659
330
1F
100
AcDbEntity
  8
20_文字
100
AcDbText
 10
662.0
 20
51.74999999999999
 30
0.0
 40
3.499999999999999
  1
姿図第
  7
文字
 11
662.0
 21
53.49999999999999
 31
0.0
100
AcDbText
 73
     2
  0
TEXT
  5
65A
330
1F
100
AcDbEntity
  8
20_文字
100
AcDbText
 10
690.5333333333332
 20
37.75
 30
0.0
 40
3.499999999999999
  1
参照
  7
文字
 72
     2
 11
697.9999999999998
 21
39.5
 31
0.0
100
AcDbText
 73
     2
  0
TEXT
  5
65B
330
1F
100
AcDbEntity
  8
20_文字
100
AcDbText
 10
690.7666666666665
 20
42.24999999999999
 30
0.0
 40
3.499999999999999
  1
号図
  7
文字
 72
     2
 11
697.9999999999998
 21
43.99999999999999
 31
0.0
100
AcDbText
 73
     2
  0
TEXT
  5
65D
330
1F
100
AcDbEntity
  8
20_文字
100
AcDbText
 10
639.5666666666667
 20
51.74999999999999
 30
0.0
 40
3.499999999999999
  1
縮　　尺
  7
文字
 72
     4
 11
647.5
 21
53.49999999999999
 31
0.0
100
AcDbText
  0
TEXT
  5
65E
330
1F
100
AcDbEntity
  8
20_文字
100
AcDbText
 10
614.5666666666667
 20
51.74999999999999
 30
0.0
 40
3.499999999999999
  1
照　　査
  7
文字
 72
     4
 11
622.5
 21
53.49999999999999
 31
0.0
100
AcDbText
  0
TEXT
  5
65F
330
1F
100
AcDbEntity
  8
20_文字
100
AcDbText
 10
589.5666666666667
 20
51.74999999999999
 30
0.0
 40
3.499999999999999
  1
作　　成
  7
文字
 72
     4
 11
597.5
 21
53.49999999999999
 31
0.0
100
AcDbText
  0
TEXT
  5
660
330
1F
100
AcDbEntity
  8
20_文字
100
AcDbText
 10
564.5249999999999
 20
51.74999999999999
 30
0.0
 40
3.499999999999999
  1
打　　合
  7
文字
 72
     4
 11
572.5
 21
53.49999999999999
 31
0.0
100
AcDbText
  0
TEXT
  5
661
330
1F
100
AcDbEntity
  8
20_文字
100
AcDbText
 10
649.0083333333333
 20
44.74999999999999
 30
0.0
 40
3.499999999999999
  1
1
 41
0.7
  7
文字
 72
     4
 11
650.0
 21
46.49999999999999
 31
0.0
100
AcDbText
  0
TEXT
  5
663
330
1F
100
AcDbEntity
  8
20_文字
100
AcDbText
 10
649.0083333333333
 20
37.75
 30
0.0
 40
3.499999999999999
  1
1
 41
0.7
  7
文字
 72
     4
 11
650.0
 21
39.5
 31
0.0
100
AcDbText
  0
TEXT
  5
664
330
1F
100
AcDbEntity
  8
20_文字
100
AcDbText
 10
638.25
 20
41.24999999999999
 30
0.0
 40
3.499999999999999
  1
A1
 41
0.7
  7
文字
 72
     4
 11
640.0
 21
42.99999999999999
 31
0.0
100
AcDbText
  0
TEXT
  5
665
330
1F
100
AcDbEntity
  8
20_文字
100
AcDbText
 10
649.0083333333333
 20
30.75
 30
0.0
 40
3.499999999999999
  1
1
 41
0.7
  7
文字
 72
     4
 11
650.0
 21
32.5
 31
0.0
100
AcDbText
  0
TEXT
  5
666
330
1F
100
AcDbEntity
  8
20_文字
100
AcDbText
 10
648.8333333333334
 20
23.75
 30
0.0
 40
3.499999999999999
  1
2
 41
0.7
  7
文字
 72
     4
 11
650.0
 21
25.5
 31
0.0
100
AcDbText
  0
TEXT
  5
667
330
1F
100
AcDbEntity
  8
20_文字
100
AcDbText
 10
637.8999999999999
 20
27.25
 30
0.0
 40
3.499999999999999
  1
A3
 41
0.7
  7
文字
 72
     4
 11
640.0
 21
29.0
 31
0.0
100
AcDbText
  0
TEXT
  5
668
330
1F
100
AcDbEntity
  8
20_文字
100
AcDbText
 10
506.9999999999999
 20
51.74999999999999
 30
0.0
 40
3.499999999999999
  1
受　領
  7
文字
 11
506.9999999999999
 21
53.49999999999999
 31
0.0
100
AcDbText
 73
     2
  0
TEXT
  5
669
330
1F
100
AcDbEntity
  8
20_文字
100
AcDbText
 10
525.8
 20
23.75
 30
0.0
 40
3.499999999999999
  1
年   月   日
  7
文字
 72
     2
 11
558.0
 21
25.5
 31
0.0
100
AcDbText
 73
     2
  0
TEXT
  5
672
330
1F
100
AcDbEntity
  8
20_文字
100
AcDbText
 10
337.0
 20
51.74999999999999
 30
0.0
 40
3.499999999999999
  1
工事件名
  7
文字
 11
337.0
 21
53.49999999999999
 31
0.0
100
AcDbText
 73
     2
  0
TEXT
  5
673
330
1F
100
AcDbEntity
  8
20_文字
100
AcDbText
 10
196.9999999999999
 20
51.74999999999999
 30
0.0
 40
3.499999999999999
  1
設計監理
  7
文字
 11
196.9999999999999
 21
53.49999999999999
 31
0.0
100
AcDbText
 73
     2
  0
TEXT
  5
674
330
1F
100
AcDbEntity
  8
20_文字
100
AcDbText
 10
196.9999999999999
 20
34.25
 30
0.0
 40
3.499999999999999
  1
施　　工
  7
文字
 11
196.9999999999999
 21
36.0
 31
0.0
100
AcDbText
 73
     2
  0
TEXT
  5
675
330
1F
100
AcDbEntity
  8
20_文字
100
AcDbText
 10
337.0
 20
34.25
 30
0.0
 40
3.499999999999999
  1
図面内容
  7
文字
 11
337.0
 21
36.0
 31
0.0
100
AcDbText
 73
     2
  0
TEXT
  5
67E
330
1F
100
AcDbEntity
  8
20_文字
100
AcDbText
 10
325.3333333333333
 20
45.74999999999999
 30
0.0
 40
5.0
  1
殿
  7
文字
 72
     2
 11
330.0
 21
48.24999999999999
 31
0.0
100
AcDbText
 73
     2
  0
TEXT
  5
67F
330
1F
100
AcDbEntity
  8
20_文字
100
AcDbText
 10
325.3333333333333
 20
28.25
 30
0.0
 40
5.0
  1
殿
  7
文字
 72
     2
 11
330.0
 21
30.75
 31
0.0
100
AcDbText
 73
     2
  0
TEXT
  5
680
330
1F
100
AcDbEntity
  8
01_仮想線
100
AcDbText
 10
220.0
 20
45.74999999999999
 30
0.0
 40
5.0
  1
※
  7
文字
 11
220.0
 21
48.24999999999999
 31
0.0
100
AcDbText
 73
     2
  0
TEXT
  5
681
330
1F
100
AcDbEntity
  8
01_仮想線
100
AcDbText
 10
220.0
 20
28.25
 30
0.0
 40
5.0
  1
※
  7
文字
 11
220.0
 21
30.75
 31
0.0
100
AcDbText
 73
     2
  0
TEXT
  5
682
330
1F
100
AcDbEntity
  8
01_仮想線
100
AcDbText
 10
360.0
 20
45.74999999999999
 30
0.0
 40
5.0
  1
※
  7
文字
 11
360.0
 21
48.24999999999999
 31
0.0
100
AcDbText
 73
     2
  0
TEXT
  5
684
330
1F
100
AcDbEntity
  8
20_文字
100
AcDbText
 10
41.86666666666666
 20
44.74999999999999
 30
0.0
 40
3.499999999999999
  1
記
  7
文字
 72
     4
 11
43.49999999999999
 21
46.49999999999999
 31
0.0
100
AcDbText
  0
TEXT
  5
685
330
1F
100
AcDbEntity
  8
20_文字
100
AcDbText
 10
41.86666666666666
 20
30.75
 30
0.0
 40
3.499999999999999
  1
事
  7
文字
 72
     4
 11
43.49999999999999
 21
32.5
 31
0.0
100
AcDbText
  0
TEXT
  5
687
330
1F
100
AcDbEntity
  8
01_仮想線
100
AcDbText
 10
48.99999999999999
 20
51.74999999999999
 30
0.0
 40
3.499999999999999
  1
※
  7
文字
 11
48.99999999999999
 21
53.49999999999999
 31
0.0
100
AcDbText
 73
     2
  0
TEXT
  5
688
330
1F
100
AcDbEntity
  8
01_仮想線
100
AcDbText
 10
48.99999999999999
 20
44.74999999999999
 30
0.0
 40
3.499999999999999
  1
※
  7
文字
 11
48.99999999999999
 21
46.49999999999999
 31
0.0
100
AcDbText
 73
     2
  0
TEXT
  5
689
330
1F
100
AcDbEntity
  8
01_仮想線
100
AcDbText
 10
48.99999999999999
 20
37.75
 30
0.0
 40
3.499999999999999
  1
※
  7
文字
 11
48.99999999999999
 21
39.5
 31
0.0
100
AcDbText
 73
     2
  0
TEXT
  5
68A
330
1F
100
AcDbEntity
  8
01_仮想線
100
AcDbText
 10
48.99999999999999
 20
30.75
 30
0.0
 40
3.499999999999999
  1
※
  7
文字
 11
48.99999999999999
 21
32.5
 31
0.0
100
AcDbText
 73
     2
  0
TEXT
  5
68B
330
1F
100
AcDbEntity
  8
01_仮想線
100
AcDbText
 10
48.99999999999999
 20
23.75
 30
0.0
 40
3.499999999999999
  1
※
  7
文字
 11
48.99999999999999
 21
25.5
 31
0.0
100
AcDbText
 73
     2
  0
TEXT
  5
68C
330
1F
100
AcDbEntity
  8
20_文字
100
AcDbText
 10
723.5238095238094
 20
17.75
 30
0.0
 40
2.5
  1
ACLT21BXRTA1BASE-A　20210517　RD-D001A
  7
文字
 72
     2
 11
809.9999999999999
 21
19.0
 31
0.0
100
AcDbText
 73
     2
  0
LINE
  5
696
330
1F
100
AcDbEntity
  8
02_図枠
100
AcDbLine
 10
40.0
 20
314.5
 30
0.0
 11
30.0
 21
314.5
 31
0.0
  0
LINE
  5
697
330
1F
100
AcDbEntity
  8
02_図枠
100
AcDbLine
 10
809.9999999999999
 20
314.5
 30
0.0
 11
819.9999999999999
 21
314.5
 31
0.0
  0
LINE
  5
698
330
1F
100
AcDbEntity
  8
02_図枠
100
AcDbLine
 10
812.9999999999999
 20
42.99999999999999
 30
0.0
 11
829.9999999999998
 21
42.99999999999999
 31
0.0
  0
CIRCLE
  5
699
330
1F
100
AcDbEntity
  8
02_図枠
100
AcDbCircle
 10
821.4999999999999
 20
42.99999999999999
 30
0.0
 40
8.5
  0
TEXT
  5
69A
330
1F
100
AcDbEntity
  8
01_仮想線
100
AcDbText
 10
820.1666666666664
 20
42.92857142857142
 30
0.0
 40
5.0
  1
*
 41
0.7
  7
文字
 72
     4
 11
821.4999999999999
 21
46.49999999999999
 31
0.0
100
AcDbText
  0
TEXT
  5
69B
330
1F
100
AcDbEntity
  8
01_仮想線
100
AcDbText
 10
820.1666666666664
 20
35.92857142857143
 30
0.0
 40
5.0
  1
*
 41
0.7
  7
文字
 72
     4
 11
821.4999999999999
 21
39.5
 31
0.0
100
AcDbText
  0
LINE
  5
6D2
330
1F
100
AcDbEntity
  8
02_図枠
100
AcDbLine
 10
812.9999999999999
 20
62.99999999999999
 30
0.0
 11
829.9999999999998
 21
62.99999999999999
 31
0.0
  0
CIRCLE
  5
6D3
330
1F
100
AcDbEntity
  8
02_図枠
100
AcDbCircle
 10
821.4999999999999
 20
62.99999999999999
 30
0.0
 40
8.5
  0
TEXT
  5
6D4
330
1F
100
AcDbEntity
  8
01_仮想線
100
AcDbText
 10
820.1666666666664
 20
62.92857142857143
 30
0.0
 40
5.0
  1
*
 41
0.7
  7
文字
 72
     4
 11
821.4999999999999
 21
66.5
 31
0.0
100
AcDbText
  0
TEXT
  5
6D5
330
1F
100
AcDbEntity
  8
01_仮想線
100
AcDbText
 10
820.1666666666664
 20
55.92857142857142
 30
0.0
 40
5.0
  1
*
 41
0.7
  7
文字
 72
     4
 11
821.4999999999999
 21
59.49999999999999
 31
0.0
100
AcDbText
  0
LINE
  5
6D6
330
1F
100
AcDbEntity
  8
02_図枠
100
AcDbLine
 10
812.9999999999999
 20
83.0
 30
0.0
 11
829.9999999999998
 21
83.0
 31
0.0
  0
CIRCLE
  5
6D7
330
1F
100
AcDbEntity
  8
02_図枠
100
AcDbCircle
 10
821.4999999999999
 20
83.0
 30
0.0
 40
8.5
  0
TEXT
  5
6D8
330
1F
100
AcDbEntity
  8
01_仮想線
100
AcDbText
 10
820.1666666666664
 20
82.92857142857142
 30
0.0
 40
5.0
  1
*
 41
0.7
  7
文字
 72
     4
 11
821.4999999999999
 21
86.49999999999998
 31
0.0
100
AcDbText
  0
TEXT
  5
6D9
330
1F
100
AcDbEntity
  8
01_仮想線
100
AcDbText
 10
820.1666666666664
 20
75.92857142857143
 30
0.0
 40
5.0
  1
*
 41
0.7
  7
文字
 72
     4
 11
821.4999999999999
 21
79.5
 31
0.0
100
AcDbText
  0
LINE
  5
6DA
330
1F
100
AcDbEntity
  8
02_図枠
100
AcDbLine
 10
812.9999999999999
 20
103.0
 30
0.0
 11
829.9999999999998
 21
103.0
 31
0.0
  0
CIRCLE
  5
6DB
330
1F
100
AcDbEntity
  8
02_図枠
100
AcDbCircle
 10
821.4999999999999
 20
103.0
 30
0.0
 40
8.5
  0
TEXT
  5
6DC
330
1F
100
AcDbEntity
  8
01_仮想線
100
AcDbText
 10
820.1666666666664
 20
102.9285714285714
 30
0.0
 40
5.0
  1
*
 41
0.7
  7
文字
 72
     4
 11
821.4999999999999
 21
106.5
 31
0.0
100
AcDbText
  0
TEXT
  5
6DD
330
1F
100
AcDbEntity
  8
01_仮想線
100
AcDbText
 10
820.1666666666664
 20
95.92857142857141
 30
0.0
 40
5.0
  1
*
 41
0.7
  7
文字
 72
     4
 11
821.4999999999999
 21
99.49999999999999
 31
0.0
100
AcDbText
  0
LINE
  5
6DE
330
1F
100
AcDbEntity
  8
02_図枠
100
AcDbLine
 10
812.9999999999999
 20
123.0
 30
0.0
 11
829.9999999999998
 21
123.0
 31
0.0
  0
CIRCLE
  5
6DF
330
1F
100
AcDbEntity
  8
02_図枠
100
AcDbCircle
 10
821.4999999999999
 20
123.0
 30
0.0
 40
8.5
  0
TEXT
  5
6E0
330
1F
100
AcDbEntity
  8
01_仮想線
100
AcDbText
 10
820.1666666666664
 20
122.9285714285714
 30
0.0
 40
5.0
  1
*
 41
0.7
  7
文字
 72
     4
 11
821.4999999999999
 21
126.5
 31
0.0
100
AcDbText
  0
TEXT
  5
6E1
330
1F
100
AcDbEntity
  8
01_仮想線
100
AcDbText
 10
820.1666666666664
 20
115.9285714285714
 30
0.0
 40
5.0
  1
*
 41
0.7
  7
文字
 72
     4
 11
821.4999999999999
 21
119.5
 31
0.0
100
AcDbText
  0
LINE
  5
6E2
330
1F
100
AcDbEntity
  8
02_図枠
100
AcDbLine
 10
812.9999999999999
 20
143.0
 30
0.0
 11
829.9999999999998
 21
143.0
 31
0.0
  0
CIRCLE
  5
6E3
330
1F
100
AcDbEntity
  8
02_図枠
100
AcDbCircle
 10
821.4999999999999
 20
143.0
 30
0.0
 40
8.5
  0
TEXT
  5
6E4
330
1F
100
AcDbEntity
  8
01_仮想線
100
AcDbText
 10
820.1666666666664
 20
142.9285714285714
 30
0.0
 40
5.0
  1
*
 41
0.7
  7
文字
 72
     4
 11
821.4999999999999
 21
146.5
 31
0.0
100
AcDbText
  0
TEXT
  5
6E5
330
1F
100
AcDbEntity
  8
01_仮想線
100
AcDbText
 10
820.1666666666664
 20
135.9285714285714
 30
0.0
 40
5.0
  1
*
 41
0.7
  7
文字
 72
     4
 11
821.4999999999999
 21
139.5
 31
0.0
100
AcDbText
  0
LWPOLYLINE
  5
723
330
1F
100
AcDbEntity
  8
01_仮想線
100
AcDbPolyline
 90
        4
 70
     1
 43
0.0
 10
840.9999999999998
 20
0.0
 10
840.9999999999998
 20
594.0
 10
0.0
 20
594.0
 10
0.0
 20
0.0
  0
TEXT
  5
18B7
330
1F
100
AcDbEntity
  8
20_文字
100
AcDbText
 10
360.0
 20
31.99999999999999
 30
0.0
 40
5.0
  1
リフォームドア〈扉交換工法・片開き・標準タイプ〉
 41
0.7
  7
文字
 11
360.0
 21
34.49999999999999
 31
0.0
100
AcDbText
 73
     2
  0
TEXT
  5
18B8
330
1F
100
AcDbEntity
  8
20_文字
100
AcDbText
 10
360.0
 20
24.5
 30
0.0
 40
5.0
  1
断面図
 41
0.7
  7
文字
 11
360.0
 21
27.0
 31
0.0
100
AcDbText
 73
     2
  0
LWPOLYLINE
  5
3A8A
330
1F
100
AcDbEntity
  8
05_枠(一点鎖線)
100
AcDbPolyline
 90
       25
 70
     1
 43
0.0
 10
202.6
 20
459.4999999999999
 42
-0.9999999999999998
 10
202.6
 20
462.7
 10
212.5
 20
462.7
 10
212.5
 20
474.5
 10
160.6
 20
474.5
 42
-0.4142135623730951
 10
159.0
 20
476.1000000000001
 10
159.0
 20
497.9
 42
-0.4142135623730951
 10
160.6
 20
499.5
 10
174.0
 20
499.5
 10
174.0
 20
497.9
 10
160.6
 20
497.9
 10
160.6
 20
476.1000000000001
 10
212.5
 20
476.1
 42
-0.4142135623730951
 10
214.1
 20
474.5
 10
214.1
 20
462.7
 42
-0.4142135623730982
 10
212.5
 20
461.1
 10
202.6
 20
461.1
 10
237.4
 20
461.1
 10
237.4
 20
497.9
 10
224.0
 20
497.9
 10
224.0
 20
499.5
 10
237.4
 20
499.5
 42
-0.4142135623730951
 10
239.0
 20
497.9
 10
239.0
 20
461.1
 42
-0.4142135623730951
 10
237.4
 20
459.4999999999999
  0
LINE
  5
3A8D
330
1F
100
AcDbEntity
  8
05_枠(一点鎖線)
100
AcDbLine
 10
201.0
 20
168.0
 30
0.0
 11
201.0
 21
304.5000000000001
 31
0.0
  0
LWPOLYLINE
  5
3A8E
330
1F
100
AcDbEntity
  8
04_枠(破線)
100
AcDbPolyline
 90
        4
 70
     1
 43
0.0
 10
165.0
 20
497.9
 10
229.0
 20
497.9
 10
229.0
 20
495.5999999999999
 10
165.0
 20
495.5999999999999
  0
LINE
  5
3A94
330
1F
100
AcDbEntity
  8
03_枠(実線)
100
AcDbLine
 10
201.1893398282202
 20
153.0
 30
0.0
 11
202.6893398282202
 21
154.5
 31
0.0
  0
LINE
  5
3A95
330
1F
100
AcDbEntity
  8
03_枠(実線)
100
AcDbLine
 10
203.3106601717798
 20
153.0
 30
0.0
 11
204.8106601717798
 21
154.5
 31
0.0
  0
DIMENSION
  5
3AA0
330
1F
100
AcDbEntity
  8
19_寸法線・引出線
100
AcDbDimension
280
     0
  2
*D7
 10
309.0000000000012
 20
169.5
 30
0.0
 11
305.5000000000011
 21
314.5
 31
0.0
 70
    32
  1
H=
 71
     5
 42
290.0
 73
     0
 74
     0
 75
     0
  3
WH寸法(1-1)
100
AcDbAlignedDimension
 13
259.0
 23
459.4999999999999
 33
0.0
 14
259.0
 24
169.5
 34
0.0
 50
90.0
100
AcDbRotatedDimension
  0
DIMENSION
  5
3AA9
330
1F
100
AcDbEntity
  8
19_寸法線・引出線
100
AcDbDimension
280
     0
  2
*D8
 10
109.0000000000002
 20
470.5
 30
0.0
 11
105.5000000000001
 21
472.5000000000001
 31
0.0
 70
    32
 71
     5
 42
4.0
 73
     0
 74
     0
 75
     0
  3
寸法(1-1)
100
AcDbAlignedDimension
 13
157.0
 23
474.5
 33
0.0
 14
159.0
 24
470.5
 34
0.0
 50
90.0
100
AcDbRotatedDimension
  0
DIMENSION
  5
3AAA
330
1F
100
AcDbEntity
  8
19_寸法線・引出線
100
AcDbDimension
280
     0
  2
*D9
 10
109.0000000000004
 20
160.5
 30
0.0
 11
105.5000000000003
 21
315.5000000000001
 31
0.0
 70
    32
  1
DH
 71
     5
 42
310.0000000000001
 73
     0
 74
     0
 75
     0
  3
寸法(1-1)
100
AcDbAlignedDimension
 13
159.0
 23
470.5
 33
0.0
 14
159.0
 24
160.5
 34
0.0
 50
90.0
100
AcDbRotatedDimension
  0
DIMENSION
  5
3AAB
330
1F
100
AcDbEntity
  8
19_寸法線・引出線
100
AcDbDimension
280
     0
  2
*D10
 10
109.0000000000003
 20
154.5
 30
0.0
 11
105.5000000000003
 21
157.5
 31
0.0
 70
    32
 71
     5
 42
6.0
 73
     0
 74
     0
 75
     0
  3
寸法(1-1)
100
AcDbAlignedDimension
 13
159.0
 23
160.5
 33
0.0
 14
156.0
 24
154.5
 34
0.0
 50
90.0
100
AcDbRotatedDimension
  0
DIMENSION
  5
3AB3
330
1F
100
AcDbEntity
  8
19_寸法線・引出線
100
AcDbDimension
280
     0
  2
*D11
 10
239.0
 20
310.5000000000001
 30
0.0
 11
204.7420046300536
 21
310.5000000000001
 31
0.0
 70
   160
  1
　
 71
     5
 42
80.0
 73
     0
 74
     0
 75
     0
  3
寸法(1-1)
100
AcDbAlignedDimension
 13
159.0
 23
310.5000000000001
 33
0.0
 14
239.0
 24
310.5000000000001
 34
0.0
100
AcDbRotatedDimension
  0
DIMENSION
  5
3AB4
330
1F
100
AcDbEntity
  8
19_寸法線・引出線
100
AcDbDimension
280
     0
  2
*D12
 10
162.0
 20
330.5000000000001
 30
0.0
 11
156.5664079490411
 21
333.7988537568313
 31
0.0
 70
   160
 71
     5
 42
3.0
 73
     0
 74
     0
 75
     0
  3
寸法(1-1)
100
AcDbAlignedDimension
 13
159.0
 23
330.5000000000001
 33
0.0
 14
162.0
 24
330.5000000000001
 34
0.0
100
AcDbRotatedDimension
1001
ACAD
1000
DSTYLE
1002
{
1070
   279
1070
     2
1002
}
  0
DIMENSION
  5
3AB5
330
1F
100
AcDbEntity
  8
19_寸法線・引出線
100
AcDbDimension
280
     0
  2
*D13
 10
198.0
 20
330.5000000000001
 30
0.0
 11
180.0
 21
334.0000000000001
 31
0.0
 70
    32
  1
<>（40）
 71
     5
 42
36.0
 73
     0
 74
     0
 75
     0
  3
寸法(1-1)
100
AcDbAlignedDimension
 13
162.0
 23
330.5000000000001
 33
0.0
 14
198.0
 24
330.5000000000001
 34
0.0
100
AcDbRotatedDimension
  0
DIMENSION
  5
3AB6
330
1F
100
AcDbEntity
  8
19_寸法線・引出線
100
AcDbDimension
280
     0
  2
*D14
 10
201.0
 20
330.5000000000001
 30
0.0
 11
204.414593463729
 21
334.0000000000001
 31
0.0
 70
   160
 71
     5
 42
3.0
 73
     0
 74
     0
 75
     0
  3
寸法(1-1)
100
AcDbAlignedDimension
 13
198.0
 23
330.5000000000001
 33
0.0
 14
201.0
 24
330.5000000000001
 34
0.0
100
AcDbRotatedDimension
1001
ACAD
1000
DSTYLE
1002
{
1070
   279
1070
     2
1002
}
  0
DIMENSION
  5
3AB7
330
1F
100
AcDbEntity
  8
19_寸法線・引出線
100
AcDbDimension
280
     0
  2
*D15
 10
239.0
 20
320.5000000000001
 30
0.0
 11
220.0
 21
324.0000000000001
 31
0.0
 70
    32
  1
　
 71
     5
 42
38.0
 73
     0
 74
     0
 75
     0
  3
寸法(1-1)
100
AcDbAlignedDimension
 13
201.0
 23
320.5000000000001
 33
0.0
 14
239.0
 24
320.5000000000001
 34
0.0
100
AcDbRotatedDimension
  0
LWPOLYLINE
  5
3AB8
330
1F
100
AcDbEntity
  8
20_文字
100
AcDbPolyline
 90
        4
 70
     1
 43
0.0
 10
324.0000000000008
 20
275.5000000000001
 10
324.0000000000008
 20
335.5000000000001
 10
339.0000000000008
 20
335.5000000000001
 10
339.0000000000008
 20
275.5000000000001
  0
LWPOLYLINE
  5
3ABA
330
1F
100
AcDbEntity
  8
20_文字
100
AcDbPolyline
 90
        4
 70
     1
 43
0.0
 10
55.00000000000034
 20
275.5000000000001
 10
55.00000000000034
 20
335.5000000000001
 10
70.00000000000034
 20
335.5000000000001
 10
70.00000000000034
 20
275.5000000000001
  0
LWPOLYLINE
  5
3AC2
330
1F
100
AcDbEntity
  8
05_枠(一点鎖線)
100
AcDbPolyline
 90
       25
 70
     1
 43
0.0
 10
456.0000000000008
 20
266.0000217956616
 10
456.0000000000008
 20
279.4000217956617
 42
-0.4142135623730951
 10
457.6000000000009
 20
281.0000217956616
 10
494.4000000000008
 20
281.0000217956616
 42
-0.4142135623730951
 10
496.0000000000007
 20
279.4000217956617
 10
496.0000000000008
 20
238.6000217956615
 42
-0.9999999999999998
 10
492.8000000000008
 20
238.6000217956615
 10
492.8000000000008
 20
248.5000217956616
 10
481.0000000000008
 20
248.5000217956616
 10
481.0000000000008
 20
196.6000217956615
 42
-0.4142135623730951
 10
479.4000000000009
 20
195.0000217956616
 10
457.6000000000009
 20
195.0000217956616
 42
-0.4142135623730951
 10
456.0000000000008
 20
196.6000217956615
 10
456.0000000000008
 20
215.0000217956616
 10
457.6000000000009
 20
215.0000217956616
 10
457.6000000000009
 20
196.6000217956615
 10
479.4000000000009
 20
196.6000217956615
 10
479.4000000000009
 20
248.5000217956616
 42
-0.4142135623730951
 10
481.0000000000008
 20
250.1000217956615
 10
492.8000000000008
 20
250.1000217956615
 42
-0.4142135623730982
 10
494.4000000000008
 20
248.5000217956616
 10
494.4000000000008
 20
238.6000217956615
 10
494.4000000000008
 20
279.4000217956617
 10
457.6000000000009
 20
279.4000217956617
 10
457.6000000000009
 20
266.0000217956616
  0
LWPOLYLINE
  5
3AC3
330
1F
100
AcDbEntity
  8
04_枠(破線)
100
AcDbPolyline
 90
        4
 70
     1
 43
0.0
 10
457.6000000000009
 20
205.0000217956616
 10
457.6000000000009
 20
271.0000217956616
 10
459.9000000000009
 20
271.0000217956616
 10
459.9000000000009
 20
205.0000217956616
  0
LINE
  5
3ACC
330
1F
100
AcDbEntity
  8
05_枠(一点鎖線)
100
AcDbLine
 10
494.4000000000008
 20
237.0000217956616
 30
0.0
 11
582.0000000000006
 21
237.0000217956617
 31
0.0
  0
LINE
  5
3ACD
330
1F
100
AcDbEntity
  8
05_枠(一点鎖線)
100
AcDbLine
 10
496.0000000000007
 20
278.0000217956616
 30
0.0
 11
582.0000000000006
 21
278.0000217956616
 31
0.0
  0
DIMENSION
  5
3AEB
330
1F
100
AcDbEntity
  8
19_寸法線・引出線
100
AcDbDimension
280
     0
  2
*D16
 10
670.0000000000005
 20
331.0000217956616
 30
0.0
 11
583.0000000000007
 21
334.5000217956616
 31
0.0
 70
    32
  1
W=
 71
     5
 42
173.9999999999997
 73
     0
 74
     0
 75
     0
  3
WH寸法(1-1)
100
AcDbAlignedDimension
 13
496.0000000000007
 23
281.0000217956616
 33
0.0
 14
670.0000000000005
 24
281.0000217956616
 34
0.0
100
AcDbRotatedDimension
  0
DIMENSION
  5
3AEF
330
1F
100
AcDbEntity
  8
19_寸法線・引出線
100
AcDbDimension
280
     0
  2
*D17
 10
485.0000000000008
 20
145.0
 30
0.0
 11
488.5344826611508
 21
148.5
 31
0.0
 70
   160
 71
     5
 42
4.0
 73
     0
 74
     0
 75
     0
  3
寸法(1-1)
100
AcDbAlignedDimension
 13
481.0000000000008
 23
195.0
 33
0.0
 14
485.0000000000008
 24
195.0000217956616
 34
0.0
100
AcDbRotatedDimension
1001
ACAD
1000
DSTYLE
1002
{
1070
   279
1070
     2
1002
}
  0
DIMENSION
  5
3AF0
330
1F
100
AcDbEntity
  8
19_寸法線・引出線
100
AcDbDimension
280
     0
  2
*D18
 10
681.0000000000006
 20
145.0
 30
0.0
 11
583.0000000000008
 21
148.5
 31
0.0
 70
    32
  1
DW
 71
     5
 42
195.9999999999998
 73
     0
 74
     0
 75
     0
  3
寸法(1-1)
100
AcDbAlignedDimension
 13
485.0000000000008
 23
195.0000217956616
 33
0.0
 14
681.0000000000006
 24
173.2250671343179
 34
0.0
100
AcDbRotatedDimension
  0
DIMENSION
  5
3AF1
330
1F
100
AcDbEntity
  8
19_寸法線・引出線
100
AcDbDimension
280
     0
  2
*D19
 10
684.9999999999957
 20
145.0
 30
0.0
 11
677.1209613901992
 21
148.5
 31
0.0
 70
   160
 71
     5
 42
3.999999999994997
 73
     0
 74
     0
 75
     0
  3
寸法(1-1)
100
AcDbAlignedDimension
 13
681.0000000000006
 23
173.0000330335533
 33
0.0
 14
684.9999999999957
 24
173.2250701421444
 34
0.0
100
AcDbRotatedDimension
1001
ACAD
1000
DSTYLE
1002
{
1070
   279
1070
     2
1002
}
  0
LWPOLYLINE
  5
3AFC
330
1F
100
AcDbEntity
  8
20_文字
100
AcDbPolyline
 90
        4
 70
     1
 43
0.0
 10
553.0000000000007
 20
110.0
 10
613.0000000000006
 20
110.0
 10
613.0000000000006
 20
95.0
 10
553.0000000000007
 20
95.0
  0
TEXT
  5
3AFD
330
1F
100
AcDbEntity
  8
20_文字
100
AcDbText
 10
571.333333333334
 20
99.0
 30
0.0
 40
7.0
  1
外部側
  7
文字
 72
     4
 11
583.0000000000007
 21
102.5
 31
0.0
100
AcDbText
  0
LWPOLYLINE
  5
3AFE
330
1F
100
AcDbEntity
  8
20_文字
100
AcDbPolyline
 90
        4
 70
     1
 43
0.0
 10
553.0000000000007
 20
381.0000217956616
 10
613.0000000000006
 20
381.0000217956616
 10
613.0000000000006
 20
366.0000217956616
 10
553.0000000000007
 20
366.0000217956616
  0
TEXT
  5
3AFF
330
1F
100
AcDbEntity
  8
20_文字
100
AcDbText
 10
571.1000000000007
 20
370.0000217956616
 30
0.0
 40
7.0
  1
内部側
  7
文字
 72
     4
 11
583.0000000000007
 21
373.5000217956616
 31
0.0
100
AcDbText
  0
TEXT
  5
3B00
330
1F
100
AcDbEntity
  8
20_文字
100
AcDbText
 10
681.3166666666668
 20
64.5
 30
0.0
 40
5.0
  1
※本図は右吊元の場合を示し、左吊元は本図と左右対称とする。
 41
0.7
  7
文字
 72
     2
 11
799.9999999999999
 21
67.0
 31
0.0
100
AcDbText
 73
     2
  0
LWPOLYLINE
  5
3B31
330
1F
100
AcDbEntity
  8
11_金物(実線)
100
AcDbPolyline
 90
       20
 70
     1
 43
0.0
 10
204.4267226664227
 20
463.4629470914948
 10
205.1999999999984
 20
464.35
 10
201.2638892937425
 20
466.458630735496
 42
-0.2764855478606028
 10
201.0
 20
466.8993707205098
 10
201.0000000000002
 20
470.3006292794908
 42
-0.2764855478606874
 10
201.2638892937425
 20
470.741369264506
 10
205.1999999999992
 20
472.85
 10
204.4267226664238
 20
473.7370529085057
 42
-0.9532211820510505
 10
205.0903048614709
 20
474.3739342478082
 10
206.6999999999991
 20
472.85
 10
207.9999999999982
 20
472.8499999999988
 10
207.2267226664224
 20
473.7370529085054
 42
-0.9532211820510012
 10
207.8903048614698
 20
474.3739342478082
 10
209.499999999998
 20
472.85
 10
209.499999999998
 20
464.35
 10
207.8903048614696
 20
462.8260657521918
 42
-0.9532211820509724
 10
207.2267226664219
 20
463.462947091495
 10
207.9999999999974
 20
464.3500000000011
 10
206.6999999999983
 20
464.35
 10
205.0903048614698
 20
462.8260657521918
 42
-0.953221182051169
  0
LWPOLYLINE
  5
3B32
330
1F
100
AcDbEntity
  8
11_金物(実線)
100
AcDbPolyline
 90
       12
 70
     1
 43
0.0
 10
207.9999999999982
 20
470.35
 10
207.9999999999982
 20
466.85
 42
-0.4142135623730951
 10
207.4999999999984
 20
466.3499999999999
 10
205.8274600580886
 20
466.3499999999999
 42
-0.1235756310656023
 10
205.5913493518308
 20
466.4092600149859
 10
203.2638892937419
 20
467.656113617534
 42
-0.2764855478606358
 10
203.0
 20
468.096853602548
 10
203.0
 20
469.1031463974531
 42
-0.276485547860652
 10
203.2638892937425
 20
469.5438863824671
 10
205.5913493518306
 20
470.7907399850141
 42
-0.1235756310655028
 10
205.8274600580885
 20
470.8499999999999
 10
207.4999999999986
 20
470.8499999999999
 42
-0.4142135623730951
  0
LWPOLYLINE
  5
3B33
330
1F
100
AcDbEntity
  8
11_金物(実線)
100
AcDbPolyline
 90
       20
 70
     1
 43
0.0
 10
209.5661823345084
 20
465.505891735216
 10
209.9999999999986
 20
465.35
 10
209.9999999999986
 20
464.5999999999999
 42
0.9999999999999998
 10
210.9999999999986
 20
464.5999999999999
 10
210.9999999999986
 20
472.5999999999999
 42
0.9999999999999998
 10
209.9999999999986
 20
472.5999999999999
 10
209.9999999999986
 20
471.85
 10
209.5661823345081
 20
471.6941082647841
 42
0.7032574095512821
 10
209.5661823345084
 20
471.5058917352149
 10
209.9999999999986
 20
471.35
 10
209.9999999999986
 20
469.85
 10
209.5661823345081
 20
469.6941082647851
 42
0.7032574095513022
 10
209.5661823345084
 20
469.505891735216
 10
209.9999999999986
 20
469.35
 10
209.9999999999986
 20
467.85
 10
209.5661823345081
 20
467.694108264785
 42
0.7032574095513022
 10
209.5661823345084
 20
467.5058917352161
 10
209.9999999999986
 20
467.35
 10
209.9999999999986
 20
465.85
 10
209.5661823345081
 20
465.6941082647851
 42
0.7032574095513022
  0
LWPOLYLINE
  5
3B34
330
1F
100
AcDbEntity
  8
11_金物(実線)
100
AcDbPolyline
 90
       20
 70
     1
 43
0.0
 10
211.0661823345085
 20
467.694108264785
 42
0.7032574095513022
 10
211.0661823345089
 20
467.5058917352161
 10
211.4999999999991
 20
467.35
 10
211.4999999999991
 20
465.85
 10
211.0661823345085
 20
465.6941082647851
 42
0.7032574095513022
 10
211.0661823345089
 20
465.505891735216
 10
211.4999999999991
 20
465.35
 10
211.5
 20
464.5999999999999
 42
0.9999999999999998
 10
212.5
 20
464.5999999999999
 10
212.5
 20
472.5999999999999
 42
0.9999999999999998
 10
211.5
 20
472.5999999999999
 10
211.4999999999991
 20
471.85
 10
211.0661823345085
 20
471.694108264785
 42
0.7032574095512821
 10
211.0661823345089
 20
471.5058917352149
 10
211.4999999999991
 20
471.35
 10
211.4999999999991
 20
469.85
 10
211.0661823345085
 20
469.6941082647851
 42
0.7032574095513022
 10
211.0661823345089
 20
469.505891735216
 10
211.4999999999991
 20
469.35
 10
211.4999999999991
 20
467.85
  0
LWPOLYLINE
  5
3B35
330
1F
100
AcDbEntity
  8
11_金物(実線)
100
AcDbPolyline
 90
       20
 70
     1
 43
0.0
 10
202.7434630051778
 20
471.5339980384891
 10
201.4684987168082
 20
470.8509814554341
 42
0.4900001422140744
 10
200.499999999999
 20
472.1000000000011
 42
0.1377453283391064
 10
198.6779532448117
 20
471.5883349246557
 42
-0.144849601877578
 10
199.0
 20
470.5
 10
199.0
 20
465.437722339832
 42
0.1111825223776381
 10
200.4999999999987
 20
465.1000000000011
 42
0.4900001422140691
 10
201.4684987168082
 20
466.3490185445681
 10
202.7434630051778
 20
465.666001961512
 42
0.5819309671613745
 10
202.1549884994611
 20
465.2952144799299
 42
-0.2085144140570644
 10
201.9263610300661
 20
464.698039154647
 42
-0.2011553848827721
 10
200.4999999999989
 20
464.1000000000011
 42
-0.1111825223776394
 10
198.571428571429
 20
464.5342144369265
 42
-0.2896898633029127
 10
198.0
 20
465.437722339832
 10
198.0
 20
470.5
 42
0.144849601877582
 10
197.8389766224059
 20
471.0441674623279
 42
-0.4223975299650204
 10
198.1573684576154
 20
472.4421449031285
 42
-0.1377453283391059
 10
200.4999999999989
 20
473.1000000000011
 42
-0.2011553848827726
 10
201.9263610300661
 20
472.501960845355
 42
-0.2085144140570644
 10
202.1549884994611
 20
471.904785520072
 42
0.5819309671615607
  0
LWPOLYLINE
  5
3B36
330
1F
100
AcDbEntity
  8
11_金物(実線)
100
AcDbPolyline
 90
       20
 70
     1
 43
0.0
 10
207.7826218107163
 20
166.3758801908777
 10
209.499999999998
 20
164.75
 10
209.499999999998
 20
156.25
 10
207.7826218107161
 20
154.6241198091223
 42
-0.9532211820509695
 10
207.1292826289453
 20
155.2511702878884
 10
207.9999999999974
 20
156.2500000000011
 10
206.6999999999983
 20
156.25
 10
204.9826218107163
 20
154.6241198091222
 42
-0.9532211820512312
 10
204.3292826289461
 20
155.2511702878883
 10
205.1999999999984
 20
156.25
 10
201.2638892937425
 20
158.358630735496
 42
-0.2764855478606028
 10
201.0
 20
158.7993707205098
 10
201.0000000000002
 20
162.2006292794908
 42
-0.2764855478606874
 10
201.2638892937425
 20
162.641369264506
 10
205.1999999999992
 20
164.75
 10
204.3292826289473
 20
165.7488297121122
 42
-0.9532211820510752
 10
204.9826218107174
 20
166.3758801908778
 10
206.6999999999991
 20
164.75
 10
207.9999999999982
 20
164.7499999999988
 10
207.1292826289459
 20
165.748829712112
 42
-0.9532211820509392
  0
LWPOLYLINE
  5
3B37
330
1F
100
AcDbEntity
  8
11_金物(実線)
100
AcDbPolyline
 90
       12
 70
     1
 43
0.0
 10
207.9999999999982
 20
162.25
 10
207.9999999999982
 20
158.75
 42
-0.4142135623730951
 10
207.4999999999984
 20
158.25
 10
205.8274600580886
 20
158.25
 42
-0.1235756310656023
 10
205.5913493518308
 20
158.309260014986
 10
203.2638892937419
 20
159.556113617534
 42
-0.2764855478606358
 10
203.0
 20
159.996853602548
 10
203.0
 20
161.0031463974531
 42
-0.276485547860652
 10
203.2638892937425
 20
161.4438863824671
 10
205.5913493518306
 20
162.690739985014
 42
-0.1235756310655028
 10
205.8274600580885
 20
162.75
 10
207.4999999999986
 20
162.75
 42
-0.4142135623730951
  0
LWPOLYLINE
  5
3B38
330
1F
100
AcDbEntity
  8
11_金物(実線)
100
AcDbPolyline
 90
       20
 70
     1
 43
0.0
 10
209.5661823345084
 20
157.4058917352161
 10
209.9999999999986
 20
157.25
 10
209.9999999999986
 20
156.5
 42
0.9999999999999998
 10
210.9999999999986
 20
156.5
 10
210.9999999999986
 20
164.5
 42
0.9999999999999998
 10
209.9999999999986
 20
164.5
 10
209.9999999999986
 20
163.75
 10
209.5661823345081
 20
163.5941082647841
 42
0.7032574095512821
 10
209.5661823345084
 20
163.4058917352149
 10
209.9999999999986
 20
163.25
 10
209.9999999999986
 20
161.75
 10
209.5661823345081
 20
161.594108264785
 42
0.7032574095513022
 10
209.5661823345084
 20
161.405891735216
 10
209.9999999999986
 20
161.25
 10
209.9999999999986
 20
159.75
 10
209.5661823345081
 20
159.594108264785
 42
0.7032574095513022
 10
209.5661823345084
 20
159.4058917352161
 10
209.9999999999986
 20
159.25
 10
209.9999999999986
 20
157.75
 10
209.5661823345081
 20
157.594108264785
 42
0.7032574095513022
  0
LWPOLYLINE
  5
3B39
330
1F
100
AcDbEntity
  8
11_金物(実線)
100
AcDbPolyline
 90
       20
 70
     1
 43
0.0
 10
211.0661823345085
 20
159.594108264785
 42
0.7032574095513022
 10
211.0661823345089
 20
159.4058917352161
 10
211.4999999999991
 20
159.25
 10
211.4999999999991
 20
157.75
 10
211.0661823345085
 20
157.594108264785
 42
0.7032574095513022
 10
211.0661823345089
 20
157.4058917352161
 10
211.4999999999991
 20
157.25
 10
211.5
 20
156.5
 42
0.9999999999999998
 10
212.5
 20
156.5
 10
212.5
 20
164.5
 42
0.9999999999999998
 10
211.5
 20
164.5
 10
211.4999999999991
 20
163.75
 10
211.0661823345085
 20
163.594108264785
 42
0.7032574095512821
 10
211.0661823345089
 20
163.4058917352149
 10
211.4999999999991
 20
163.25
 10
211.4999999999991
 20
161.75
 10
211.0661823345085
 20
161.594108264785
 42
0.7032574095513022
 10
211.0661823345089
 20
161.405891735216
 10
211.4999999999991
 20
161.25
 10
211.4999999999991
 20
159.75
  0
LWPOLYLINE
  5
3B3A
330
1F
100
AcDbEntity
  8
11_金物(実線)
100
AcDbPolyline
 90
       20
 70
     1
 43
0.0
 10
202.7434630051778
 20
163.4339980384891
 10
201.4684987168082
 20
162.7509814554341
 42
0.4900001422140829
 10
200.499999999999
 20
164.0000000000011
 42
0.1111825223776301
 10
199.0
 20
163.6622776601698
 10
199.0
 20
161.5
 42
-0.393210806178383
 10
197.1443473837282
 20
159.505215843052
 42
0.3321107569750555
 10
200.4999999999987
 20
157.0000000000011
 42
0.4900001422140777
 10
201.4684987168082
 20
158.2490185445681
 10
202.7434630051778
 20
157.566001961512
 42
0.5819309671614097
 10
202.1549884994611
 20
157.1952144799299
 42
-0.2085144140570616
 10
201.9263610300661
 20
156.598039154647
 42
-0.2011553848827746
 10
200.4999999999989
 20
156.0000000000011
 42
-0.3321107569750528
 10
196.1855894933652
 20
159.2209917982095
 42
-0.4789782292998693
 10
197.0721736918641
 20
160.5026079215259
 42
0.3932108061783836
 10
198.0
 20
161.5
 10
198.0
 20
163.6622776601698
 42
-0.2896898633028471
 10
198.5714285714287
 20
164.5657855630752
 42
-0.1111825223776297
 10
200.4999999999989
 20
165.0000000000011
 42
-0.2011553848827752
 10
201.9263610300661
 20
164.401960845355
 42
-0.2085144140570616
 10
202.1549884994611
 20
163.804785520072
 42
0.5819309671615259
  0
LWPOLYLINE
  5
3B3B
330
1F
100
AcDbEntity
  8
11_金物(実線)
100
AcDbPolyline
 90
       20
 70
     1
 43
0.0
 10
481.1260657521925
 20
243.8903266571314
 10
482.6500000000008
 20
245.5000217956595
 10
491.1500000000008
 20
245.5000217956595
 10
492.6739342478091
 20
243.8903266571311
 42
-0.9532211820509509
 10
492.0370529085059
 20
243.2267444620834
 10
491.1499999999996
 20
244.000021795659
 10
491.1500000000008
 20
242.7000217956599
 10
492.6739342478091
 20
241.0903266571315
 42
-0.9532211820512806
 10
492.0370529085061
 20
240.4267444620842
 10
491.1500000000008
 20
241.2000217956599
 10
489.0413692645047
 20
237.2639110894041
 42
-0.2764855478606028
 10
488.600629279491
 20
237.0000217956616
 10
485.19937072051
 20
237.0000217956619
 42
-0.2764855478606874
 10
484.7586307354948
 20
237.2639110894041
 10
482.6500000000008
 20
241.2000217956607
 10
481.762947091495
 20
240.4267444620853
 42
-0.9532211820511108
 10
481.1260657521924
 20
241.0903266571323
 10
482.6500000000008
 20
242.7000217956607
 10
482.6500000000019
 20
244.0000217956598
 10
481.7629470914953
 20
243.226744462084
 42
-0.9532211820509413
  0
LWPOLYLINE
  5
3B3C
330
1F
100
AcDbEntity
  8
11_金物(実線)
100
AcDbPolyline
 90
       12
 70
     1
 43
0.0
 10
485.1500000000008
 20
244.0000217956598
 10
488.6500000000008
 20
244.0000217956598
 42
-0.4142135623730951
 10
489.1500000000008
 20
243.50002179566
 10
489.1500000000008
 20
241.8274818537502
 42
-0.1235756310656023
 10
489.0907399850148
 20
241.5913711474924
 10
487.8438863824667
 20
239.2639110894034
 42
-0.2764855478606358
 10
487.4031463974527
 20
239.0000217956616
 10
486.3968536025478
 20
239.0000217956616
 42
-0.276485547860652
 10
485.9561136175337
 20
239.2639110894041
 10
484.7092600149868
 20
241.5913711474923
 42
-0.1235756310655028
 10
484.6500000000008
 20
241.8274818537501
 10
484.6500000000008
 20
243.5000217956603
 42
-0.4142135623730951
  0
LWPOLYLINE
  5
3B3D
330
1F
100
AcDbEntity
  8
11_金物(実線)
100
AcDbPolyline
 90
       20
 70
     1
 43
0.0
 10
489.9941082647847
 20
245.56620413017
 10
490.1500000000008
 20
246.0000217956602
 10
490.9000000000008
 20
246.0000217956602
 42
0.9999999999999998
 10
490.9000000000008
 20
247.0000217956602
 10
482.9000000000008
 20
247.0000217956602
 42
0.9999999999999998
 10
482.9000000000008
 20
246.0000217956602
 10
483.6500000000008
 20
246.0000217956602
 10
483.8058917352166
 20
245.5662041301697
 42
0.7032574095512821
 10
483.9941082647858
 20
245.56620413017
 10
484.1500000000008
 20
246.0000217956602
 10
485.6500000000008
 20
246.0000217956602
 10
485.8058917352157
 20
245.5662041301697
 42
0.7032574095513022
 10
485.9941082647847
 20
245.56620413017
 10
486.1500000000008
 20
246.0000217956602
 10
487.6500000000008
 20
246.0000217956602
 10
487.8058917352158
 20
245.5662041301697
 42
0.7032574095513022
 10
487.9941082647847
 20
245.56620413017
 10
488.1500000000008
 20
246.0000217956602
 10
489.6500000000008
 20
246.0000217956602
 10
489.8058917352157
 20
245.5662041301697
 42
0.7032574095513022
  0
LWPOLYLINE
  5
3B3E
330
1F
100
AcDbEntity
  8
11_金物(実線)
100
AcDbPolyline
 90
       20
 70
     1
 43
0.0
 10
487.8058917352158
 20
247.0662041301701
 42
0.7032574095513022
 10
487.9941082647847
 20
247.0662041301705
 10
488.1500000000008
 20
247.5000217956607
 10
489.6500000000008
 20
247.5000217956607
 10
489.8058917352157
 20
247.0662041301701
 42
0.7032574095513022
 10
489.9941082647847
 20
247.0662041301705
 10
490.1500000000008
 20
247.5000217956607
 10
490.9000000000008
 20
247.5000217956616
 42
0.9999999999999998
 10
490.9000000000008
 20
248.5000217956616
 10
482.9000000000008
 20
248.5000217956616
 42
0.9999999999999998
 10
482.9000000000008
 20
247.5000217956616
 10
483.6500000000008
 20
247.5000217956607
 10
483.8058917352157
 20
247.0662041301701
 42
0.7032574095512821
 10
483.9941082647858
 20
247.0662041301705
 10
484.1500000000008
 20
247.5000217956607
 10
485.6500000000008
 20
247.5000217956607
 10
485.8058917352157
 20
247.0662041301701
 42
0.7032574095513022
 10
485.9941082647847
 20
247.0662041301705
 10
486.1500000000008
 20
247.5000217956607
 10
487.6500000000008
 20
247.5000217956607
  0
LWPOLYLINE
  5
3B3F
330
1F
100
AcDbEntity
  8
11_金物(実線)
100
AcDbPolyline
 90
       20
 70
     1
 43
0.0
 10
483.9660019615116
 20
238.7434848008394
 10
484.6490185445667
 20
237.4685205124698
 42
0.4900001422140745
 10
483.3999999999996
 20
236.5000217956606
 42
0.1897326102232847
 10
484.3391258001095
 20
234.114246589918
 42
-0.2499939317921854
 10
486.0000000000008
 20
235.0000217956616
 10
490.0622776601688
 20
235.0000217956616
 42
0.1111825223776397
 10
490.3999999999997
 20
236.5000217956604
 42
0.490000142214069
 10
489.1509814554327
 20
237.4685205124698
 10
489.8339980384887
 20
238.7434848008394
 42
0.5819309671613745
 10
490.2047855200708
 20
238.1550102951227
 42
-0.2085144140570644
 10
490.8019608453537
 20
237.9263828257277
 42
-0.2011553848827721
 10
491.3999999999997
 20
236.5000217956605
 42
-0.1111825223776394
 10
490.9657855630743
 20
234.5714503670906
 42
-0.2896898633029125
 10
490.0622776601688
 20
234.0000217956616
 10
486.0000000000008
 20
234.0000217956616
 42
0.2499939317921894
 10
485.1695629000552
 20
233.5571341927898
 42
-0.4832624973615662
 10
483.6074474572837
 20
233.4325965311344
 42
-0.1897326102232849
 10
482.3999999999997
 20
236.5000217956605
 42
-0.2011553848827726
 10
482.9980391546458
 20
237.9263828257277
 42
-0.2085144140570645
 10
483.5952144799287
 20
238.1550102951227
 42
0.5819309671615605
  0
LWPOLYLINE
  5
3B40
330
1F
100
AcDbEntity
  8
05_枠(一点鎖線)
100
AcDbPolyline
 90
       25
 70
     1
 43
0.0
 10
710.0000000000005
 20
266.0000217956616
 10
710.0000000000005
 20
279.4000217956617
 42
0.4142135623730951
 10
708.4000000000004
 20
281.0000217956616
 10
671.6000000000004
 20
281.0000217956616
 42
0.4142135623730951
 10
670.0000000000005
 20
279.4000217956617
 10
670.0000000000004
 20
238.6000217956615
 42
0.9999999999999998
 10
673.2000000000005
 20
238.6000217956615
 10
673.2000000000005
 20
248.5000217956616
 10
685.0000000000005
 20
248.5000217956616
 10
685.0000000000005
 20
196.6000217956615
 42
0.4142135623730951
 10
686.6000000000004
 20
195.0000217956616
 10
708.4000000000004
 20
195.0000217956616
 42
0.4142135623730951
 10
710.0000000000005
 20
196.6000217956615
 10
710.0000000000005
 20
215.0000217956616
 10
708.4000000000004
 20
215.0000217956616
 10
708.4000000000004
 20
196.6000217956615
 10
686.6000000000004
 20
196.6000217956615
 10
686.6000000000004
 20
248.5000217956616
 42
0.4142135623730951
 10
685.0000000000005
 20
250.1000217956615
 10
673.2000000000005
 20
250.1000217956615
 42
0.4142135623730982
 10
671.6000000000004
 20
248.5000217956616
 10
671.6000000000004
 20
238.6000217956615
 10
671.6000000000004
 20
279.4000217956617
 10
708.4000000000004
 20
279.4000217956617
 10
708.4000000000004
 20
266.0000217956616
  0
LWPOLYLINE
  5
3B41
330
1F
100
AcDbEntity
  8
04_枠(破線)
100
AcDbPolyline
 90
        4
 70
     1
 43
0.0
 10
708.4000000000004
 20
205.0000217956616
 10
708.4000000000004
 20
271.0000217956616
 10
706.1000000000005
 20
271.0000217956616
 10
706.1000000000005
 20
205.0000217956616
  0
LWPOLYLINE
  5
3B46
330
1F
100
AcDbEntity
  8
11_金物(実線)
100
AcDbPolyline
 90
       20
 70
     1
 43
0.0
 10
684.8739342478088
 20
243.8903266571314
 10
683.3500000000006
 20
245.5000217956595
 10
674.8500000000006
 20
245.5000217956595
 10
673.3260657521922
 20
243.8903266571311
 42
0.9532211820509509
 10
673.9629470914954
 20
243.2267444620834
 10
674.8500000000017
 20
244.000021795659
 10
674.8500000000006
 20
242.7000217956599
 10
673.3260657521922
 20
241.0903266571315
 42
0.9532211820512806
 10
673.9629470914953
 20
240.4267444620842
 10
674.8500000000006
 20
241.2000217956599
 10
676.9586307354966
 20
237.2639110894041
 42
0.2764855478606028
 10
677.3993707205104
 20
237.0000217956616
 10
680.8006292794914
 20
237.0000217956619
 42
0.2764855478606874
 10
681.2413692645066
 20
237.2639110894041
 10
683.3500000000006
 20
241.2000217956607
 10
684.2370529085062
 20
240.4267444620853
 42
0.9532211820511108
 10
684.8739342478088
 20
241.0903266571323
 10
683.3500000000006
 20
242.7000217956607
 10
683.3499999999994
 20
244.0000217956598
 10
684.237052908506
 20
243.226744462084
 42
0.9532211820509413
  0
LWPOLYLINE
  5
3B47
330
1F
100
AcDbEntity
  8
11_金物(実線)
100
AcDbPolyline
 90
       12
 70
     1
 43
0.0
 10
680.8500000000005
 20
244.0000217956598
 10
677.3500000000005
 20
244.0000217956598
 42
0.4142135623730951
 10
676.8500000000005
 20
243.50002179566
 10
676.8500000000005
 20
241.8274818537502
 42
0.1235756310656023
 10
676.9092600149865
 20
241.5913711474924
 10
678.1561136175346
 20
239.2639110894034
 42
0.2764855478606358
 10
678.5968536025486
 20
239.0000217956616
 10
679.6031463974536
 20
239.0000217956616
 42
0.276485547860652
 10
680.0438863824677
 20
239.2639110894041
 10
681.2907399850146
 20
241.5913711474923
 42
0.1235756310655028
 10
681.3500000000005
 20
241.8274818537501
 10
681.3500000000005
 20
243.5000217956603
 42
0.4142135623730951
  0
LWPOLYLINE
  5
3B48
330
1F
100
AcDbEntity
  8
11_金物(実線)
100
AcDbPolyline
 90
       20
 70
     1
 43
0.0
 10
676.0058917352166
 20
245.56620413017
 10
675.8500000000005
 20
246.0000217956602
 10
675.1000000000005
 20
246.0000217956602
 42
-0.9999999999999998
 10
675.1000000000005
 20
247.0000217956602
 10
683.1000000000005
 20
247.0000217956602
 42
-0.9999999999999998
 10
683.1000000000005
 20
246.0000217956602
 10
682.3500000000006
 20
246.0000217956602
 10
682.1941082647847
 20
245.5662041301697
 42
-0.7032574095512821
 10
682.0058917352155
 20
245.56620413017
 10
681.8500000000006
 20
246.0000217956602
 10
680.3500000000005
 20
246.0000217956602
 10
680.1941082647856
 20
245.5662041301697
 42
-0.7032574095513022
 10
680.0058917352166
 20
245.56620413017
 10
679.8500000000005
 20
246.0000217956602
 10
678.3500000000006
 20
246.0000217956602
 10
678.1941082647856
 20
245.5662041301697
 42
-0.7032574095513022
 10
678.0058917352167
 20
245.56620413017
 10
677.8500000000006
 20
246.0000217956602
 10
676.3500000000005
 20
246.0000217956602
 10
676.1941082647856
 20
245.5662041301697
 42
-0.7032574095513022
  0
LWPOLYLINE
  5
3B49
330
1F
100
AcDbEntity
  8
11_金物(実線)
100
AcDbPolyline
 90
       20
 70
     1
 43
0.0
 10
678.1941082647856
 20
247.0662041301701
 42
-0.7032574095513022
 10
678.0058917352167
 20
247.0662041301705
 10
677.8500000000006
 20
247.5000217956607
 10
676.3500000000005
 20
247.5000217956607
 10
676.1941082647856
 20
247.0662041301701
 42
-0.7032574095513022
 10
676.0058917352166
 20
247.0662041301705
 10
675.8500000000005
 20
247.5000217956607
 10
675.1000000000005
 20
247.5000217956616
 42
-0.9999999999999998
 10
675.1000000000005
 20
248.5000217956616
 10
683.1000000000005
 20
248.5000217956616
 42
-0.9999999999999998
 10
683.1000000000005
 20
247.5000217956616
 10
682.3500000000006
 20
247.5000217956607
 10
682.1941082647856
 20
247.0662041301701
 42
-0.7032574095512821
 10
682.0058917352155
 20
247.0662041301705
 10
681.8500000000006
 20
247.5000217956607
 10
680.3500000000005
 20
247.5000217956607
 10
680.1941082647856
 20
247.0662041301701
 42
-0.7032574095513022
 10
680.0058917352166
 20
247.0662041301705
 10
679.8500000000005
 20
247.5000217956607
 10
678.3500000000006
 20
247.5000217956607
  0
LWPOLYLINE
  5
3B4A
330
1F
100
AcDbEntity
  8
11_金物(実線)
100
AcDbPolyline
 90
       20
 70
     1
 43
0.0
 10
682.0339980384897
 20
238.7434848008394
 10
681.3509814554347
 20
237.4685205124698
 42
-0.4900001422140745
 10
682.6000000000017
 20
236.5000217956606
 42
-0.1897326102232847
 10
681.6608741998918
 20
234.114246589918
 42
0.2499939317921854
 10
680.0000000000006
 20
235.0000217956616
 10
675.9377223398324
 20
235.0000217956616
 42
-0.1111825223776397
 10
675.6000000000017
 20
236.5000217956604
 42
-0.490000142214069
 10
676.8490185445687
 20
237.4685205124698
 10
676.1660019615126
 20
238.7434848008394
 42
-0.5819309671613745
 10
675.7952144799305
 20
238.1550102951227
 42
0.2085144140570644
 10
675.1980391546476
 20
237.9263828257277
 42
0.2011553848827721
 10
674.6000000000017
 20
236.5000217956605
 42
0.1111825223776394
 10
675.0342144369271
 20
234.5714503670906
 42
0.2896898633029125
 10
675.9377223398326
 20
234.0000217956616
 10
680.0000000000006
 20
234.0000217956616
 42
-0.2499939317921894
 10
680.8304370999461
 20
233.5571341927898
 42
0.4832624973615662
 10
682.3925525427175
 20
233.4325965311344
 42
0.1897326102232849
 10
683.6000000000017
 20
236.5000217956605
 42
0.2011553848827726
 10
683.0019608453556
 20
237.9263828257277
 42
0.2085144140570645
 10
682.4047855200726
 20
238.1550102951227
 42
-0.5819309671615605
  0
LINE
  5
3F9E
330
1F
100
AcDbEntity
  8
07_扉(実線)
100
AcDbLine
 10
162.0
 20
469.8999999999999
 30
0.0
 11
162.0
 21
306.5000000000001
 31
0.0
  0
LINE
  5
3F9F
330
1F
100
AcDbEntity
  8
07_扉(実線)
100
AcDbLine
 10
198.0
 20
469.8999999999999
 30
0.0
 11
198.0
 21
306.5000000000001
 31
0.0
  0
LINE
  5
3FA0
330
1F
100
AcDbEntity
  8
07_扉(実線)
100
AcDbLine
 10
162.6
 20
470.5
 30
0.0
 11
179.5
 21
470.4999999999999
 31
0.0
  0
ARC
  5
3FA2
330
1F
100
AcDbEntity
  8
07_扉(実線)
100
AcDbCircle
 10
162.6
 20
469.8999999999999
 30
0.0
 40
0.6
100
AcDbArc
 50
90.0
 51
180.0
  0
ARC
  5
3FA3
330
1F
100
AcDbEntity
  8
07_扉(実線)
100
AcDbCircle
 10
197.4
 20
469.8999999999999
 30
0.0
 40
0.6
100
AcDbArc
 50
0.0
 51
90.0
  0
LINE
  5
4081
330
1F
100
AcDbEntity
  8
07_扉(実線)
100
AcDbLine
 10
162.6
 20
469.8999999999999
 30
0.0
 11
197.4000000000001
 21
469.9
 31
0.0
  0
LINE
  5
4082
330
1F
100
AcDbEntity
  8
07_扉(実線)
100
AcDbLine
 10
197.4
 20
469.9
 30
0.0
 11
197.3999999999997
 21
306.5000000000001
 31
0.0
  0
LINE
  5
4083
330
1F
100
AcDbEntity
  8
07_扉(実線)
100
AcDbLine
 10
162.6
 20
469.9
 30
0.0
 11
162.6
 21
306.5000000000001
 31
0.0
  0
LINE
  5
4085
330
1F
100
AcDbEntity
  8
07_扉(実線)
100
AcDbLine
 10
162.6
 20
454.8999999999999
 30
0.0
 11
197.4
 21
454.8999999999999
 31
0.0
  0
LINE
  5
4086
330
1F
100
AcDbEntity
  8
07_扉(実線)
100
AcDbLine
 10
163.8
 20
468.7
 30
0.0
 11
196.2
 21
468.7
 31
0.0
  0
LINE
  5
4087
330
1F
100
AcDbEntity
  8
07_扉(実線)
100
AcDbLine
 10
163.8
 20
468.6999999999999
 30
0.0
 11
163.8
 21
454.8999999999999
 31
0.0
  0
LINE
  5
4088
330
1F
100
AcDbEntity
  8
07_扉(実線)
100
AcDbLine
 10
196.2
 20
468.6999999999999
 30
0.0
 11
196.2
 21
454.8999999999999
 31
0.0
  0
ARC
  5
4151
330
1F
100
AcDbEntity
  8
07_扉(実線)
100
AcDbCircle
 10
163.8
 20
468.7
 30
0.0
 40
1.199999999999999
100
AcDbArc
 50
90.0
 51
180.0
  0
ARC
  5
4152
330
1F
100
AcDbEntity
  8
07_扉(実線)
100
AcDbCircle
 10
196.2
 20
468.7
 30
0.0
 40
1.199999999999999
100
AcDbArc
 50
0.0
 51
90.0
  0
LINE
  5
4154
330
1F
100
AcDbEntity
  8
07_扉(実線)
100
AcDbLine
 10
179.5
 20
470.4999999999999
 30
0.0
 11
179.5
 21
469.8999999999999
 31
0.0
  0
LINE
  5
4155
330
1F
100
AcDbEntity
  8
07_扉(実線)
100
AcDbLine
 10
180.5
 20
470.4999999999999
 30
0.0
 11
180.5000000000001
 21
469.8999999999999
 31
0.0
  0
LINE
  5
4156
330
1F
100
AcDbEntity
  8
07_扉(実線)
100
AcDbLine
 10
180.5
 20
470.4999999999999
 30
0.0
 11
197.4
 21
470.5
 31
0.0
  0
LINE
  5
4160
330
1F
100
AcDbEntity
  8
07_扉(実線)
100
AcDbLine
 10
162.6
 20
437.3999999999999
 30
0.0
 11
197.4
 21
437.3999999999999
 31
0.0
  0
LINE
  5
4161
330
1F
100
AcDbEntity
  8
07_扉(実線)
100
AcDbLine
 10
162.6
 20
419.8999999999999
 30
0.0
 11
197.4
 21
419.8999999999999
 31
0.0
  0
LINE
  5
4162
330
1F
100
AcDbEntity
  8
07_扉(実線)
100
AcDbLine
 10
162.6
 20
402.4
 30
0.0
 11
197.4
 21
402.4
 31
0.0
  0
LINE
  5
4163
330
1F
100
AcDbEntity
  8
07_扉(実線)
100
AcDbLine
 10
162.6
 20
384.9
 30
0.0
 11
197.4
 21
384.9
 31
0.0
  0
LINE
  5
4164
330
1F
100
AcDbEntity
  8
07_扉(実線)
100
AcDbLine
 10
162.6
 20
367.4
 30
0.0
 11
197.4
 21
367.4
 31
0.0
  0
LINE
  5
4165
330
1F
100
AcDbEntity
  8
07_扉(実線)
100
AcDbLine
 10
162.6
 20
349.9
 30
0.0
 11
197.4
 21
349.9
 31
0.0
  0
LINE
  5
4166
330
1F
100
AcDbEntity
  8
07_扉(実線)
100
AcDbLine
 10
162.6
 20
332.4
 30
0.0
 11
197.4
 21
332.4
 31
0.0
  0
LINE
  5
4167
330
1F
100
AcDbEntity
  8
07_扉(実線)
100
AcDbLine
 10
162.0
 20
161.1
 30
0.0
 11
162.0
 21
304.5000000000001
 31
0.0
  0
LINE
  5
4168
330
1F
100
AcDbEntity
  8
07_扉(実線)
100
AcDbLine
 10
162.6
 20
161.0999999999999
 30
0.0
 11
162.6
 21
304.5000000000001
 31
0.0
  0
LINE
  5
4169
330
1F
100
AcDbEntity
  8
07_扉(実線)
100
AcDbLine
 10
198.0
 20
161.1
 30
0.0
 11
198.0
 21
304.5000000000001
 31
0.0
  0
LINE
  5
416A
330
1F
100
AcDbEntity
  8
07_扉(実線)
100
AcDbLine
 10
197.4
 20
161.0999999999999
 30
0.0
 11
197.3999999999998
 21
304.5000000000001
 31
0.0
  0
LINE
  5
416B
330
1F
100
AcDbEntity
  8
07_扉(実線)
100
AcDbLine
 10
162.6
 20
211.1
 30
0.0
 11
197.4
 21
211.1
 31
0.0
  0
LINE
  5
416C
330
1F
100
AcDbEntity
  8
07_扉(実線)
100
AcDbLine
 10
162.6
 20
228.6
 30
0.0
 11
197.4
 21
228.6
 31
0.0
  0
LINE
  5
416D
330
1F
100
AcDbEntity
  8
07_扉(実線)
100
AcDbLine
 10
158.6
 20
246.1
 30
0.0
 11
197.4
 21
246.1
 31
0.0
  0
LINE
  5
416E
330
1F
100
AcDbEntity
  8
07_扉(実線)
100
AcDbLine
 10
162.6
 20
263.6
 30
0.0
 11
197.4
 21
263.6
 31
0.0
  0
LINE
  5
416F
330
1F
100
AcDbEntity
  8
07_扉(実線)
100
AcDbLine
 10
162.6
 20
281.1
 30
0.0
 11
197.4
 21
281.1
 31
0.0
  0
LINE
  5
4170
330
1F
100
AcDbEntity
  8
07_扉(実線)
100
AcDbLine
 10
162.6
 20
298.6
 30
0.0
 11
197.4
 21
298.6
 31
0.0
  0
ARC
  5
4171
330
1F
100
AcDbEntity
  8
07_扉(実線)
100
AcDbCircle
 10
163.8
 20
162.3
 30
0.0
 40
1.199999999999999
100
AcDbArc
 50
180.0
 51
270.0
  0
LINE
  5
4172
330
1F
100
AcDbEntity
  8
07_扉(実線)
100
AcDbLine
 10
163.8
 20
162.3
 30
0.0
 11
163.8
 21
176.1
 31
0.0
  0
ARC
  5
4173
330
1F
100
AcDbEntity
  8
07_扉(実線)
100
AcDbCircle
 10
162.6
 20
161.1
 30
0.0
 40
0.6
100
AcDbArc
 50
180.0
 51
270.0
  0
ARC
  5
4174
330
1F
100
AcDbEntity
  8
07_扉(実線)
100
AcDbCircle
 10
196.2
 20
162.3
 30
0.0
 40
1.199999999999999
100
AcDbArc
 50
270.0
 51
0.0
  0
LINE
  5
4175
330
1F
100
AcDbEntity
  8
07_扉(実線)
100
AcDbLine
 10
196.2
 20
162.3
 30
0.0
 11
196.2
 21
176.1
 31
0.0
  0
ARC
  5
4176
330
1F
100
AcDbEntity
  8
07_扉(実線)
100
AcDbCircle
 10
197.4
 20
161.1
 30
0.0
 40
0.6
100
AcDbArc
 50
270.0
 51
0.0
  0
LINE
  5
4177
330
1F
100
AcDbEntity
  8
07_扉(実線)
100
AcDbLine
 10
162.6
 20
160.5
 30
0.0
 11
179.5
 21
160.5
 31
0.0
  0
LINE
  5
4178
330
1F
100
AcDbEntity
  8
07_扉(実線)
100
AcDbLine
 10
180.5
 20
160.5
 30
0.0
 11
197.4
 21
160.5
 31
0.0
  0
LINE
  5
4179
330
1F
100
AcDbEntity
  8
07_扉(実線)
100
AcDbLine
 10
162.6
 20
161.1
 30
0.0
 11
197.4000000000001
 21
161.0999999999999
 31
0.0
  0
LINE
  5
417A
330
1F
100
AcDbEntity
  8
07_扉(実線)
100
AcDbLine
 10
163.8
 20
162.3
 30
0.0
 11
196.2
 21
162.2999999999999
 31
0.0
  0
LINE
  5
417B
330
1F
100
AcDbEntity
  8
07_扉(実線)
100
AcDbLine
 10
162.6
 20
176.1
 30
0.0
 11
197.4
 21
176.1
 31
0.0
  0
LINE
  5
417C
330
1F
100
AcDbEntity
  8
07_扉(実線)
100
AcDbLine
 10
179.5
 20
160.5
 30
0.0
 11
179.5
 21
161.1
 31
0.0
  0
LINE
  5
417D
330
1F
100
AcDbEntity
  8
07_扉(実線)
100
AcDbLine
 10
180.5
 20
160.5
 30
0.0
 11
180.5000000000001
 21
161.1
 31
0.0
  0
LINE
  5
417E
330
1F
100
AcDbEntity
  8
07_扉(実線)
100
AcDbLine
 10
162.6
 20
193.6
 30
0.0
 11
197.4
 21
193.6
 31
0.0
  0
LINE
  5
417F
330
1F
100
AcDbEntity
  8
07_扉(実線)
100
AcDbLine
 10
162.6
 20
211.1
 30
0.0
 11
197.4
 21
211.1
 31
0.0
  0
LINE
  5
4180
330
1F
100
AcDbEntity
  8
07_扉(実線)
100
AcDbLine
 10
162.6
 20
228.6
 30
0.0
 11
197.4
 21
228.6
 31
0.0
  0
LINE
  5
41AD
330
1F
100
AcDbEntity
  8
07_扉(実線)
100
AcDbLine
 10
162.6
 20
314.9
 30
0.0
 11
197.4
 21
314.9
 31
0.0
  0
LINE
  5
42B5
330
1F
100
AcDbEntity
  8
07_扉(実線)
100
AcDbLine
 10
504.5000000000007
 20
233.4000217956613
 30
0.0
 11
504.5000000000007
 21
198.600021795662
 31
0.0
  0
LINE
  5
42B8
330
1F
100
AcDbEntity
  8
07_扉(実線)
100
AcDbLine
 10
489.5000000000005
 20
216.0000217956616
 30
0.0
 11
485.6000000000009
 21
216.0000217956616
 31
0.0
  0
LINE
  5
42D9
330
1F
100
AcDbEntity
  8
07_扉(実線)
100
AcDbLine
 10
660.5000000000006
 20
198.6000217956619
 30
0.0
 11
660.5000000000006
 21
233.4000217956611
 31
0.0
  0
CIRCLE
  5
4422
330
1F
100
AcDbEntity
  8
11_金物(実線)
  6
ByBlock
100
AcDbCircle
 10
682.9999934016053
 20
182.0000333428531
 30
0.0
 40
9.000000309299778
  0
LINE
  5
4425
330
1F
100
AcDbEntity
  8
13_金物(一点鎖線)
100
AcDbLine
 10
687.5000082479947
 20
208.0000325180539
 30
0.0
 11
677.5000000000005
 21
208.0000325180539
 31
0.0
  0
LINE
  5
4426
330
1F
100
AcDbEntity
  8
13_金物(一点鎖線)
100
AcDbLine
 10
682.9999934016053
 20
194.0000333428531
 30
0.0
 11
682.9999934016053
 21
170.0000333428531
 31
0.0
  0
LINE
  5
4427
330
1F
100
AcDbEntity
  8
12_金物(破線)
100
AcDbLine
 10
681.9999901024076
 20
232.0000498388413
 30
0.0
 11
681.9999901024076
 21
190.9861321736176
 31
0.0
  0
LINE
  5
4428
330
1F
100
AcDbEntity
  8
11_金物(実線)
100
AcDbLine
 10
683.999996700803
 20
232.0000498388413
 30
0.0
 11
683.999996700803
 21
190.944305195217
 31
0.0
  0
LINE
  5
442B
330
1F
100
AcDbEntity
  8
12_金物(破線)
100
AcDbLine
 10
681.9999653584256
 20
229.250053138039
 30
0.0
 11
684.1999775654569
 21
226.7500448900449
 31
0.0
  0
LINE
  5
4433
330
1F
100
AcDbEntity
  8
12_金物(破線)
100
AcDbLine
 10
681.9999653584256
 20
202.7500399412485
 30
0.0
 11
684.1999775654569
 21
205.2500234452603
 31
0.0
  0
LINE
  5
4436
330
1F
100
AcDbEntity
  8
12_金物(破線)
100
AcDbLine
 10
684.1999775654569
 20
210.7500415908474
 30
0.0
 11
685.0000000000005
 21
210.7500415908474
 31
0.0
  0
LINE
  5
4438
330
1F
100
AcDbEntity
  8
12_金物(破線)
100
AcDbLine
 10
683.999996700803
 20
229.2500283940567
 30
0.0
 11
681.8000092377539
 21
226.7500201460627
 31
0.0
  0
LINE
  5
443A
330
1F
100
AcDbEntity
  8
12_金物(破線)
100
AcDbLine
 10
683.999996700803
 20
218.7500184964638
 30
0.0
 11
681.8000092377539
 21
221.2500267444578
 31
0.0
  0
LINE
  5
4442
330
1F
100
AcDbEntity
  8
12_金物(破線)
100
AcDbLine
 10
683.999996700803
 20
213.2500250948591
 30
0.0
 11
681.8000092377539
 21
210.7500168468651
 31
0.0
  0
LINE
  5
4444
330
1F
100
AcDbEntity
  8
12_金物(破線)
100
AcDbLine
 10
683.999996700803
 20
202.7500151972662
 30
0.0
 11
681.8000092377539
 21
205.2500234452603
 31
0.0
  0
LINE
  5
4447
330
1F
100
AcDbEntity
  8
13_金物(一点鎖線)
100
AcDbLine
 10
670.9999934016053
 20
182.0000333428531
 30
0.0
 11
694.9999934016053
 21
182.0000333428531
 31
0.0
  0
LINE
  5
4461
330
1F
100
AcDbEntity
  8
13_金物(一点鎖線)
100
AcDbLine
 10
687.5000082479947
 20
224.0000110732692
 30
0.0
 11
677.5000000000005
 21
224.0000110732692
 31
0.0
  0
LINE
  5
4463
330
1F
100
AcDbEntity
  8
12_金物(破線)
100
AcDbLine
 10
681.9999653584256
 20
218.7500184964638
 30
0.0
 11
684.1999775654569
 21
221.2500020004756
 31
0.0
  0
LINE
  5
44D8
330
1F
100
AcDbEntity
  8
07_扉(実線)
100
AcDbLine
 10
643.0000000000006
 20
198.6000217956619
 30
0.0
 11
643.0000000000006
 21
233.4000217956611
 31
0.0
  0
LINE
  5
44D9
330
1F
100
AcDbEntity
  8
07_扉(実線)
100
AcDbLine
 10
625.5000000000006
 20
198.6000217956619
 30
0.0
 11
625.5000000000006
 21
233.4000217956611
 31
0.0
  0
LINE
  5
44DA
330
1F
100
AcDbEntity
  8
07_扉(実線)
100
AcDbLine
 10
608.0000000000007
 20
198.6000217956619
 30
0.0
 11
608.0000000000007
 21
233.4000217956611
 31
0.0
  0
LINE
  5
44DB
330
1F
100
AcDbEntity
  8
07_扉(実線)
100
AcDbLine
 10
590.5000000000007
 20
198.6000217956619
 30
0.0
 11
590.5000000000007
 21
233.4000217956611
 31
0.0
  0
LWPOLYLINE
  5
44DE
330
1F
100
AcDbEntity
  8
07_扉(実線)
100
AcDbPolyline
 90
        4
 70
     0
 43
0.0
 10
584.0000000000006
 20
198.6000217956616
 10
680.4000000000002
 20
198.6000217956619
 10
680.4000000000002
 20
215.4003260783327
 10
675.5000000000006
 20
215.4003260783327
  0
LWPOLYLINE
  5
44DF
330
1F
100
AcDbEntity
  8
07_扉(実線)
100
AcDbPolyline
 90
        4
 70
     0
 43
0.0
 10
584.0000000000006
 20
233.4000217956616
 10
680.4000000000002
 20
233.4000217956611
 10
680.4000000000002
 20
216.5997175129903
 10
675.5000000000006
 20
216.5997175129906
  0
LWPOLYLINE
  5
44E0
330
1F
100
AcDbEntity
  8
07_扉(実線)
100
AcDbPolyline
 90
        6
 70
     0
 43
0.0
 10
675.5000000000006
 20
216.0000217956615
 10
680.4000000000002
 20
216.0000217956615
 42
0.4142135623730675
 10
681.0000000000002
 20
216.6000217956617
 10
681.0000000000006
 20
233.4000217956611
 42
0.4142135623731367
 10
680.4000000000002
 20
234.0000217956612
 10
584.0000000000006
 20
234.0000217956617
  0
LWPOLYLINE
  5
44E1
330
1F
100
AcDbEntity
  8
07_扉(実線)
100
AcDbPolyline
 90
        4
 70
     0
 43
0.0
 10
660.5000000000006
 20
199.8000217956614
 10
674.3000000000003
 20
199.8000217956614
 10
674.3000000000009
 20
232.2000217956616
 10
660.5000000000006
 20
232.2000217956616
  0
LWPOLYLINE
  5
44E2
330
1F
100
AcDbEntity
  8
07_扉(実線)
100
AcDbPolyline
 90
        4
 70
     0
 43
0.0
 10
674.3000000000003
 20
198.6000217956615
 42
0.4142135623730883
 10
675.5000000000006
 20
199.8000217956614
 10
675.5000000000004
 20
232.2000217956616
 42
0.414213562373088
 10
674.3000000000003
 20
233.4000217956616
  0
LWPOLYLINE
  5
44E3
330
1F
100
AcDbEntity
  8
07_扉(実線)
100
AcDbPolyline
 90
        5
 70
     0
 43
0.0
 10
584.0000000000006
 20
198.0000217956616
 10
680.4000000000002
 20
198.0000217956615
 42
0.4142135623730538
 10
681.0000000000003
 20
198.6000217956619
 10
681.0000000000005
 20
215.4000217956616
 42
0.4142135623731229
 10
680.4000000000002
 20
216.0000217956616
  0
LWPOLYLINE
  5
44E4
330
1F
100
AcDbEntity
  8
07_扉(実線)
100
AcDbPolyline
 90
        4
 70
     0
 43
0.0
 10
489.5000000000005
 20
215.4000217956616
 10
485.6000000000006
 20
215.4000217956616
 10
485.6000000000007
 20
198.6000217956616
 10
582.0000000000005
 20
198.6000217956616
  0
LWPOLYLINE
  5
44E5
330
1F
100
AcDbEntity
  8
07_扉(実線)
100
AcDbPolyline
 90
        4
 70
     0
 43
0.0
 10
582.0000000000006
 20
233.4000217956616
 10
485.6000000000006
 20
233.4000217956616
 10
485.6000000000006
 20
216.6000217956617
 10
489.5000000000005
 20
216.6000217956617
  0
LWPOLYLINE
  5
44E6
330
1F
100
AcDbEntity
  8
07_扉(実線)
100
AcDbPolyline
 90
        9
 70
     0
 43
0.0
 10
582.0000000000006
 20
234.0000217956616
 10
485.6000000000006
 20
234.0000217956617
 42
0.414213562373095
 10
485.0000000000006
 20
233.4000217956613
 10
485.0000000000007
 20
216.6000217956617
 42
0.4142135623730948
 10
485.6000000000009
 20
216.0000217956617
 42
0.4142135623730951
 10
485.0000000000007
 20
215.4000217956616
 10
485.0000000000006
 20
198.600021795662
 42
0.4142135623730951
 10
485.6000000000006
 20
198.0000217956616
 10
582.0000000000006
 20
198.0000217956616
  0
LWPOLYLINE
  5
44E7
330
1F
100
AcDbEntity
  8
07_扉(実線)
100
AcDbPolyline
 90
        4
 70
     0
 43
0.0
 10
490.700000000001
 20
233.4000217956617
 42
0.4142135623730812
 10
489.5000000000005
 20
232.2000217956617
 10
489.5000000000005
 20
199.8000217956615
 42
0.4142135623730951
 10
490.7000000000006
 20
198.6000217956615
  0
LWPOLYLINE
  5
44E8
330
1F
100
AcDbEntity
  8
07_扉(実線)
100
AcDbPolyline
 90
        4
 70
     0
 43
0.0
 10
504.5000000000007
 20
232.2000217956616
 10
490.7000000000006
 20
232.2000217956617
 10
490.7000000000006
 20
199.8000217956615
 10
504.5000000000007
 20
199.8000217956615
  0
LWPOLYLINE
  5
44F9
330
1F
100
AcDbEntity
  8
12_金物(破線)
100
AcDbPolyline
 90
        4
 70
     0
 43
0.0
 10
685.0000000000005
 20
221.2500267444578
 10
684.1999775654569
 20
221.2500267444578
 10
684.1999775654569
 20
226.7500448900449
 10
685.0000000000005
 20
226.7500448900449
  0
LWPOLYLINE
  5
44FA
330
1F
100
AcDbEntity
  8
12_金物(破線)
100
AcDbPolyline
 90
        4
 70
     0
 43
0.0
 10
680.9999868032101
 20
226.7500201460627
 10
681.8000092377539
 20
226.7500201460627
 10
681.8000092377539
 20
221.2500267444578
 10
680.9999868032101
 20
221.2500267444578
  0
LWPOLYLINE
  5
44FB
330
1F
100
AcDbEntity
  8
12_金物(破線)
100
AcDbPolyline
 90
        4
 70
     0
 43
0.0
 10
680.9999868032101
 20
210.7500168468651
 10
681.8000092377539
 20
210.7500168468651
 10
681.8000092377539
 20
205.2500234452603
 10
680.9999868032101
 20
205.2500234452603
  0
LWPOLYLINE
  5
44FC
330
1F
100
AcDbEntity
  8
11_金物(実線)
  6
ByBlock
100
AcDbPolyline
 90
        4
 70
     0
 43
0.0
 10
685.0000000000005
 20
190.7749965435607
 10
685.0000000000005
 20
232.0000498388413
 10
680.9999868032101
 20
232.0000498388413
 10
680.9999868032101
 20
190.7749965435607
  0
LWPOLYLINE
  5
44FD
330
1F
100
AcDbEntity
  8
12_金物(破線)
100
AcDbPolyline
 90
        4
 70
     0
 43
0.0
 10
681.9999653584256
 20
213.2500250948591
 10
684.1999775654569
 20
210.7500415908474
 10
684.1999775654569
 20
205.2500234452603
 10
685.0000000000005
 20
205.2500234452603
  0
LINE
  5
4500
330
1F
100
AcDbEntity
  8
05_枠(一点鎖線)
100
AcDbLine
 10
584.0000000000006
 20
278.0000217956616
 30
0.0
 11
670.0000000000005
 21
278.0000217956616
 31
0.0
  0
LINE
  5
4501
330
1F
100
AcDbEntity
  8
05_枠(一点鎖線)
100
AcDbLine
 10
584.0000000000006
 20
237.0000217956617
 30
0.0
 11
671.6000000000004
 21
237.0000217956616
 31
0.0
  0
LINE
  5
4503
330
1F
100
AcDbEntity
  8
03_枠(実線)
100
AcDbLine
 10
481.0000000000008
 20
198.0000540734747
 30
0.0
 11
485.593776469342
 21
198.0000540734747
 31
0.0
  0
LINE
  5
4B92
330
1F
100
AcDbEntity
  8
03_枠(実線)
100
AcDbLine
 10
159.0
 20
144.6893398282201
 30
0.0
 11
160.5
 21
146.1893398282201
 31
0.0
  0
LINE
  5
4B93
330
1F
100
AcDbEntity
  8
03_枠(実線)
100
AcDbLine
 10
159.0
 20
146.8106601717798
 30
0.0
 11
160.5
 21
148.3106601717798
 31
0.0
  0
LINE
  5
4BA8
330
1F
100
AcDbEntity
  8
03_枠(実線)
100
AcDbLine
 10
171.8106601717798
 20
139.5
 30
0.0
 11
173.3106601717798
 21
141.0
 31
0.0
  0
LINE
  5
4BA9
330
1F
100
AcDbEntity
  8
03_枠(実線)
100
AcDbLine
 10
169.6893398282201
 20
139.5
 30
0.0
 11
171.1893398282201
 21
141.0
 31
0.0
  0
DIMENSION
  5
4C42
330
1F
100
AcDbEntity
  8
19_寸法線・引出線
100
AcDbDimension
280
     0
  2
*D24
 10
545.9999999999994
 20
237.0000217956616
 30
0.0
 11
542.4999999999994
 21
259.0000217956617
 31
0.0
 70
    32
  1
　
 71
     5
 42
44.0
 73
     0
 74
     0
 75
     0
  3
寸法(1-1)
100
AcDbAlignedDimension
 13
496.0000000000007
 23
281.0000217956616
 33
0.0
 14
546.0000000000007
 24
237.0000217956616
 34
0.0
 50
90.0
100
AcDbRotatedDimension
  0
DIMENSION
  5
4C44
330
1F
100
AcDbEntity
  8
19_寸法線・引出線
100
AcDbDimension
280
     0
  2
*D25
 10
545.9999999999971
 20
195.0000217956616
 30
0.0
 11
542.4999999999971
 21
216.0000217956617
 31
0.0
 70
    32
  1
<>（46）
 71
     5
 42
42.0
 73
     0
 74
     0
 75
     0
  3
寸法(1-1)
100
AcDbAlignedDimension
 13
545.9999999999994
 23
237.0000217956616
 33
0.0
 14
546.0000000000007
 24
195.0000217956616
 34
0.0
 50
90.0
100
AcDbRotatedDimension
  0
DIMENSION
  5
4D08
330
1F
100
AcDbEntity
  8
19_寸法線・引出線
100
AcDbDimension
280
     0
  2
*D26
 10
535.9999999999976
 20
198.0000217956616
 30
0.0
 11
532.4999999999976
 21
216.0000217956617
 31
0.0
 70
    32
  1
<>（40）
 71
     5
 42
36.0
 73
     0
 74
     0
 75
     0
  3
寸法(1-1)
100
AcDbAlignedDimension
 13
535.9999999999998
 23
234.0000217956616
 33
0.0
 14
535.9999999999998
 24
198.0000217956616
 34
0.0
 50
90.0
100
AcDbRotatedDimension
  0
DIMENSION
  5
4D09
330
1F
100
AcDbEntity
  8
19_寸法線・引出線
100
AcDbDimension
280
     0
  2
*D27
 10
535.9999999999973
 20
234.0000217956616
 30
0.0
 11
532.4999999999962
 21
240.5342082345426
 31
0.0
 70
   160
 71
     5
 42
3.0
 73
     0
 74
     0
 75
     0
  3
寸法(1-1)
100
AcDbAlignedDimension
 13
535.9999999999953
 23
237.0000217956616
 33
0.0
 14
535.9999999999953
 24
234.0000217956616
 34
0.0
 50
90.0
100
AcDbRotatedDimension
1001
ACAD
1000
DSTYLE
1002
{
1070
   279
1070
     2
1002
}
  0
DIMENSION
  5
4D0A
330
1F
100
AcDbEntity
  8
19_寸法線・引出線
100
AcDbDimension
280
     0
  2
*D28
 10
535.9999999999983
 20
195.0000217956616
 30
0.0
 11
532.4999999999971
 21
191.4066775583553
 31
0.0
 70
   160
 71
     5
 42
3.0
 73
     0
 74
     0
 75
     0
  3
寸法(1-1)
100
AcDbAlignedDimension
 13
535.9999999999953
 23
198.0000217956616
 33
0.0
 14
481.0000000000009
 24
195.0000217956616
 34
0.0
 50
90.0
100
AcDbRotatedDimension
1001
ACAD
1000
DSTYLE
1002
{
1070
   279
1070
     2
1002
}
  0
LINE
  5
4E4E
330
1F
100
AcDbEntity
  8
07_扉(実線)
100
AcDbLine
 10
522.0000000000007
 20
233.4000217956613
 30
0.0
 11
522.0000000000007
 21
198.600021795662
 31
0.0
  0
LINE
  5
4E4F
330
1F
100
AcDbEntity
  8
07_扉(実線)
100
AcDbLine
 10
539.5000000000008
 20
233.4000217956613
 30
0.0
 11
539.5000000000008
 21
198.600021795662
 31
0.0
  0
LINE
  5
4E50
330
1F
100
AcDbEntity
  8
07_扉(実線)
100
AcDbLine
 10
557.0000000000008
 20
233.4000217956613
 30
0.0
 11
557.0000000000008
 21
198.600021795662
 31
0.0
  0
LINE
  5
4E51
330
1F
100
AcDbEntity
  8
07_扉(実線)
100
AcDbLine
 10
574.5000000000008
 20
233.4000217956613
 30
0.0
 11
574.5000000000008
 21
198.600021795662
 31
0.0
  0
LINE
  5
4E62
330
1F
100
AcDbEntity
  8
03_枠(実線)
100
AcDbLine
 10
235.1893398282201
 20
168.0
 30
0.0
 11
236.6893398282202
 21
169.5
 31
0.0
  0
LINE
  5
4E63
330
1F
100
AcDbEntity
  8
03_枠(実線)
100
AcDbLine
 10
237.3106601717798
 20
168.0
 30
0.0
 11
238.4617568970616
 21
169.1510967252817
 31
0.0
  0
LINE
  5
4E73
330
1F
100
AcDbEntity
  8
03_枠(実線)
100
AcDbLine
 10
212.5
 20
164.3106601717798
 30
0.0
 11
214.0
 21
165.8106601717798
 31
0.0
  0
LINE
  5
4E74
330
1F
100
AcDbEntity
  8
03_枠(実線)
100
AcDbLine
 10
212.5
 20
162.1893398282201
 30
0.0
 11
214.0
 21
163.6893398282202
 31
0.0
  0
LINE
  5
4E75
330
1F
100
AcDbEntity
  8
03_枠(実線)
100
AcDbLine
 10
216.1893398282202
 20
168.0
 30
0.0
 11
217.6893398282202
 21
169.5
 31
0.0
  0
LINE
  5
4E76
330
1F
100
AcDbEntity
  8
03_枠(実線)
100
AcDbLine
 10
218.3106601717798
 20
168.0
 30
0.0
 11
219.8106601717798
 21
169.5
 31
0.0
  0
LINE
  5
4E87
330
1F
100
AcDbEntity
  8
03_枠(実線)
100
AcDbLine
 10
212.5
 20
168.0
 30
0.0
 11
202.5
 21
168.0
 31
0.0
  0
LINE
  5
4EB5
330
1F
100
AcDbEntity
  8
03_枠(実線)
100
AcDbLine
 10
185.3106601717798
 20
153.0
 30
0.0
 11
186.8106601717798
 21
154.5
 31
0.0
  0
LINE
  5
4EB6
330
1F
100
AcDbEntity
  8
03_枠(実線)
100
AcDbLine
 10
183.1893398282201
 20
153.0
 30
0.0
 11
184.6893398282201
 21
154.5
 31
0.0
  0
LINE
  5
4F16
330
1F
100
AcDbEntity
  8
03_枠(実線)
100
AcDbLine
 10
239.0
 20
482.9207959441025
 30
0.0
 11
239.0
 21
466.9455787113642
 31
0.0
  0
LWPOLYLINE
  5
4F28
330
1F
100
AcDbEntity
  8
05_枠(一点鎖線)
100
AcDbPolyline
 90
        2
 70
     0
 43
0.0
 10
239.0
 20
497.9
 10
239.0
 20
306.5000000000001
  0
LINE
  5
4F29
330
1F
100
AcDbEntity
  8
04_枠(破線)
100
AcDbLine
 10
241.0
 20
476.1
 30
0.0
 11
241.0
 21
474.4999999999999
 31
0.0
  0
LINE
  5
4F2A
330
1F
100
AcDbEntity
  8
05_枠(一点鎖線)
100
AcDbLine
 10
251.0
 20
482.4999999999999
 30
0.0
 11
251.0
 21
472.4999999999999
 31
0.0
  0
LINE
  5
4F2C
330
1F
100
AcDbEntity
  8
03_枠(実線)
100
AcDbLine
 10
248.6000000000001
 20
476.1
 30
0.0
 11
246.9999999999999
 21
474.4999999999999
 31
0.0
  0
LINE
  5
4F2D
330
1F
100
AcDbEntity
  8
03_枠(実線)
100
AcDbLine
 10
253.3999999999999
 20
476.1
 30
0.0
 11
255.0000000000001
 21
474.5
 31
0.0
  0
LWPOLYLINE
  5
4FA4
330
1F
100
AcDbEntity
  8
05_枠(一点鎖線)
100
AcDbPolyline
 90
        8
 70
     0
 43
0.0
 10
259.0
 20
306.5000000000001
 10
258.9999999999999
 20
476.1
 10
240.6
 20
476.1
 10
240.6
 20
489.4999999999996
 10
239.0
 20
489.4999999999996
 10
239.0
 20
476.1
 42
0.4142135623730944
 10
240.6
 20
474.4999999999999
 10
258.9999999999999
 20
474.4999999999999
  0
LWPOLYLINE
  5
4FA5
330
1F
100
AcDbEntity
  8
05_枠(一点鎖線)
100
AcDbPolyline
 90
        3
 70
     0
 43
0.0
 10
259.0
 20
304.5000000000001
 10
259.0
 20
139.5
 10
237.5
 20
139.5
  0
LINE
  5
4FA6
330
1F
100
AcDbEntity
  8
05_枠(一点鎖線)
100
AcDbLine
 10
473.0000000000009
 20
293.0000217956616
 30
0.0
 11
483.0000000000008
 21
293.0000217956616
 31
0.0
  0
LINE
  5
4FA7
330
1F
100
AcDbEntity
  8
03_枠(実線)
100
AcDbLine
 10
479.4000000000008
 20
290.6000217956616
 30
0.0
 11
481.0000000000009
 21
289.0000217956615
 31
0.0
  0
LINE
  5
4FA8
330
1F
100
AcDbEntity
  8
03_枠(実線)
100
AcDbLine
 10
479.4000000000007
 20
295.4000217956615
 30
0.0
 11
481.0000000000008
 21
297.0000217956617
 31
0.0
  0
LWPOLYLINE
  5
4FB1
330
1F
100
AcDbEntity
  8
05_枠(一点鎖線)
100
AcDbPolyline
 90
        7
 70
     1
 43
0.0
 10
479.4000000000008
 20
301.0000217956616
 10
479.4000000000007
 20
282.6000217956616
 10
466.0000000000009
 20
282.6000217956616
 10
466.0000000000009
 20
281.0000217956616
 10
479.4000000000007
 20
281.0000217956616
 42
0.4142135623730951
 10
481.0000000000008
 20
282.6000217956616
 10
481.0000000000008
 20
301.0000217956616
  0
LINE
  5
4FED
330
1F
100
AcDbEntity
  8
05_枠(一点鎖線)
100
AcDbLine
 10
693.0000000000005
 20
293.0000217956616
 30
0.0
 11
683.0000000000004
 21
293.0000217956616
 31
0.0
  0
LINE
  5
4FEE
330
1F
100
AcDbEntity
  8
03_枠(実線)
100
AcDbLine
 10
686.6000000000005
 20
290.6000217956616
 30
0.0
 11
685.0000000000004
 21
289.0000217956615
 31
0.0
  0
LINE
  5
4FEF
330
1F
100
AcDbEntity
  8
03_枠(実線)
100
AcDbLine
 10
686.6000000000005
 20
295.4000217956615
 30
0.0
 11
685.0000000000005
 21
297.0000217956617
 31
0.0
  0
LWPOLYLINE
  5
4FF0
330
1F
100
AcDbEntity
  8
05_枠(一点鎖線)
100
AcDbPolyline
 90
        7
 70
     1
 43
0.0
 10
686.6000000000005
 20
301.0000217956616
 10
686.6000000000005
 20
282.6000217956616
 10
700.0000000000003
 20
282.6000217956616
 10
700.0000000000003
 20
281.0000217956616
 10
686.6000000000005
 20
281.0000217956616
 42
-0.4142135623730951
 10
685.0000000000005
 20
282.6000217956616
 10
685.0000000000004
 20
301.0000217956616
  0
DIMENSION
  5
5007
330
1F
100
AcDbEntity
  8
19_寸法線・引出線
100
AcDbDimension
280
     0
  2
*D29
 10
555.9999999999994
 20
195.0000217956616
 30
0.0
 11
555.9999999999995
 21
241.953605093069
 31
0.0
 70
   160
  1
　
 71
     5
 42
86.0
 73
     0
 74
     0
 75
     0
  3
寸法(1-1)
100
AcDbAlignedDimension
 13
496.0000000000007
 23
281.0000217956616
 33
0.0
 14
496.0000000000007
 24
195.0000217956616
 34
0.0
 50
90.0
100
AcDbRotatedDimension
  0
ARC
  5
5282
330
1F
100
AcDbEntity
  8
04_枠(破線)
100
AcDbCircle
 10
235.2
 20
143.3
 30
0.0
 40
2.299999999999999
100
AcDbArc
 50
270.0
 51
0.0
  0
LINE
  5
5283
330
1F
100
AcDbEntity
  8
04_枠(破線)
100
AcDbLine
 10
237.5
 20
143.3
 30
0.0
 11
237.5
 21
156.0
 31
0.0
  0
LINE
  5
5284
330
1F
100
AcDbEntity
  8
04_枠(破線)
100
AcDbLine
 10
235.2
 20
156.0
 30
0.0
 11
235.2
 21
143.3
 31
0.0
  0
LINE
  5
5285
330
1F
100
AcDbEntity
  8
04_枠(破線)
100
AcDbLine
 10
235.2
 20
156.0
 30
0.0
 11
237.5
 21
156.0
 31
0.0
  0
LINE
  5
5286
330
1F
100
AcDbEntity
  8
04_枠(破線)
100
AcDbLine
 10
165.0
 20
141.0
 30
0.0
 11
235.2
 21
141.0
 31
0.0
  0
LINE
  5
5288
330
1F
100
AcDbEntity
  8
04_枠(破線)
100
AcDbLine
 10
235.2
 20
143.3
 30
0.0
 11
165.0
 21
143.3
 31
0.0
  0
LINE
  5
5289
330
1F
100
AcDbEntity
  8
04_枠(破線)
100
AcDbLine
 10
165.0
 20
143.3
 30
0.0
 11
165.0
 21
141.0
 31
0.0
  0
LINE
  5
528A
330
1F
100
AcDbEntity
  8
05_枠(一点鎖線)
100
AcDbLine
 10
202.5
 20
168.0
 30
0.0
 11
237.5
 21
168.0
 31
0.0
  0
LINE
  5
528B
330
1F
100
AcDbEntity
  8
05_枠(一点鎖線)
100
AcDbLine
 10
237.5
 20
168.0
 30
0.0
 11
237.5
 21
139.5
 31
0.0
  0
LINE
  5
5290
330
1F
100
AcDbEntity
  8
03_枠(実線)
100
AcDbLine
 10
239.0
 20
139.5
 30
0.0
 11
239.0
 21
168.0
 31
0.0
  0
ARC
  5
5291
330
1F
100
AcDbEntity
  8
05_枠(一点鎖線)
100
AcDbCircle
 10
237.5
 20
168.0
 30
0.0
 40
1.5
100
AcDbArc
 50
0.0
 51
90.0
  0
LINE
  5
5292
330
1F
100
AcDbEntity
  8
05_枠(一点鎖線)
100
AcDbLine
 10
237.5
 20
169.5
 30
0.0
 11
202.5
 21
169.5
 31
0.0
  0
ARC
  5
5293
330
1F
100
AcDbEntity
  8
05_枠(一点鎖線)
100
AcDbCircle
 10
202.5
 20
168.0
 30
0.0
 40
1.5
100
AcDbArc
 50
90.0
 51
270.0
  0
LINE
  5
5294
330
1F
100
AcDbEntity
  8
05_枠(一点鎖線)
100
AcDbLine
 10
202.5
 20
166.5
 30
0.0
 11
212.5
 21
166.5
 31
0.0
  0
LINE
  5
5295
330
1F
100
AcDbEntity
  8
05_枠(一点鎖線)
100
AcDbLine
 10
212.5
 20
166.5
 30
0.0
 11
212.5
 21
154.5
 31
0.0
  0
LINE
  5
5296
330
1F
100
AcDbEntity
  8
05_枠(一点鎖線)
100
AcDbLine
 10
212.5
 20
154.5
 30
0.0
 11
160.5
 21
154.5
 31
0.0
  0
ARC
  5
5297
330
1F
100
AcDbEntity
  8
05_枠(一点鎖線)
100
AcDbCircle
 10
160.5
 20
153.0
 30
0.0
 40
1.5
100
AcDbArc
 50
90.0
 51
180.0
  0
LINE
  5
5298
330
1F
100
AcDbEntity
  8
03_枠(実線)
100
AcDbLine
 10
159.0
 20
153.0
 30
0.0
 11
159.0
 21
141.0
 31
0.0
  0
ARC
  5
5299
330
1F
100
AcDbEntity
  8
05_枠(一点鎖線)
100
AcDbCircle
 10
160.5
 20
141.0
 30
0.0
 40
1.5
100
AcDbArc
 50
180.0
 51
270.0
  0
LINE
  5
529A
330
1F
100
AcDbEntity
  8
05_枠(一点鎖線)
100
AcDbLine
 10
160.5
 20
139.5
 30
0.0
 11
175.0
 21
139.5
 31
0.0
  0
LINE
  5
529B
330
1F
100
AcDbEntity
  8
05_枠(一点鎖線)
100
AcDbLine
 10
175.0
 20
139.5
 30
0.0
 11
175.0
 21
141.0
 31
0.0
  0
LINE
  5
529C
330
1F
100
AcDbEntity
  8
05_枠(一点鎖線)
100
AcDbLine
 10
175.0
 20
141.0
 30
0.0
 11
160.5
 21
141.0
 31
0.0
  0
LINE
  5
529D
330
1F
100
AcDbEntity
  8
05_枠(一点鎖線)
100
AcDbLine
 10
160.5
 20
141.0
 30
0.0
 11
160.5
 21
153.0
 31
0.0
  0
LINE
  5
529E
330
1F
100
AcDbEntity
  8
05_枠(一点鎖線)
100
AcDbLine
 10
160.5
 20
153.0
 30
0.0
 11
212.5
 21
153.0
 31
0.0
  0
ARC
  5
529F
330
1F
100
AcDbEntity
  8
05_枠(一点鎖線)
100
AcDbCircle
 10
212.5
 20
154.5
 30
0.0
 40
1.5
100
AcDbArc
 50
270.0
 51
0.0
  0
LINE
  5
52A0
330
1F
100
AcDbEntity
  8
05_枠(一点鎖線)
100
AcDbLine
 10
214.0
 20
154.5
 30
0.0
 11
214.0
 21
166.5
 31
0.0
  0
ARC
  5
52A1
330
1F
100
AcDbEntity
  8
05_枠(一点鎖線)
100
AcDbCircle
 10
212.5
 20
166.5
 30
0.0
 40
1.5
100
AcDbArc
 50
0.0
 51
90.0
  0
DIMENSION
  5
53EF
330
1F
100
AcDbEntity
  8
19_寸法線・引出線
100
AcDbDimension
280
     0
  2
*D30
 10
201.0
 20
320.5000000000001
 30
0.0
 11
180.0
 21
324.0000000000001
 31
0.0
 70
    32
  1
<>（46）
 71
     5
 42
42.0
 73
     0
 74
     0
 75
     0
  3
寸法(1-1)
100
AcDbAlignedDimension
 13
159.0
 23
320.5000000000001
 33
0.0
 14
201.0
 24
320.5000000000001
 34
0.0
100
AcDbRotatedDimension
  0
LINE
  5
5473
330
1F
100
AcDbEntity
  8
03_枠(実線)
100
AcDbLine
 10
163.5
 20
139.5
 30
0.0
 11
160.5
 21
139.5
 31
0.0
  0
LINE
  5
5474
330
1F
100
AcDbEntity
  8
05_枠(一点鎖線)
100
AcDbLine
 10
159.0
 20
141.0
 30
0.0
 11
159.0
 21
304.5000000000001
 31
0.0
  0
LINE
  5
554B
330
1F
100
AcDbEntity
  8
05_枠(一点鎖線)
100
AcDbLine
 10
239.0
 20
304.5000000000001
 30
0.0
 11
239.0
 21
139.5
 31
0.0
  0
LINE
  5
555F
330
1F
100
AcDbEntity
  8
03_枠(実線)
100
AcDbLine
 10
237.5
 20
151.3106601717799
 30
0.0
 11
239.0
 21
152.8106601717799
 31
0.0
  0
LINE
  5
5560
330
1F
100
AcDbEntity
  8
03_枠(実線)
100
AcDbLine
 10
237.5
 20
149.1893398282202
 30
0.0
 11
239.0
 21
150.6893398282202
 31
0.0
  0
LINE
  5
5561
330
1F
100
AcDbEntity
  8
03_枠(実線)
100
AcDbLine
 10
167.3106601717798
 20
153.0
 30
0.0
 11
168.8106601717798
 21
154.5
 31
0.0
  0
LINE
  5
5562
330
1F
100
AcDbEntity
  8
03_枠(実線)
100
AcDbLine
 10
165.1893398282201
 20
153.0
 30
0.0
 11
166.6893398282202
 21
154.5
 31
0.0
  0
LINE
  5
55ED
330
1F
100
AcDbEntity
  8
05_枠(一点鎖線)
100
AcDbLine
 10
159.0
 20
306.5000000000001
 30
0.0
 11
159.0
 21
497.9
 31
0.0
  0
LINE
  5
55EE
330
1F
100
AcDbEntity
  8
05_枠(一点鎖線)
100
AcDbLine
 10
201.0
 20
306.5000000000001
 30
0.0
 11
201.0
 21
461.1
 31
0.0
  0
TEXT
  5
5770
330
1F
100
AcDbEntity
  8
20_文字
100
AcDbText
 10
59.23333333333367
 20
302.0000000000001
 30
0.0
 40
7.0
  1
部
  7
文字
 72
     4
 11
62.50000000000034
 21
305.5000000000001
 31
0.0
100
AcDbText
  0
TEXT
  5
5771
330
1F
100
AcDbEntity
  8
20_文字
100
AcDbText
 10
59.23333333333367
 20
310.0000000000001
 30
0.0
 40
7.0
  1
外
  7
文字
 72
     4
 11
62.50000000000034
 21
313.5000000000001
 31
0.0
100
AcDbText
  0
TEXT
  5
5772
330
1F
100
AcDbEntity
  8
20_文字
100
AcDbText
 10
59.23333333333367
 20
294.0000000000001
 30
0.0
 40
7.0
  1
側
  7
文字
 72
     4
 11
62.50000000000034
 21
297.5000000000001
 31
0.0
100
AcDbText
  0
TEXT
  5
5773
330
1F
100
AcDbEntity
  8
20_文字
100
AcDbText
 10
328.2333333333341
 20
302.0000000000001
 30
0.0
 40
7.0
  1
部
  7
文字
 72
     4
 11
331.5000000000008
 21
305.5000000000001
 31
0.0
100
AcDbText
  0
TEXT
  5
5774
330
1F
100
AcDbEntity
  8
20_文字
100
AcDbText
 10
328.2333333333341
 20
310.0000000000001
 30
0.0
 40
7.0
  1
内
  7
文字
 72
     4
 11
331.5000000000008
 21
313.5000000000001
 31
0.0
100
AcDbText
  0
TEXT
  5
5775
330
1F
100
AcDbEntity
  8
20_文字
100
AcDbText
 10
328.2333333333341
 20
294.0000000000001
 30
0.0
 40
7.0
  1
側
  7
文字
 72
     4
 11
331.5000000000008
 21
297.5000000000001
 31
0.0
100
AcDbText
  0
ENDSEC
  0
SECTION
  2
OBJECTS
  0
DICTIONARY
  5
C
330
0
100
AcDbDictionary
281
     1
  3
ACAD_CIP_PREVIOUS_PRODUCT_INFO
350
216
  3
ACAD_COLOR
350
6B
  3
ACAD_DETAILVIEWSTYLE
350
21B
  3
ACAD_GROUP
350
D
  3
ACAD_IMAGE_VARS
350
3F98
  3
ACAD_LAYOUT
350
1A
  3
ACAD_MATERIAL
350
6A
  3
ACAD_MLEADERSTYLE
350
12D
  3
ACAD_MLINESTYLE
350
17
  3
ACAD_PLOTSETTINGS
350
19
  3
ACAD_PLOTSTYLENAME
350
E
  3
ACAD_SCALELIST
350
10C
  3
ACAD_SECTIONVIEWSTYLE
350
219
  3
ACAD_TABLESTYLE
350
7E
  3
ACAD_VISUALSTYLE
350
EF
  3
ACAD_WIPEOUT_VARS
350
3F97
  3
ACDB_RECOMPOSE_DATA
350
578F
  3
AcDbVariableDictionary
350
5E
  3
AcDsDecomposeData
350
5795
  0
DICTIONARY
  5
276D
330
8
100
AcDbDictionary
280
     1
281
     1
  0
DICTIONARY
  5
1FF
330
2
100
AcDbDictionary
280
     1
281
     1
  3
ACAD_LAYERSTATES
360
200
  0
DICTIONARY
  5
13C
330
10
100
AcDbDictionary
280
     1
281
     1
  0
DICTIONARY
  5
424E
330
424D
100
AcDbDictionary
280
     1
281
     1
  0
DICTIONARY
  5
4250
330
424F
100
AcDbDictionary
280
     1
281
     1
  0
DICTIONARY
  5
4252
330
4251
100
AcDbDictionary
280
     1
281
     1
  0
DICTIONARY
  5
4254
330
4253
100
AcDbDictionary
280
     1
281
     1
  0
DICTIONARY
  5
46B7
330
46B6
100
AcDbDictionary
280
     1
281
     1
  0
DICTIONARY
  5
46B9
330
46B8
100
AcDbDictionary
280
     1
281
     1
  0
DICTIONARY
  5
1CE
330
1F
100
AcDbDictionary
280
     1
281
     1
  3
ACAD_SORTENTS
360
5EB
  0
DICTIONARY
  5
4505
330
4504
100
AcDbDictionary
280
     1
281
     1
  3
ACAD_SORTENTS
360
4506
  0
DICTIONARY
  5
4605
330
4604
100
AcDbDictionary
280
     1
281
     1
  3
ACAD_SORTENTS
360
4606
  0
XRECORD
  5
216
102
{ACAD_REACTORS
330
C
102
}
330
C
100
AcDbXrecord
280
     1
300
ACDLT
300
2015
300
ACDLT_F_S
  0
DICTIONARY
  5
6B
102
{ACAD_REACTORS
330
C
102
}
330
C
100
AcDbDictionary
281
     1
  0
DICTIONARY
  5
21B
102
{ACAD_REACTORS
330
C
102
}
330
C
100
AcDbDictionary
281
     1
  3
Imperial24
350
4256
  3
Metric50
350
21C
  0
DICTIONARY
  5
D
102
{ACAD_REACTORS
330
C
102
}
330
C
100
AcDbDictionary
281
     1
  0
RASTERVARIABLES
  5
3F98
102
{ACAD_REACTORS
330
C
102
}
330
C
100
AcDbRasterVariables
 90
        0
 70
     1
 71
     1
 72
     1
  0
DICTIONARY
  5
1A
102
{ACAD_REACTORS
330
C
102
}
330
C
100
AcDbDictionary
281
     1
  3
Model
350
22
  3
レイアウト1
350
D3
  3
レイアウト2
350
D7
  0
DICTIONARY
  5
6A
102
{ACAD_REACTORS
330
C
102
}
330
C
100
AcDbDictionary
281
     1
  3
ByBlock
350
ED
  3
ByLayer
350
EC
  3
Global
350
EE
  0
DICTIONARY
  5
12D
102
{ACAD_REACTORS
330
C
102
}
330
C
100
AcDbDictionary
281
     1
  3
Annotative
350
13B
  3
Standard
350
12E
  3
引出線(1-1)
350
33D
  3
引出線(1-10)
350
5C6
  0
DICTIONARY
  5
17
102
{ACAD_REACTORS
330
C
102
}
330
C
100
AcDbDictionary
281
     1
  3
Standard
350
18
  0
DICTIONARY
  5
19
102
{ACAD_REACTORS
330
C
102
}
330
C
100
AcDbDictionary
281
     1
  3
モデル-A1(1-1)
350
75B
  3
モデル-A1(1-10)
350
779
  0
ACDBDICTIONARYWDFLT
  5
E
102
{ACAD_REACTORS
330
C
102
}
330
C
100
AcDbDictionary
281
     1
  3
Normal
350
F
100
AcDbDictionaryWithDefault
340
F
  0
DICTIONARY
  5
10C
102
{ACAD_REACTORS
330
C
102
}
330
C
100
AcDbDictionary
281
     1
  3
A0
350
10D
  3
A1
350
1BE
  3
A2
350
1BF
  3
A3
350
1C0
  3
A4
350
1C1
  3
A5
350
1C2
  3
A6
350
1C3
  3
A7
350
1C4
  3
A8
350
1C5
  3
A9
350
1C6
  3
B0
350
1C7
  3
B1
350
1C8
  3
B2
350
1C9
  3
B3
350
1CA
  3
B4
350
1CB
  3
B5
350
1CC
  3
B6
350
1CD
  0
DICTIONARY
  5
219
102
{ACAD_REACTORS
330
C
102
}
330
C
100
AcDbDictionary
281
     1
  3
Imperial24
350
4255
  3
Metric50
350
21A
  0
DICTIONARY
  5
7E
102
{ACAD_REACTORS
330
C
102
}
330
C
100
AcDbDictionary
281
     1
  3
Standard
350
7F
  0
DICTIONARY
  5
EF
102
{ACAD_REACTORS
330
C
102
}
330
C
100
AcDbDictionary
281
     1
  3
2dWireframe
350
F5
  3
Basic
350
F4
  3
Brighten
350
FB
  3
ColorChange
350
FF
  3
Conceptual
350
F8
  3
Dim
350
FA
  3
EdgeColorOff
350
1E6
  3
Facepattern
350
FE
  3
Flat
350
F0
  3
FlatWithEdges
350
F1
  3
Gouraud
350
F2
  3
GouraudWithEdges
350
F3
  3
Hidden
350
F7
  3
JitterOff
350
1E4
  3
Linepattern
350
FD
  3
OverhangOff
350
1E5
  3
Realistic
350
F9
  3
Shaded
350
1F3
  3
Shaded with edges
350
1F2
  3
Shades of Gray
350
1EF
  3
Sketchy
350
1F0
  3
Thicken
350
FC
  3
Wireframe
350
F6
  3
X-Ray
350
1F1
  0
WIPEOUTVARIABLES
  5
3F97
102
{ACAD_REACTORS
330
C
102
}
330
C
100
AcDbWipeoutVariables
 70
     1
  0
XRECORD
  5
578F
102
{ACAD_REACTORS
330
C
102
}
330
C
100
AcDbXrecord
280
     1
 90
        1
330
7F
330
3AB4
330
3AB6
330
3AEF
330
3AF1
330
4D09
330
4D0A
  0
DICTIONARY
  5
5E
102
{ACAD_REACTORS
330
C
102
}
330
C
100
AcDbDictionary
281
     1
  3
CANNOSCALE
350
146
  3
CENTEREXE
350
259
  3
CENTERLTYPEFILE
350
25A
  3
CMLEADERSTYLE
350
145
  3
CTABLESTYLE
350
84
  3
CVIEWDETAILSTYLE
350
227
  3
CVIEWSECTIONSTYLE
350
228
  3
DIMASSOC
350
5F
  3
EXPORTMODELSPACE
350
5343
  3
HIDETEXT
350
63
  3
HPCOLOR
350
884
  3
HPTRANSPARENCY
350
883
  3
INDEXCTL
350
27DA
  3
LAYEREVAL
350
1AE
  3
LAYERNOTIFY
350
1AF
  3
LIGHTINGUNITS
350
27D8
  3
MLEADERSCALE
350
6FD
  3
MSLTSCALE
350
27D7
  3
SORTENTS
350
27D9
  3
TEXTJUSTIFY
350
604
  0
DICTIONARY
  5
5795
102
{ACAD_REACTORS
330
C
102
}
330
C
100
AcDbDictionary
281
     1
  3
AcDsRecords
350
5797
  3
AcDsSchemas
350
5796
1001
ACAD
1070
     2
  0
DICTIONARY
  5
200
102
{ACAD_REACTORS
330
1FF
102
}
330
1FF
100
AcDbDictionary
281
     1
  0
SORTENTSTABLE
  5
5EB
102
{ACAD_REACTORS
330
1CE
102
}
330
1CE
100
AcDbSortentsTable
330
1F
331
4D0A
  5
4F29
331
416C
  5
44F6
331
4433
  5
4E4E
331
4168
  5
44F0
331
6DD
  5
6DD
331
4164
  5
44E7
331
6D9
  5
6D9
331
442B
  5
4DF9
331
44FA
  5
4E82
331
4160
  5
44E3
331
666
  5
666
331
6D5
  5
6D5
331
555F
  5
55EB
331
5289
  5
4FF0
331
3ACD
  5
3B2C
331
3A8E
  5
3AB3
331
5285
  5
5561
331
3A8A
  5
3A8A
331
3B48
  5
4180
331
3B40
  5
4178
331
4E51
  5
4FB1
331
4427
  5
4D0A
331
4154
  5
4463
331
65E
  5
65E
331
44E6
  5
4E7E
331
65A
  5
65A
331
699
  5
699
331
44E2
  5
4E75
331
4088
  5
4436
331
656
  5
656
331
554B
  5
3AAF
331
652
  5
652
331
4FA6
  5
529B
331
3B3C
  5
4154
331
3B38
  5
4083
331
4F2A
  5
5294
331
3AB5
  5
3AEC
331
3B34
  5
3F9E
331
4C42
  5
4E8E
331
44DE
  5
4E71
331
44DA
  5
4E6F
331
5D7
  5
5D7
331
689
  5
689
331
685
  5
685
331
64E
  5
64E
331
64A
  5
64B
331
681
  5
681
331
55EE
  5
3AB2
331
5473
  5
3A8C
331
3B00
  5
3B4A
331
52A0
  5
528F
331
3AFC
  5
3B46
331
3AA9
  5
3AC6
331
4B92
  5
3AB7
331
417F
  5
4BA9
331
417B
  5
4B93
331
4442
  5
4E62
331
3FA0
  5
443A
331
4177
  5
47AF
331
646
  5
647
331
4173
  5
4500
331
642
  5
640
331
443A
  5
4E51
331
675
  5
675
331
63E
  5
643
331
6E4
  5
6E4
331
6E0
  5
6E0
331
63A
  5
63D
331
529C
  5
528B
331
5298
  5
5287
331
5294
  5
5282
331
4FED
  5
52A1
331
3AF0
  5
3B3E
331
5290
  5
51FC
331
3A95
  5
3ABC
331
4E74
  5
3ABD
331
4D09
  5
4F1A
331
416F
  5
44FA
331
416B
  5
44F5
331
4436
  5
4E4F
331
4167
  5
44EF
331
636
  5
636
331
6DC
  5
6DC
331
4501
  5
3B2B
331
4163
  5
44E6
331
6D8
  5
6D8
331
669
  5
669
331
44FD
  5
4E85
331
665
  5
665
331
6D4
  5
6D4
331
44F9
  5
4E81
331
5562
  5
3AB6
331
661
  5
661
331
5288
  5
4FEF
331
4FB1
  5
52A0
331
53EF
  5
5562
331
3ACC
  5
3B2A
331
3A8D
  5
3AB1
331
5284
  5
5560
331
3B47
  5
417F
331
4E50
  5
4FA8
331
4426
  5
4D09
331
65D
  5
65D
331
4422
  5
4C44
331
698
  5
698
331
659
  5
659
331
44E5
  5
4E7D
331
655
  5
655
331
44E1
  5
4E74
331
4FA5
  5
5299
331
3B3F
  5
4171
331
3B3B
  5
4087
331
4F2D
  5
5297
331
3AB8
  5
3AF1
331
3B37
  5
4082
331
4F29
  5
5293
331
3AB4
  5
3AEB
331
3B33
  5
3B55
331
4087
  5
4426
331
5D6
  5
5D6
331
68C
  5
68C
331
44D9
  5
4E6E
331
4083
  5
42B5
331
42D9
  5
4C42
331
688
  5
688
331
684
  5
684
331
723
  5
723
331
4461
  5
4E65
331
680
  5
680
331
649
  5
64A
331
55ED
  5
3AAA
331
3AFF
  5
3B49
331
4BA9
  5
4E86
331
4E87
  5
41AC
331
417E
  5
4BA8
331
3FA3
  5
4438
331
417A
  5
4B92
331
42B5
  5
4C2B
331
4176
  5
4503
331
3F9F
  5
4428
331
645
  5
646
331
4172
  5
44FD
331
641
  5
63E
331
674
  5
674
331
63D
  5
642
331
6E3
  5
6E3
331
529F
  5
528E
331
639
  5
63B
331
529B
  5
528A
331
5297
  5
5286
331
4FF0
  5
54F7
331
5293
  5
51FF
331
3AEF
  5
3B3C
331
3AA0
  5
3AC4
331
3A94
  5
3AB9
331
3AEB
  5
3B3B
331
4E73
  5
3ABA
331
4E63
  5
4FED
331
4D08
  5
4EDC
331
416E
  5
44F9
331
416A
  5
44F4
331
6DF
  5
6DF
331
4166
  5
44EE
331
6DB
  5
6DB
331
4500
  5
3B2E
331
4162
  5
44E5
331
6D7
  5
6D7
331
668
  5
668
331
44FC
  5
4E84
331
6D3
  5
6D3
331
664
  5
664
331
5561
  5
3AB8
331
660
  5
660
331
528B
  5
5007
331
5283
  5
555F
331
3B4A
  5
41AB
331
4FA8
  5
529F
331
3B46
  5
417E
331
3AC3
  5
3AFA
331
4E4F
  5
4FA7
331
4156
  5
4442
331
4152
  5
4433
331
4425
  5
4D08
331
69B
  5
69B
331
44E8
  5
4E80
331
697
  5
697
331
658
  5
658
331
44E4
  5
4E7C
331
44E0
  5
4E73
331
5D9
  5
5D9
331
650
  5
650
331
4FA4
  5
5298
331
3B3E
  5
4156
331
4F2C
  5
5296
331
3B3A
  5
4085
331
4F28
  5
3AAC
331
3AB7
  5
3AF0
331
3B36
  5
4081
331
3AB3
  5
3AE8
331
3B32
  5
3B54
331
4F16
  5
5292
331
4C44
  5
4E8F
331
41AD
  5
4BE8
331
4086
  5
4447
331
5D5
  5
5D5
331
68B
  5
68B
331
44D8
  5
4E6D
331
4082
  5
442B
331
687
  5
687
331
64C
  5
63A
331
648
  5
649
331
5007
  5
554B
331
3AFE
  5
3B48
331
3AAB
  5
3ACE
331
18B8
  5
18B8
331
4EB6
  5
4E87
331
4BA8
  5
4E8C
331
417D
  5
4BA7
331
3FA2
  5
4427
331
4179
  5
47B3
331
42B8
  5
4C41
331
67F
  5
67F
331
4444
  5
4E63
331
4175
  5
4502
331
3F9E
  5
41AD
331
644
  5
645
331
4171
  5
44FC
331
640
  5
63C
331
6E2
  5
6E2
331
63C
  5
641
331
673
  5
673
331
529E
  5
528D
331
4438
  5
4E50
331
638
  5
638
331
529A
  5
5289
331
4FEF
  5
5474
331
5296
  5
5284
331
5292
  5
51FE
331
4E76
  5
3AC2
331
4E62
  5
4FB3
331
416D
  5
44F7
331
4503
  5
3B3A
331
4169
  5
44F1
331
6DE
  5
6DE
331
4165
  5
44E8
331
6DA
  5
6DA
331
44FB
  5
4E83
331
4161
  5
44E4
331
6D6
  5
6D6
331
667
  5
667
331
4428
  5
4DE3
331
6D2
  5
6D2
331
663
  5
663
331
528A
  5
4FF1
331
5560
  5
55EC
331
5286
  5
4FEE
331
5282
  5
554C
331
3B49
  5
41AA
331
3AC2
  5
3AF9
331
3B41
  5
4179
331
4E4E
  5
4FA6
331
4155
  5
44E2
331
4151
  5
4425
331
65F
  5
65F
331
44E7
  5
4E7F
331
65B
  5
65B
331
69A
  5
69A
331
44E3
  5
4E7B
331
657
  5
657
331
696
  5
696
331
4FA7
  5
529C
331
653
  5
653
331
5D8
  5
5D8
331
3B3D
  5
4155
331
3ABA
  5
3AF5
331
3B39
  5
4084
331
3AB6
  5
3AEE
331
3B35
  5
4080
331
3B31
  5
3B53
331
44DF
  5
4E72
331
44DB
  5
4E70
331
4085
  5
4461
331
68A
  5
68A
331
4463
  5
4E6C
331
4081
  5
4444
331
4180
  5
4BC0
331
64F
  5
64F
331
64B
  5
64C
331
682
  5
682
331
5474
  5
3A8D
331
52A1
  5
5291
331
3AFD
  5
3B47
331
3AAA
  5
3ACD
331
4EB5
  5
4E8D
331
4B93
  5
3AB5
331
4447
  5
4E64
331
417C
  5
4BA6
331
4178
  5
47B2
331
67E
  5
67E
331
647
  5
648
331
4174
  5
4501
331
643
  5
644
331
4170
  5
44FB
331
63F
  5
639
331
6E5
  5
6E5
331
6E1
  5
6E1
331
529D
  5
528C
331
63B
  5
63F
331
672
  5
672
331
5299
  5
5288
331
4FEE
  5
53EF
331
5295
  5
5283
331
18B7
  5
18B7
331
5291
  5
51FD
331
3AF1
  5
3B3F
331
4E75
  5
3ABB
  0
SORTENTSTABLE
  5
4506
102
{ACAD_REACTORS
330
4505
102
}
330
4505
100
AcDbSortentsTable
330
4504
  0
SORTENTSTABLE
  5
4606
102
{ACAD_REACTORS
330
4605
102
}
330
4605
100
AcDbSortentsTable
330
4604
  0
ACDBDETAILVIEWSTYLE
  5
4256
102
{ACAD_XDICTIONARY
360
4E56
102
}
102
{ACAD_REACTORS
330
21B
102
}
330
21B
100
AcDbModelDocViewStyle
 70
     0
  3
Imperial24
290
     0
100
AcDbDetailViewStyle
 70
     0
 71
     0
 90
        3
 71
     1
340
11
 62
   256
 40
0.24
340
0
 62
   256
 40
0.24
300

 40
0.36
280
     3
 71
     2
340
16
 90
       25
 62
   256
 71
     3
340
11
 62
   256
 40
0.24
 90
        1
 40
0.75
 90
        1
300
%<\AcVar ViewType \f "%tc1">% %<\AcVar ViewDetailId>%\PSCALE %<\AcVar ViewScale \f "%sn">%
 71
     4
340
16
 90
       25
 62
   256
340
16
 90
       25
 62
   256
280
     0
  0
ACDBDETAILVIEWSTYLE
  5
21C
102
{ACAD_XDICTIONARY
360
3FA6
102
}
102
{ACAD_REACTORS
330
21B
102
}
330
21B
100
AcDbModelDocViewStyle
 70
     0
  3
Metric50
290
     0
100
AcDbDetailViewStyle
 70
     0
 71
     0
 90
        3
 71
     1
340
11
 62
   256
 40
5.0
340
0
 62
   256
 40
5.0
300

 40
0.0
280
     1
 71
     2
340
16
 90
       25
 62
   256
 71
     3
340
11
 62
   256
 40
5.0
 90
        0
 40
15.0
 90
        1
300
%<\AcVar ViewDetailId>% (%<\AcVar ViewScale \f "%sn">%)
 71
     4
340
16
 90
       25
 62
   256
340
16
 90
       25
 62
   256
280
     0
  0
LAYOUT
  5
22
102
{ACAD_XDICTIONARY
360
534B
102
}
102
{ACAD_REACTORS
330
1A
102
}
330
1A
100
AcDbPlotSettings
  1

  2
KONICA MINOLTA C759
  4
A3
  6

 40
5.027082920074462
 41
5.027069091796875
 42
5.027099609375
 43
5.027069091796875
 44
296.9259948730469
 45
419.9466552734374
 46
-5.0
 47
-17.0
 48
0.0
 49
0.0
140
840.9999999999998
141
594.0
142
1.0
143
2.0
 70
 11936
 72
     1
 73
     1
 74
     4
  7
monochrome.ctb
 75
     0
147
0.3411079813835879
 76
     0
 77
     2
 78
   300
148
0.0
149
0.0
100
AcDbLayout
  1
Model
 70
     1
 71
     0
 10
0.0
 20
0.0
 11
12.0
 21
9.0
 12
0.0
 22
0.0
 32
0.0
 14
0.0
 24
0.0
 34
0.0
 15
0.0
 25
0.0
 35
0.0
146
0.0
 13
0.0
 23
0.0
 33
0.0
 16
1.0
 26
0.0
 36
0.0
 17
0.0
 27
1.0
 37
0.0
 76
     0
330
1F
331
EA
1001
ACAD_PSEXT
1000
KONICA MINOLTA C759
1000
KONICA MINOLTA C759SeriesPCL
1000
IP_192.168.0.55
1000

1070
     0
  0
LAYOUT
  5
D3
102
{ACAD_REACTORS
330
1A
102
}
330
1A
100
AcDbPlotSettings
  1

  2
C:\Documents and Settings\basas\Application Data\Autodesk\AutoCAD 2005\R16.1\enu\plotters\Default Windows System Printer.pc3
  4

  6

 40
0.0
 41
0.0
 42
0.0
 43
0.0
 44
0.0
 45
0.0
 46
0.0
 47
0.0
 48
0.0
 49
0.0
140
0.0
141
0.0
142
1.0
143
1.0
 70
   688
 72
     0
 73
     0
 74
     5
  7
monochrome.ctb
 75
    16
147
1.0
 76
     0
 77
     2
 78
   300
148
0.0
149
0.0
100
AcDbLayout
  1
レイアウト1
 70
     1
 71
     1
 10
0.0
 20
0.0
 11
12.0
 21
9.0
 12
0.0
 22
0.0
 32
0.0
 14
0.0
 24
0.0
 34
0.0
 15
0.0
 25
0.0
 35
0.0
146
0.0
 13
0.0
 23
0.0
 33
0.0
 16
1.0
 26
0.0
 36
0.0
 17
0.0
 27
1.0
 37
0.0
 76
     0
330
D2
  0
LAYOUT
  5
D7
102
{ACAD_REACTORS
330
1A
102
}
330
1A
100
AcDbPlotSettings
  1

  2
C:\Documents and Settings\basas\Application Data\Autodesk\AutoCAD 2005\R16.1\enu\plotters\Default Windows System Printer.pc3
  4

  6

 40
0.0
 41
0.0
 42
0.0
 43
0.0
 44
0.0
 45
0.0
 46
0.0
 47
0.0
 48
0.0
 49
0.0
140
0.0
141
0.0
142
1.0
143
1.0
 70
   688
 72
     0
 73
     0
 74
     5
  7
monochrome.ctb
 75
    16
147
1.0
 76
     0
 77
     2
 78
   300
148
0.0
149
0.0
100
AcDbLayout
  1
レイアウト2
 70
     1
 71
     2
 10
0.0
 20
0.0
 11
12.0
 21
9.0
 12
0.0
 22
0.0
 32
0.0
 14
0.0
 24
0.0
 34
0.0
 15
0.0
 25
0.0
 35
0.0
146
0.0
 13
0.0
 23
0.0
 33
0.0
 16
1.0
 26
0.0
 36
0.0
 17
0.0
 27
1.0
 37
0.0
 76
     0
330
D6
  0
MATERIAL
  5
ED
102
{ACAD_XDICTIONARY
360
1F9
102
}
102
{ACAD_REACTORS
330
6A
102
}
330
6A
100
AcDbMaterial
  1
ByBlock
 94
       63
  0
MATERIAL
  5
EC
102
{ACAD_XDICTIONARY
360
1F7
102
}
102
{ACAD_REACTORS
330
6A
102
}
330
6A
100
AcDbMaterial
  1
ByLayer
 94
       63
  0
MATERIAL
  5
EE
102
{ACAD_XDICTIONARY
360
173
102
}
102
{ACAD_REACTORS
330
6A
102
}
330
6A
100
AcDbMaterial
  1
Global
 43
0.0007999999797903
 43
0.0
 43
0.0
 43
0.0
 43
0.0
 43
0.0007999999797903
 43
0.0
 43
0.0
 43
0.0
 43
0.0
 43
1.0
 43
0.0
 43
0.0
 43
0.0
 43
0.0
 43
1.0
 49
0.0007999999797903
 49
0.0
 49
0.0
 49
0.0
 49
0.0
 49
0.0007999999797903
 49
0.0
 49
0.0
 49
0.0
 49
0.0
 49
1.0
 49
0.0
 49
0.0
 49
0.0
 49
0.0
 49
1.0
142
0.0007999999797903
142
0.0
142
0.0
142
0.0
142
0.0
142
0.0007999999797903
142
0.0
142
0.0
142
0.0
142
0.0
142
1.0
142
0.0
142
0.0
142
0.0
142
0.0
142
1.0
144
0.0007999999797903
144
0.0
144
0.0
144
0.0
144
0.0
144
0.0007999999797903
144
0.0
144
0.0
144
0.0
144
0.0
144
1.0
144
0.0
144
0.0
144
0.0
144
0.0
144
1.0
 94
       63
1001
ACAD
1070
    -1
1070
     3
1070
     0
1000

1071
        0
1070
     0
  0
MLEADERSTYLE
  5
13B
102
{ACAD_REACTORS
330
12D
102
}
330
12D
100
AcDbMLeaderStyle
179
     2
170
     2
171
     1
172
     0
 90
        2
 40
0.0
 41
0.0
173
     1
 91
-1056964608
340
14
 92
       -2
290
     1
 42
2.0
291
     1
 43
8.0
  3
Standard
 44
4.0
300

342
11
174
     1
178
     1
175
     1
176
     0
 93
-1056964608
 45
4.0
292
     0
297
     0
 46
4.0
 94
-1056964608
 47
1.0
 49
1.0
140
1.0
293
     1
141
0.0
294
     1
177
     0
142
1.0
295
     0
296
     1
143
3.75
271
     0
272
     9
273
     9
  0
MLEADERSTYLE
  5
12E
102
{ACAD_REACTORS
330
12D
102
}
330
12D
100
AcDbMLeaderStyle
179
     2
170
     2
171
     1
172
     0
 90
        2
 40
0.0
 41
0.0
173
     1
 91
-1056964608
340
14
 92
       -2
290
     1
 42
2.0
291
     1
 43
8.0
  3
Standard
 44
4.0
300

342
11
174
     1
178
     1
175
     1
176
     0
 93
-1056964608
 45
4.0
292
     0
297
     0
 46
4.0
 94
-1056964608
 47
1.0
 49
1.0
140
1.0
293
     1
141
0.0
294
     1
177
     0
142
1.0
295
     0
296
     0
143
3.75
271
     0
272
     9
273
     9
  0
MLEADERSTYLE
  5
33D
102
{ACAD_REACTORS
330
12D
102
}
330
12D
100
AcDbMLeaderStyle
179
     2
170
     2
171
     1
172
     0
 90
        2
 40
1.047197551196597
 41
3.141592653589793
173
     1
 91
-1073741824
340
15
 92
       -1
290
     1
 42
0.0
291
     1
 43
0.0
  3
Standard
341
33E
 44
4.0
300

342
29D
174
     6
178
     6
175
     1
176
     0
 93
-1073741824
 45
5.0
292
     0
297
     0
 46
4.0
 94
-1056964608
 47
1.0
 49
1.0
140
1.0
293
     1
141
0.0
294
     1
177
     0
142
1.0
295
     0
296
     0
143
0.0
271
     0
272
     9
273
     9
  0
MLEADERSTYLE
  5
5C6
102
{ACAD_REACTORS
330
12D
102
}
330
12D
100
AcDbMLeaderStyle
179
     2
170
     2
171
     1
172
     0
 90
        2
 40
1.047197551196597
 41
3.141592653589793
173
     1
 91
-1073741824
340
15
 92
       -1
290
     1
 42
0.0
291
     1
 43
0.0
  3
Standard
341
33E
 44
4.0
300

342
29D
174
     6
178
     6
175
     1
176
     0
 93
-1073741824
 45
5.0
292
     0
297
     0
 46
4.0
 94
-1056964608
 47
1.0
 49
1.0
140
1.0
293
     1
141
0.0
294
     1
177
     0
142
10.0
295
     0
296
     0
143
0.0
271
     0
272
     9
273
     9
  0
MLINESTYLE
  5
18
102
{ACAD_REACTORS
330
17
102
}
330
17
100
AcDbMlineStyle
  2
STANDARD
 70
     0
  3

 62
   256
 51
90.0
 52
90.0
 71
     2
 49
0.5
 62
   256
  6
BYLAYER
 49
-0.5
 62
   256
  6
BYLAYER
  0
PLOTSETTINGS
  5
75B
102
{ACAD_REACTORS
330
19
102
}
330
19
100
AcDbPlotSettings
  1
モデル-A1(1-1)
  2
C558SeriesPCL
  4
A3
  6

 40
5.027082920074462
 41
5.027069091796875
 42
5.027099609375
 43
5.027069091796875
 44
296.9259948730469
 45
419.9466552734374
 46
-4.901096909010846
 47
-5.067736826084825
 48
0.0
 49
0.0
140
0.0
141
0.0
142
420.0
143
841.0
 70
 11940
 72
     1
 73
     1
 74
     1
  7
monochrome.ctb
 75
     0
147
0.3410871630752704
 76
     0
 77
     2
 78
   300
148
0.0442831003149422
149
0.0271839699360044
1001
ACAD_PSEXT
1000
C558SeriesPCL
1000
KONICA MINOLTA C658SeriesPCL
1000
IP_192.168.0.100
1000

1070
     0
  0
PLOTSETTINGS
  5
779
102
{ACAD_REACTORS
330
19
102
}
330
19
100
AcDbPlotSettings
  1
モデル-A1(1-10)
  2
C558SeriesPCL
  4
A3
  6

 40
5.027082920074462
 41
5.027069091796875
 42
5.027099609375
 43
5.027069091796875
 44
296.9259948730469
 45
419.9466552734374
 46
128.6022058637177
 47
183.9448590078212
 48
0.0
 49
0.0
140
0.0
141
0.0
142
420.0
143
8410.0
 70
 11940
 72
     1
 73
     1
 74
     1
  7
monochrome.ctb
 75
     0
147
0.3410871630752704
 76
     0
 77
     2
 78
   300
148
0.0442831003149422
149
0.0271839699360044
1001
ACAD_PSEXT
1000
C558SeriesPCL
1000
KONICA MINOLTA C658SeriesPCL
1000
IP_192.168.0.100
1000

1070
     0
  0
ACDBPLACEHOLDER
  5
F
102
{ACAD_REACTORS
330
E
102
}
330
E
  0
SCALE
  5
10D
102
{ACAD_REACTORS
330
10C
102
}
330
10C
100
AcDbScale
 70
     0
300
1:1
140
1.0
141
1.0
290
     1
  0
SCALE
  5
1BE
102
{ACAD_REACTORS
330
10C
102
}
330
10C
100
AcDbScale
 70
     0
300
1:2
140
1.0
141
2.0
290
     0
  0
SCALE
  5
1BF
102
{ACAD_REACTORS
330
10C
102
}
330
10C
100
AcDbScale
 70
     0
300
1:4
140
1.0
141
4.0
290
     0
  0
SCALE
  5
1C0
102
{ACAD_REACTORS
330
10C
102
}
330
10C
100
AcDbScale
 70
     0
300
1:5
140
1.0
141
5.0
290
     0
  0
SCALE
  5
1C1
102
{ACAD_REACTORS
330
10C
102
}
330
10C
100
AcDbScale
 70
     0
300
1:8
140
1.0
141
8.0
290
     0
  0
SCALE
  5
1C2
102
{ACAD_REACTORS
330
10C
102
}
330
10C
100
AcDbScale
 70
     0
300
1:10
140
1.0
141
10.0
290
     0
  0
SCALE
  5
1C3
102
{ACAD_REACTORS
330
10C
102
}
330
10C
100
AcDbScale
 70
     0
300
1:16
140
1.0
141
16.0
290
     0
  0
SCALE
  5
1C4
102
{ACAD_REACTORS
330
10C
102
}
330
10C
100
AcDbScale
 70
     0
300
1:20
140
1.0
141
20.0
290
     0
  0
SCALE
  5
1C5
102
{ACAD_REACTORS
330
10C
102
}
330
10C
100
AcDbScale
 70
     0
300
1:30
140
1.0
141
30.0
290
     0
  0
SCALE
  5
1C6
102
{ACAD_REACTORS
330
10C
102
}
330
10C
100
AcDbScale
 70
     0
300
1:40
140
1.0
141
40.0
290
     0
  0
SCALE
  5
1C7
102
{ACAD_REACTORS
330
10C
102
}
330
10C
100
AcDbScale
 70
     0
300
1:50
140
1.0
141
50.0
290
     0
  0
SCALE
  5
1C8
102
{ACAD_REACTORS
330
10C
102
}
330
10C
100
AcDbScale
 70
     0
300
1:100
140
1.0
141
100.0
290
     0
  0
SCALE
  5
1C9
102
{ACAD_REACTORS
330
10C
102
}
330
10C
100
AcDbScale
 70
     0
300
2:1
140
2.0
141
1.0
290
     0
  0
SCALE
  5
1CA
102
{ACAD_REACTORS
330
10C
102
}
330
10C
100
AcDbScale
 70
     0
300
4:1
140
4.0
141
1.0
290
     0
  0
SCALE
  5
1CB
102
{ACAD_REACTORS
330
10C
102
}
330
10C
100
AcDbScale
 70
     0
300
8:1
140
8.0
141
1.0
290
     0
  0
SCALE
  5
1CC
102
{ACAD_REACTORS
330
10C
102
}
330
10C
100
AcDbScale
 70
     0
300
10:1
140
10.0
141
1.0
290
     0
  0
SCALE
  5
1CD
102
{ACAD_REACTORS
330
10C
102
}
330
10C
100
AcDbScale
 70
     0
300
100:1
140
100.0
141
1.0
290
     0
  0
ACDBSECTIONVIEWSTYLE
  5
4255
102
{ACAD_XDICTIONARY
360
4E54
102
}
102
{ACAD_REACTORS
330
219
102
}
330
219
100
AcDbModelDocViewStyle
 70
     0
  3
Imperial24
290
     0
100
AcDbSectionViewStyle
 70
     0
 71
     0
 90
       78
 71
     1
340
11
 62
   256
 40
0.24
340
0
340
0
 62
   256
 40
0.24
300
I, O, Q, S, X, Z
 40
0.48
 90
        3
 40
0.18
 90
        1
 71
     2
340
16
 90
       25
 62
   256
340
16
 90
       50
 62
   256
 40
0.24
 40
0.0
 40
0.24
 71
     3
340
11
 62
   256
 40
0.24
 90
        1
 40
0.75
 90
        1
300
%<\AcVar ViewType \f "%tc1">% %<\AcVar ViewSectionStartId>%-%<\AcVar ViewSectionEndId>%\PSCALE %<\AcVar ViewScale \f "%sn">%
 71
     4
 62
   256
 62
   257
300
ANSI31
 40
1.0
 90
        0
290
     0
290
     0
 90
        6
 40
0.0
 40
1.570796326794896
 40
0.2617993877991494
 40
1.308996938995747
 40
-0.2617993877991494
 40
1.832595714594046
  0
ACDBSECTIONVIEWSTYLE
  5
21A
102
{ACAD_XDICTIONARY
360
3FA4
102
}
102
{ACAD_REACTORS
330
219
102
}
330
219
100
AcDbModelDocViewStyle
 70
     0
  3
Metric50
290
     0
100
AcDbSectionViewStyle
 70
     0
 71
     0
 90
      102
 71
     1
340
11
 62
   256
 40
5.0
340
0
340
0
 62
   256
 40
5.0
300
I, O, Q, S, X, Z
 40
10.0
 90
        0
 40
2.5
 90
        0
 71
     2
340
16
 90
       25
 62
   256
340
16
 90
       50
 62
   256
 40
5.0
 40
2.5
 40
5.0
 71
     3
340
11
 62
   256
 40
5.0
 90
        0
 40
15.0
 90
        1
300
%<\AcVar ViewSectionStartId>%-%<\AcVar ViewSectionEndId>% (%<\AcVar ViewScale \f "%sn">%)
 71
     4
 62
   256
 62
   257
300
ANSI31
 40
1.0
 90
        0
290
     0
290
     0
 90
        6
 40
0.0
 40
1.570796326794896
 40
0.2617993877991494
 40
1.308996938995747
 40
-0.2617993877991494
 40
1.832595714594046
  0
TABLESTYLE
  5
7F
102
{ACAD_XDICTIONARY
360
162
102
}
102
{ACAD_REACTORS
330
7E
102
}
330
7E
100
AcDbTableStyle
280
     0
  3
Standard
 70
     0
 71
     0
 40
1.5
 41
1.5
280
     0
281
     0
  7
Standard
140
4.5
170
     2
 62
     0
 63
     7
283
     0
 90
      512
 91
        0
  1

274
    -2
284
     1
 64
     0
275
    -2
285
     1
 65
     0
276
    -2
286
     1
 66
     0
277
    -2
287
     1
 67
     0
278
    -2
288
     1
 68
     0
279
    -2
289
     1
 69
     0
  7
Standard
140
6.0
170
     5
 62
     0
 63
     7
283
     0
 90
      512
 91
        0
  1

274
    -2
284
     1
 64
     0
275
    -2
285
     1
 65
     0
276
    -2
286
     1
 66
     0
277
    -2
287
     1
 67
     0
278
    -2
288
     1
 68
     0
279
    -2
289
     1
 69
     0
  7
Standard
140
4.5
170
     5
 62
     0
 63
     7
283
     0
 90
      512
 91
        0
  1

274
    -2
284
     1
 64
     0
275
    -2
285
     1
 65
     0
276
    -2
286
     1
 66
     0
277
    -2
287
     1
 67
     0
278
    -2
288
     1
 68
     0
279
    -2
289
     1
 69
     0
  0
VISUALSTYLE
  5
F5
102
{ACAD_XDICTIONARY
360
57A2
102
}
102
{ACAD_REACTORS
330
EF
102
}
330
EF
100
AcDbVisualStyle
  2
2dWireframe
 70
     4
177
     2
291
     0
 71
     0
176
     1
 72
     2
176
     1
 73
     1
176
     1
 90
        0
176
     1
 40
0.6
176
     1
 41
30.0
176
     1
 63
     7
176
     1
 74
     1
176
     1
 91
        4
176
     1
 64
     7
176
     1
 65
   257
176
     1
 75
     1
176
     1
175
     1
176
     1
 42
1.0
176
     1
 92
        0
176
     1
 66
   257
176
     1
 43
1.0
176
     1
 76
     1
176
     1
 77
     6
176
     1
 78
     2
176
     1
 67
     7
176
     1
 79
     5
176
     1
170
     0
176
     1
171
     0
176
     1
290
     0
176
     1
 93
        1
176
     1
 44
0.0
176
     1
173
     0
176
     1
1001
ACAD
1000
AcDbSavedByObjectVersion
1070
     0
  0
VISUALSTYLE
  5
F4
102
{ACAD_XDICTIONARY
360
57A0
102
}
102
{ACAD_REACTORS
330
EF
102
}
330
EF
100
AcDbVisualStyle
  2
Basic
 70
     7
177
     2
291
     1
 71
     1
176
     1
 72
     0
176
     1
 73
     1
176
     1
 90
        0
176
     1
 40
0.6
176
     1
 41
30.0
176
     1
 63
     7
176
     1
 74
     0
176
     1
 91
        4
176
     1
 64
     7
176
     1
 65
   257
176
     1
 75
     1
176
     1
175
     1
176
     1
 42
1.0
176
     1
 92
        8
176
     1
 66
     7
176
     1
 43
1.0
176
     1
 76
     1
176
     1
 77
     6
176
     1
 78
     2
176
     1
 67
     7
176
     1
 79
     5
176
     1
170
     0
176
     1
171
     0
176
     1
290
     0
176
     1
 93
        1
176
     1
 44
0.0
176
     1
173
     0
176
     1
1001
ACAD
1000
AcDbSavedByObjectVersion
1070
     0
  0
VISUALSTYLE
  5
FB
102
{ACAD_XDICTIONARY
360
57AE
102
}
102
{ACAD_REACTORS
330
EF
102
}
330
EF
100
AcDbVisualStyle
  2
Brighten
 70
    12
177
     2
291
     1
 71
     2
176
     1
 72
     2
176
     1
 73
     1
176
     1
 90
        0
176
     1
 40
0.6
176
     1
 41
30.0
176
     1
 63
     7
176
     1
 74
     1
176
     1
 91
        4
176
     1
 64
     7
176
     1
 65
   257
176
     1
 75
     1
176
     1
175
     1
176
     1
 42
1.0
176
     1
 92
        8
176
     1
 66
     7
176
     1
 43
1.0
176
     1
 76
     1
176
     1
 77
     6
176
     1
 78
     2
176
     1
 67
     7
176
     1
 79
     5
176
     1
170
     0
176
     1
171
     0
176
     1
290
     0
176
     1
 93
        1
176
     1
 44
50.0
176
     1
173
     0
176
     1
1001
ACAD
1000
AcDbSavedByObjectVersion
1070
     0
  0
VISUALSTYLE
  5
FF
102
{ACAD_XDICTIONARY
360
57B6
102
}
102
{ACAD_REACTORS
330
EF
102
}
330
EF
100
AcDbVisualStyle
  2
ColorChange
 70
    16
177
     2
291
     1
 71
     2
176
     1
 72
     2
176
     1
 73
     3
176
     1
 90
        0
176
     1
 40
0.6
176
     1
 41
30.0
176
     1
 63
     8
176
     1
 74
     1
176
     1
 91
        4
176
     1
 64
     7
176
     1
 65
   257
176
     1
 75
     1
176
     1
175
     1
176
     1
 42
1.0
176
     1
 92
        8
176
     1
 66
     8
176
     1
 43
1.0
176
     1
 76
     1
176
     1
 77
     6
176
     1
 78
     2
176
     1
 67
     7
176
     1
 79
     5
176
     1
170
     0
176
     1
171
     0
176
     1
290
     0
176
     1
 93
        1
176
     1
 44
0.0
176
     1
173
     0
176
     1
1001
ACAD
1000
AcDbSavedByObjectVersion
1070
     0
  0
VISUALSTYLE
  5
F8
102
{ACAD_XDICTIONARY
360
57A8
102
}
102
{ACAD_REACTORS
330
EF
102
}
330
EF
100
AcDbVisualStyle
  2
Conceptual
 70
     9
177
     2
291
     0
 71
     3
176
     1
 72
     2
176
     1
 73
     1
176
     1
 90
        0
176
     1
 40
0.6
176
     1
 41
30.0
176
     1
 63
     7
176
     1
 74
     2
176
     1
 91
        2
176
     1
 64
     7
176
     1
 65
   257
176
     1
 75
     1
176
     1
175
     1
176
     1
 42
40.0
176
     1
 92
        8
176
     1
 66
     7
176
     1
 43
1.0
176
     1
 76
     1
176
     1
 77
     6
176
     1
 78
     2
176
     1
 67
     7
176
     1
 79
     3
176
     1
170
     0
176
     1
171
     0
176
     1
290
     0
176
     1
 93
        1
176
     1
 44
0.0
176
     1
173
     0
176
     1
1001
ACAD
1000
AcDbSavedByObjectVersion
1070
     0
  0
VISUALSTYLE
  5
FA
102
{ACAD_XDICTIONARY
360
57AC
102
}
102
{ACAD_REACTORS
330
EF
102
}
330
EF
100
AcDbVisualStyle
  2
Dim
 70
    11
177
     2
291
     1
 71
     2
176
     1
 72
     2
176
     1
 73
     1
176
     1
 90
        0
176
     1
 40
0.6
176
     1
 41
30.0
176
     1
 63
     7
176
     1
 74
     1
176
     1
 91
        4
176
     1
 64
     7
176
     1
 65
   257
176
     1
 75
     1
176
     1
175
     1
176
     1
 42
1.0
176
     1
 92
        8
176
     1
 66
     7
176
     1
 43
1.0
176
     1
 76
     1
176
     1
 77
     6
176
     1
 78
     2
176
     1
 67
     7
176
     1
 79
     5
176
     1
170
     0
176
     1
171
     0
176
     1
290
     0
176
     1
 93
        1
176
     1
 44
-50.0
176
     1
173
     0
176
     1
1001
ACAD
1000
AcDbSavedByObjectVersion
1070
     0
  0
VISUALSTYLE
  5
1E6
102
{ACAD_XDICTIONARY
360
57BC
102
}
102
{ACAD_REACTORS
330
EF
102
}
330
EF
100
AcDbVisualStyle
  2
EdgeColorOff
 70
    22
177
     2
291
     1
 71
     2
176
     0
 72
     2
176
     0
 73
     0
176
     0
 90
        0
176
     0
 40
0.6
176
     0
 41
30.0
176
     0
 63
     7
176
     0
 74
     1
176
     0
 91
        4
176
     0
 64
     7
176
     0
 65
   257
176
     0
 75
     1
176
     0
175
     1
176
     0
 42
1.0
176
     0
 92
        8
176
     2
 66
     7
176
     0
 43
1.0
176
     0
 76
     1
176
     0
 77
     6
176
     0
 78
     2
176
     0
 67
     7
176
     0
 79
     5
176
     0
170
     0
176
     0
171
     0
176
     0
290
     0
176
     0
 93
        1
176
     0
 44
0.0
176
     0
173
     0
176
     0
1001
ACAD
1000
AcDbSavedByObjectVersion
1070
     0
  0
VISUALSTYLE
  5
FE
102
{ACAD_XDICTIONARY
360
57B4
102
}
102
{ACAD_REACTORS
330
EF
102
}
330
EF
100
AcDbVisualStyle
  2
Facepattern
 70
    15
177
     2
291
     1
 71
     2
176
     1
 72
     2
176
     1
 73
     1
176
     1
 90
        0
176
     1
 40
0.6
176
     1
 41
30.0
176
     1
 63
     7
176
     1
 74
     1
176
     1
 91
        4
176
     1
 64
     7
176
     1
 65
   257
176
     1
 75
     1
176
     1
175
     1
176
     1
 42
1.0
176
     1
 92
        8
176
     1
 66
     7
176
     1
 43
1.0
176
     1
 76
     1
176
     1
 77
     6
176
     1
 78
     2
176
     1
 67
     7
176
     1
 79
     5
176
     1
170
     0
176
     1
171
     0
176
     1
290
     0
176
     1
 93
        1
176
     1
 44
0.0
176
     1
173
     0
176
     1
1001
ACAD
1000
AcDbSavedByObjectVersion
1070
     0
  0
VISUALSTYLE
  5
F0
102
{ACAD_XDICTIONARY
360
5798
102
}
102
{ACAD_REACTORS
330
EF
102
}
330
EF
100
AcDbVisualStyle
  2
Flat
 70
     0
177
     2
291
     1
 71
     2
176
     1
 72
     1
176
     1
 73
     1
176
     1
 90
        2
176
     1
 40
0.6
176
     1
 41
30.0
176
     1
 63
     7
176
     1
 74
     0
176
     1
 91
        0
176
     1
 64
     7
176
     1
 65
   257
176
     1
 75
     1
176
     1
175
     1
176
     1
 42
1.0
176
     1
 92
        8
176
     1
 66
     7
176
     1
 43
1.0
176
     1
 76
     1
176
     1
 77
     6
176
     1
 78
     2
176
     1
 67
     7
176
     1
 79
     5
176
     1
170
     0
176
     1
171
     0
176
     1
290
     0
176
     1
 93
       13
176
     1
 44
0.0
176
     1
173
     0
176
     1
1001
ACAD
1000
AcDbSavedByObjectVersion
1070
     0
  0
VISUALSTYLE
  5
F1
102
{ACAD_XDICTIONARY
360
579A
102
}
102
{ACAD_REACTORS
330
EF
102
}
330
EF
100
AcDbVisualStyle
  2
FlatWithEdges
 70
     1
177
     2
291
     1
 71
     2
176
     1
 72
     1
176
     1
 73
     1
176
     1
 90
        2
176
     1
 40
0.6
176
     1
 41
30.0
176
     1
 63
     7
176
     1
 74
     1
176
     1
 91
        0
176
     1
 64
     7
176
     1
 65
   257
176
     1
 75
     1
176
     1
175
     1
176
     1
 42
1.0
176
     1
 92
        0
176
     1
 66
   257
176
     1
 43
1.0
176
     1
 76
     1
176
     1
 77
     6
176
     1
 78
     2
176
     1
 67
     7
176
     1
 79
     5
176
     1
170
     0
176
     1
171
     0
176
     1
290
     0
176
     1
 93
       13
176
     1
 44
0.0
176
     1
173
     0
176
     1
1001
ACAD
1000
AcDbSavedByObjectVersion
1070
     0
  0
VISUALSTYLE
  5
F2
102
{ACAD_XDICTIONARY
360
579C
102
}
102
{ACAD_REACTORS
330
EF
102
}
330
EF
100
AcDbVisualStyle
  2
Gouraud
 70
     2
177
     2
291
     1
 71
     2
176
     1
 72
     2
176
     1
 73
     1
176
     1
 90
        2
176
     1
 40
0.6
176
     1
 41
30.0
176
     1
 63
     7
176
     1
 74
     0
176
     1
 91
        0
176
     1
 64
     7
176
     1
 65
   257
176
     1
 75
     1
176
     1
175
     1
176
     1
 42
1.0
176
     1
 92
        0
176
     1
 66
     7
176
     1
 43
1.0
176
     1
 76
     1
176
     1
 77
     6
176
     1
 78
     2
176
     1
 67
     7
176
     1
 79
     5
176
     1
170
     0
176
     1
171
     0
176
     1
290
     0
176
     1
 93
       13
176
     1
 44
0.0
176
     1
173
     0
176
     1
1001
ACAD
1000
AcDbSavedByObjectVersion
1070
     0
  0
VISUALSTYLE
  5
F3
102
{ACAD_XDICTIONARY
360
579E
102
}
102
{ACAD_REACTORS
330
EF
102
}
330
EF
100
AcDbVisualStyle
  2
GouraudWithEdges
 70
     3
177
     2
291
     1
 71
     2
176
     1
 72
     2
176
     1
 73
     1
176
     1
 90
        2
176
     1
 40
0.6
176
     1
 41
30.0
176
     1
 63
     7
176
     1
 74
     1
176
     1
 91
        0
176
     1
 64
     7
176
     1
 65
   257
176
     1
 75
     1
176
     1
175
     1
176
     1
 42
1.0
176
     1
 92
        0
176
     1
 66
   257
176
     1
 43
1.0
176
     1
 76
     1
176
     1
 77
     6
176
     1
 78
     2
176
     1
 67
     7
176
     1
 79
     5
176
     1
170
     0
176
     1
171
     0
176
     1
290
     0
176
     1
 93
       13
176
     1
 44
0.0
176
     1
173
     0
176
     1
1001
ACAD
1000
AcDbSavedByObjectVersion
1070
     0
  0
VISUALSTYLE
  5
F7
102
{ACAD_XDICTIONARY
360
57A6
102
}
102
{ACAD_REACTORS
330
EF
102
}
330
EF
100
AcDbVisualStyle
  2
Hidden
 70
     6
177
     2
291
     0
 71
     1
176
     1
 72
     2
176
     1
 73
     2
176
     1
 90
        0
176
     1
 40
0.6
176
     1
 41
30.0
176
     1
 63
     7
176
     1
 74
     2
176
     1
 91
        2
176
     1
 64
     7
176
     1
 65
   257
176
     1
 75
     2
176
     1
175
     1
176
     1
 42
40.0
176
     1
 92
        0
176
     1
 66
   257
176
     1
 43
1.0
176
     1
 76
     1
176
     1
 77
     6
176
     1
 78
     2
176
     1
 67
     7
176
     1
 79
     3
176
     1
170
     0
176
     1
171
     0
176
     1
290
     0
176
     1
 93
        1
176
     1
 44
0.0
176
     1
173
     0
176
     1
1001
ACAD
1000
AcDbSavedByObjectVersion
1070
     0
  0
VISUALSTYLE
  5
1E4
102
{ACAD_XDICTIONARY
360
57B8
102
}
102
{ACAD_REACTORS
330
EF
102
}
330
EF
100
AcDbVisualStyle
  2
JitterOff
 70
    20
177
     2
291
     1
 71
     2
176
     0
 72
     2
176
     0
 73
     0
176
     0
 90
        0
176
     0
 40
0.6
176
     0
 41
30.0
176
     0
 63
     7
176
     0
 74
     1
176
     0
 91
        4
176
     0
 64
     7
176
     0
 65
   257
176
     0
 75
     1
176
     0
175
     1
176
     0
 42
1.0
176
     0
 92
       10
176
     2
 66
     7
176
     0
 43
1.0
176
     0
 76
     1
176
     0
 77
     6
176
     0
 78
     2
176
     0
 67
     7
176
     0
 79
     5
176
     0
170
     0
176
     0
171
     0
176
     0
290
     0
176
     0
 93
        1
176
     0
 44
0.0
176
     0
173
     0
176
     0
1001
ACAD
1000
AcDbSavedByObjectVersion
1070
     0
  0
VISUALSTYLE
  5
FD
102
{ACAD_XDICTIONARY
360
57B2
102
}
102
{ACAD_REACTORS
330
EF
102
}
330
EF
100
AcDbVisualStyle
  2
Linepattern
 70
    14
177
     2
291
     1
 71
     2
176
     1
 72
     2
176
     1
 73
     1
176
     1
 90
        0
176
     1
 40
0.6
176
     1
 41
30.0
176
     1
 63
     7
176
     1
 74
     1
176
     1
 91
        4
176
     1
 64
     7
176
     1
 65
   257
176
     1
 75
     7
176
     1
175
     7
176
     1
 42
1.0
176
     1
 92
        8
176
     1
 66
     7
176
     1
 43
1.0
176
     1
 76
     1
176
     1
 77
     6
176
     1
 78
     2
176
     1
 67
     7
176
     1
 79
     5
176
     1
170
     0
176
     1
171
     0
176
     1
290
     0
176
     1
 93
        1
176
     1
 44
0.0
176
     1
173
     0
176
     1
1001
ACAD
1000
AcDbSavedByObjectVersion
1070
     0
  0
VISUALSTYLE
  5
1E5
102
{ACAD_XDICTIONARY
360
57BA
102
}
102
{ACAD_REACTORS
330
EF
102
}
330
EF
100
AcDbVisualStyle
  2
OverhangOff
 70
    21
177
     2
291
     1
 71
     2
176
     0
 72
     2
176
     0
 73
     0
176
     0
 90
        0
176
     0
 40
0.6
176
     0
 41
30.0
176
     0
 63
     7
176
     0
 74
     1
176
     0
 91
        4
176
     0
 64
     7
176
     0
 65
   257
176
     0
 75
     1
176
     0
175
     1
176
     0
 42
1.0
176
     0
 92
        9
176
     2
 66
     7
176
     0
 43
1.0
176
     0
 76
     1
176
     0
 77
     6
176
     0
 78
     2
176
     0
 67
     7
176
     0
 79
     5
176
     0
170
     0
176
     0
171
     0
176
     0
290
     0
176
     0
 93
        1
176
     0
 44
0.0
176
     0
173
     0
176
     0
1001
ACAD
1000
AcDbSavedByObjectVersion
1070
     0
  0
VISUALSTYLE
  5
F9
102
{ACAD_XDICTIONARY
360
57AA
102
}
102
{ACAD_REACTORS
330
EF
102
}
330
EF
100
AcDbVisualStyle
  2
Realistic
 70
     8
177
     2
291
     0
 71
     2
176
     1
 72
     2
176
     1
 73
     0
176
     1
 90
        2
176
     1
 40
0.6
176
     1
 41
30.0
176
     1
 63
     7
176
     1
 74
     0
176
     1
 91
        0
176
     1
 64
     7
176
     1
 65
   257
176
     1
 75
     1
176
     1
175
     1
176
     1
 42
1.0
176
     1
 92
        8
176
     1
 66
   257
176
     1
 43
1.0
176
     1
 76
     1
176
     1
 77
     6
176
     1
 78
     2
176
     1
 67
     7
176
     1
 79
     3
176
     1
170
     0
176
     1
171
     0
176
     1
290
     0
176
     1
 93
       13
176
     1
 44
0.0
176
     1
173
     0
176
     1
1001
ACAD
1000
AcDbSavedByObjectVersion
1070
     0
  0
VISUALSTYLE
  5
1F3
102
{ACAD_XDICTIONARY
360
57C6
102
}
102
{ACAD_REACTORS
330
EF
102
}
330
EF
100
AcDbVisualStyle
  2
Shaded
 70
    27
177
     2
291
     0
 71
     2
176
     1
 72
     2
176
     1
 73
     1
176
     1
 90
        2
176
     1
 40
0.6
176
     1
 41
30.0
176
     1
 63
     7
176
     1
 74
     0
176
     1
 91
        4
176
     1
 64
     7
176
     1
 65
   257
176
     1
 75
     1
176
     1
175
     1
176
     1
 42
1.0
176
     1
 92
        8
176
     1
 66
   257
176
     1
 43
1.0
176
     1
 76
     1
176
     1
 77
     6
176
     1
 78
     2
176
     1
 67
     8
176
     1
 79
     3
176
     1
170
     0
176
     1
171
     0
176
     1
290
     0
176
     1
 93
        5
176
     1
 44
0.0
176
     1
173
     0
176
     1
1001
ACAD
1000
AcDbSavedByObjectVersion
1070
     0
  0
VISUALSTYLE
  5
1F2
102
{ACAD_XDICTIONARY
360
57C4
102
}
102
{ACAD_REACTORS
330
EF
102
}
330
EF
100
AcDbVisualStyle
  2
Shaded with edges
 70
    26
177
     2
291
     0
 71
     2
176
     1
 72
     2
176
     1
 73
     1
176
     1
 90
        2
176
     1
 40
0.6
176
     1
 41
30.0
176
     1
 63
     7
176
     1
 74
     1
176
     1
 91
        2
176
     1
 64
     7
176
     1
 65
   257
176
     1
 75
     2
176
     1
175
     1
176
     1
 42
1.0
176
     1
 92
        8
176
     1
 66
   257
176
     1
 43
1.0
176
     1
 76
     1
176
     1
 77
     6
176
     1
 78
     2
176
     1
 67
     7
176
     1
 79
     3
176
     1
170
     0
176
     1
171
     0
176
     1
290
     0
176
     1
 93
        5
176
     1
 44
0.0
176
     1
173
     0
176
     1
1001
ACAD
1000
AcDbSavedByObjectVersion
1070
     0
  0
VISUALSTYLE
  5
1EF
102
{ACAD_XDICTIONARY
360
57BE
102
}
102
{ACAD_REACTORS
330
EF
102
}
330
EF
100
AcDbVisualStyle
  2
Shades of Gray
 70
    23
177
     2
291
     0
 71
     2
176
     1
 72
     2
176
     1
 73
     3
176
     1
 90
        0
176
     1
 40
0.6
176
     1
 41
30.0
176
     1
 63
     7
176
     1
 74
     2
176
     1
 91
        2
176
     1
 64
     7
176
     1
 65
     7
176
     1
 75
     1
176
     1
175
     1
176
     1
 42
40.0
176
     1
 92
        8
176
     1
 66
     7
176
     1
 43
1.0
176
     1
 76
     1
176
     1
 77
     6
176
     1
 78
     2
176
     1
 67
     7
176
     1
 79
     3
176
     1
170
     0
176
     1
171
     0
176
     1
290
     0
176
     1
 93
        1
176
     1
 44
0.0
176
     1
173
     0
176
     1
1001
ACAD
1000
AcDbSavedByObjectVersion
1070
     0
  0
VISUALSTYLE
  5
1F0
102
{ACAD_XDICTIONARY
360
57C0
102
}
102
{ACAD_REACTORS
330
EF
102
}
330
EF
100
AcDbVisualStyle
  2
Sketchy
 70
    24
177
     2
291
     0
 71
     1
176
     1
 72
     2
176
     1
 73
     2
176
     1
 90
        0
176
     1
 40
0.6
176
     1
 41
30.0
176
     1
 63
     7
176
     1
 74
     2
176
     1
 91
        2
176
     1
 64
     7
176
     1
 65
     7
176
     1
 75
     1
176
     1
175
     1
176
     1
 42
40.0
176
     1
 92
       11
176
     1
 66
     7
176
     1
 43
1.0
176
     1
 76
     1
176
     1
 77
     6
176
     1
 78
     2
176
     1
 67
     7
176
     1
 79
     6
176
     1
170
     0
176
     1
171
     0
176
     1
290
     0
176
     1
 93
        1
176
     1
 44
0.0
176
     1
173
     0
176
     1
1001
ACAD
1000
AcDbSavedByObjectVersion
1070
     0
  0
VISUALSTYLE
  5
FC
102
{ACAD_XDICTIONARY
360
57B0
102
}
102
{ACAD_REACTORS
330
EF
102
}
330
EF
100
AcDbVisualStyle
  2
Thicken
 70
    13
177
     2
291
     1
 71
     2
176
     1
 72
     2
176
     1
 73
     1
176
     1
 90
        0
176
     1
 40
0.6
176
     1
 41
30.0
176
     1
 63
     7
176
     1
 74
     1
176
     1
 91
        4
176
     1
 64
     7
176
     1
 65
   257
176
     1
 75
     1
176
     1
175
     1
176
     1
 42
1.0
176
     1
 92
       12
176
     1
 66
     7
176
     1
 43
1.0
176
     1
 76
     1
176
     1
 77
     6
176
     1
 78
     2
176
     1
 67
     7
176
     1
 79
     5
176
     1
170
     0
176
     1
171
     0
176
     1
290
     0
176
     1
 93
        1
176
     1
 44
0.0
176
     1
173
     0
176
     1
1001
ACAD
1000
AcDbSavedByObjectVersion
1070
     0
  0
VISUALSTYLE
  5
F6
102
{ACAD_XDICTIONARY
360
57A4
102
}
102
{ACAD_REACTORS
330
EF
102
}
330
EF
100
AcDbVisualStyle
  2
Wireframe
 70
     5
177
     2
291
     0
 71
     0
176
     1
 72
     2
176
     1
 73
     0
176
     1
 90
        0
176
     1
 40
0.6
176
     1
 41
30.0
176
     1
 63
     7
176
     1
 74
     1
176
     1
 91
        4
176
     1
 64
     7
176
     1
 65
   257
176
     1
 75
     1
176
     1
175
     1
176
     1
 42
1.0
176
     1
 92
        0
176
     1
 66
   257
176
     1
 43
1.0
176
     1
 76
     1
176
     1
 77
     6
176
     1
 78
     2
176
     1
 67
     7
176
     1
 79
     3
176
     1
170
     0
176
     1
171
     0
176
     1
290
     0
176
     1
 93
        1
176
     1
 44
0.0
176
     1
173
     0
176
     1
1001
ACAD
1000
AcDbSavedByObjectVersion
1070
     0
  0
VISUALSTYLE
  5
1F1
102
{ACAD_XDICTIONARY
360
57C2
102
}
102
{ACAD_REACTORS
330
EF
102
}
330
EF
100
AcDbVisualStyle
  2
X-Ray
 70
    25
177
     2
291
     0
 71
     2
176
     1
 72
     2
176
     1
 73
     1
176
     1
 90
        1
176
     1
 40
0.5
176
     1
 41
30.0
176
     1
 63
     7
176
     1
 74
     1
176
     1
 91
        0
176
     1
 64
     7
176
     1
 65
   257
176
     1
 75
     1
176
     1
175
     1
176
     1
 42
1.0
176
     1
 92
        8
176
     1
 66
     7
176
     1
 43
1.0
176
     1
 76
     1
176
     1
 77
     6
176
     1
 78
     2
176
     1
 67
     7
176
     1
 79
     3
176
     1
170
     0
176
     1
171
     0
176
     1
290
     0
176
     1
 93
       13
176
     1
 44
0.0
176
     1
173
     0
176
     1
1001
ACAD
1000
AcDbSavedByObjectVersion
1070
     0
  0
DICTIONARYVAR
  5
146
102
{ACAD_REACTORS
330
5E
102
}
330
5E
100
DictionaryVariables
280
     0
  1
1:1
  0
DICTIONARYVAR
  5
259
102
{ACAD_REACTORS
330
5E
102
}
330
5E
100
DictionaryVariables
280
     0
  1
3.500000
  0
DICTIONARYVAR
  5
25A
102
{ACAD_REACTORS
330
5E
102
}
330
5E
100
DictionaryVariables
280
     0
  1
acadiso.lin
  0
DICTIONARYVAR
  5
145
102
{ACAD_REACTORS
330
5E
102
}
330
5E
100
DictionaryVariables
280
     0
  1
STANDARD
  0
DICTIONARYVAR
  5
84
102
{ACAD_REACTORS
330
5E
102
}
330
5E
100
DictionaryVariables
280
     0
  1
STANDARD
  0
DICTIONARYVAR
  5
227
102
{ACAD_REACTORS
330
5E
102
}
330
5E
100
DictionaryVariables
280
     0
  1
Metric50
  0
DICTIONARYVAR
  5
228
102
{ACAD_REACTORS
330
5E
102
}
330
5E
100
DictionaryVariables
280
     0
  1
Metric50
  0
DICTIONARYVAR
  5
5F
102
{ACAD_REACTORS
330
5E
102
}
330
5E
100
DictionaryVariables
280
     0
  1
2
  0
DICTIONARYVAR
  5
5343
102
{ACAD_REACTORS
330
5E
102
}
330
5E
100
DictionaryVariables
280
     0
  1
2
  0
DICTIONARYVAR
  5
63
102
{ACAD_REACTORS
330
5E
102
}
330
5E
100
DictionaryVariables
280
     0
  1
1
  0
DICTIONARYVAR
  5
884
102
{ACAD_REACTORS
330
5E
102
}
330
5E
100
DictionaryVariables
280
     0
  1
BYLAYER
  0
DICTIONARYVAR
  5
883
102
{ACAD_REACTORS
330
5E
102
}
330
5E
100
DictionaryVariables
280
     0
  1
ByLayer
  0
DICTIONARYVAR
  5
27DA
102
{ACAD_REACTORS
330
5E
102
}
330
5E
100
DictionaryVariables
280
     0
  1
0
  0
DICTIONARYVAR
  5
1AE
102
{ACAD_REACTORS
330
5E
102
}
330
5E
100
DictionaryVariables
280
     0
  1
0
  0
DICTIONARYVAR
  5
1AF
102
{ACAD_REACTORS
330
5E
102
}
330
5E
100
DictionaryVariables
280
     0
  1
0
  0
DICTIONARYVAR
  5
27D8
102
{ACAD_REACTORS
330
5E
102
}
330
5E
100
DictionaryVariables
280
     0
  1
2
  0
DICTIONARYVAR
  5
6FD
102
{ACAD_REACTORS
330
5E
102
}
330
5E
100
DictionaryVariables
280
     0
  1
1.000000
  0
DICTIONARYVAR
  5
27D7
102
{ACAD_REACTORS
330
5E
102
}
330
5E
100
DictionaryVariables
280
     0
  1
1
  0
DICTIONARYVAR
  5
27D9
102
{ACAD_REACTORS
330
5E
102
}
330
5E
100
DictionaryVariables
280
     0
  1
127
  0
DICTIONARYVAR
  5
604
102
{ACAD_REACTORS
330
5E
102
}
330
5E
100
DictionaryVariables
280
     0
  1
中央
  0
DICTIONARY
  5
5797
102
{ACAD_REACTORS
330
5795
102
}
330
5795
100
AcDbDictionary
281
     1
  0
DICTIONARY
  5
5796
102
{ACAD_REACTORS
330
5795
102
}
330
5795
100
AcDbDictionary
281
     1
  3
140686559276416
350
5790
  3
140686559276432
350
5791
  3
140686559276448
350
5792
  3
140686559276464
350
5793
  3
140686559276480
350
5794
  0
DICTIONARY
  5
4E56
330
4256
100
AcDbDictionary
280
     1
281
     1
  3
ACAD_XREC_ROUNDTRIP
360
57CB
  0
DICTIONARY
  5
3FA6
330
21C
100
AcDbDictionary
280
     1
281
     1
  3
ACAD_XREC_ROUNDTRIP
360
57C9
  0
DICTIONARY
  5
534B
330
22
100
AcDbDictionary
280
     1
281
     1
  3
AcPublish_PlotSettingsOverride
360
534C
  0
DICTIONARY
  5
1F9
330
ED
100
AcDbDictionary
280
     1
281
     1
  3
FBXASSET
360
1FA
  0
DICTIONARY
  5
1F7
330
EC
100
AcDbDictionary
280
     1
281
     1
  3
FBXASSET
360
1F8
  0
DICTIONARY
  5
173
330
EE
100
AcDbDictionary
280
     1
281
     1
  3
BUMPTILE
360
175
  3
DIFFUSETILE
360
174
  3
FBXASSET
360
1FB
  3
OPACITYTILE
360
176
  3
REFLECTIONTILE
360
177
  0
DICTIONARY
  5
4E54
330
4255
100
AcDbDictionary
280
     1
281
     1
  3
ACAD_XREC_ROUNDTRIP
360
57CA
  0
DICTIONARY
  5
3FA4
330
21A
100
AcDbDictionary
280
     1
281
     1
  3
ACAD_XREC_ROUNDTRIP
360
57C8
  0
DICTIONARY
  5
162
330
7F
100
AcDbDictionary
280
     1
281
     1
  3
ACAD_ROUNDTRIP_2008_TABLESTYLE_CELLSTYLEMAP
360
578E
  0
DICTIONARY
  5
57A2
330
F5
100
AcDbDictionary
280
     1
281
     1
  3
ACAD_XREC_ROUNDTRIP
360
57A3
  0
DICTIONARY
  5
57A0
330
F4
100
AcDbDictionary
280
     1
281
     1
  3
ACAD_XREC_ROUNDTRIP
360
57A1
  0
DICTIONARY
  5
57AE
330
FB
100
AcDbDictionary
280
     1
281
     1
  3
ACAD_XREC_ROUNDTRIP
360
57AF
  0
DICTIONARY
  5
57B6
330
FF
100
AcDbDictionary
280
     1
281
     1
  3
ACAD_XREC_ROUNDTRIP
360
57B7
  0
DICTIONARY
  5
57A8
330
F8
100
AcDbDictionary
280
     1
281
     1
  3
ACAD_XREC_ROUNDTRIP
360
57A9
  0
DICTIONARY
  5
57AC
330
FA
100
AcDbDictionary
280
     1
281
     1
  3
ACAD_XREC_ROUNDTRIP
360
57AD
  0
DICTIONARY
  5
57BC
330
1E6
100
AcDbDictionary
280
     1
281
     1
  3
ACAD_XREC_ROUNDTRIP
360
57BD
  0
DICTIONARY
  5
57B4
330
FE
100
AcDbDictionary
280
     1
281
     1
  3
ACAD_XREC_ROUNDTRIP
360
57B5
  0
DICTIONARY
  5
5798
330
F0
100
AcDbDictionary
280
     1
281
     1
  3
ACAD_XREC_ROUNDTRIP
360
5799
  0
DICTIONARY
  5
579A
330
F1
100
AcDbDictionary
280
     1
281
     1
  3
ACAD_XREC_ROUNDTRIP
360
579B
  0
DICTIONARY
  5
579C
330
F2
100
AcDbDictionary
280
     1
281
     1
  3
ACAD_XREC_ROUNDTRIP
360
579D
  0
DICTIONARY
  5
579E
330
F3
100
AcDbDictionary
280
     1
281
     1
  3
ACAD_XREC_ROUNDTRIP
360
579F
  0
DICTIONARY
  5
57A6
330
F7
100
AcDbDictionary
280
     1
281
     1
  3
ACAD_XREC_ROUNDTRIP
360
57A7
  0
DICTIONARY
  5
57B8
330
1E4
100
AcDbDictionary
280
     1
281
     1
  3
ACAD_XREC_ROUNDTRIP
360
57B9
  0
DICTIONARY
  5
57B2
330
FD
100
AcDbDictionary
280
     1
281
     1
  3
ACAD_XREC_ROUNDTRIP
360
57B3
  0
DICTIONARY
  5
57BA
330
1E5
100
AcDbDictionary
280
     1
281
     1
  3
ACAD_XREC_ROUNDTRIP
360
57BB
  0
DICTIONARY
  5
57AA
330
F9
100
AcDbDictionary
280
     1
281
     1
  3
ACAD_XREC_ROUNDTRIP
360
57AB
  0
DICTIONARY
  5
57C6
330
1F3
100
AcDbDictionary
280
     1
281
     1
  3
ACAD_XREC_ROUNDTRIP
360
57C7
  0
DICTIONARY
  5
57C4
330
1F2
100
AcDbDictionary
280
     1
281
     1
  3
ACAD_XREC_ROUNDTRIP
360
57C5
  0
DICTIONARY
  5
57BE
330
1EF
100
AcDbDictionary
280
     1
281
     1
  3
ACAD_XREC_ROUNDTRIP
360
57BF
  0
DICTIONARY
  5
57C0
330
1F0
100
AcDbDictionary
280
     1
281
     1
  3
ACAD_XREC_ROUNDTRIP
360
57C1
  0
DICTIONARY
  5
57B0
330
FC
100
AcDbDictionary
280
     1
281
     1
  3
ACAD_XREC_ROUNDTRIP
360
57B1
  0
DICTIONARY
  5
57A4
330
F6
100
AcDbDictionary
280
     1
281
     1
  3
ACAD_XREC_ROUNDTRIP
360
57A5
  0
DICTIONARY
  5
57C2
330
1F1
100
AcDbDictionary
280
     1
281
     1
  3
ACAD_XREC_ROUNDTRIP
360
57C3
  0
XRECORD
  5
5790
102
{ACAD_REACTORS
330
5796
102
}
330
5796
100
AcDbXrecord
280
     1
  1
AcDb_Thumbnail_Schema
102
{ATTRRECORD
341
5791
  2
AcDbDs::TreatedAsObjectData
280
     1
291
     1
102
ATTRRECORD}
102
{ATTRRECORD
341
5792
  2
AcDbDs::Legacy
280
     1
291
     1
102
ATTRRECORD}
  2
AcDbDs::ID
280
    10
 91
        8
102
{ATTRRECORD
341
5793
  2
AcDs:Indexable
280
     1
291
     1
102
ATTRRECORD}
102
{ATTRRECORD
341
5794
  2
AcDbDs::HandleAttribute
280
     7
282
     1
102
ATTRRECORD}
  2
Thumbnail_Data
280
    15
 91
        0
  0
XRECORD
  5
5791
102
{ACAD_REACTORS
330
5796
102
}
330
5796
100
AcDbXrecord
280
     1
  1
AcDbDs::TreatedAsObjectDataSchema
  2
AcDbDs::TreatedAsObjectData
280
     1
 91
        0
  0
XRECORD
  5
5792
102
{ACAD_REACTORS
330
5796
102
}
330
5796
100
AcDbXrecord
280
     1
  1
AcDbDs::LegacySchema
  2
AcDbDs::Legacy
280
     1
 91
        0
  0
XRECORD
  5
5793
102
{ACAD_REACTORS
330
5796
102
}
330
5796
100
AcDbXrecord
280
     1
  1
AcDbDs::IndexedPropertySchema
  2
AcDs:Indexable
280
     1
 91
        0
  0
XRECORD
  5
5794
102
{ACAD_REACTORS
330
5796
102
}
330
5796
100
AcDbXrecord
280
     1
  1
AcDbDs::HandleAttributeSchema
  2
AcDbDs::HandleAttribute
280
     7
 91
        1
284
     1
  0
XRECORD
  5
57CB
102
{ACAD_REACTORS
330
4E56
102
}
330
4E56
100
AcDbXrecord
280
     1
102
DISPLAYNAME
  1
Imperial24
102
FLAGS
 90
        0
  0
XRECORD
  5
57C9
102
{ACAD_REACTORS
330
3FA6
102
}
330
3FA6
100
AcDbXrecord
280
     1
102
DISPLAYNAME
  1
Metric50
102
FLAGS
 90
        0
  0
PLOTSETTINGS
  5
534C
102
{ACAD_REACTORS
330
534B
102
}
330
534B
100
AcDbPlotSettings
  1

  2
KONICA MINOLTA C759
  4
A3
  6

 40
5.027082920074462
 41
5.027069091796875
 42
5.027099609375
 43
5.027069091796875
 44
296.9259948730469
 45
419.9466552734374
 46
-5.0
 47
-13.0
 48
0.0
 49
0.0
140
840.9999999999998
141
594.0
142
1.0
143
2.0
 70
 11936
 72
     1
 73
     1
 74
     4
  7
monochrome.ctb
 75
     0
147
0.3411079813835879
 76
     0
 77
     2
 78
   300
148
0.0
149
0.0
1001
ACAD_PSEXT
1000
KONICA MINOLTA C759
1000
KONICA MINOLTA C759SeriesPCL
1000
IP_192.168.0.55
1000

1070
     0
  0
XRECORD
  5
1FA
102
{ACAD_REACTORS
330
1F9
102
}
330
1F9
100
AcDbXrecord
280
     1
 70
     1
 90
429727718
  1
D62C5603-E3A1-4AEA-B7FB-FE5D8D0755AF
310
504B03040A0000080000CC70623B3DEE336E79000000790000001B0000006175746F6465736B2D64657369676E2D7061636B6167652E786D6C3C3F786D6C2076657273696F6E3D22312E302220656E636F64696E673D227574662D3822203F3E3C666F726D6174733E3C666F726D61743E687474703A2F2F736368656D612E
310
6175746F6465736B2E636F6D2F64657369676E2D7061636B6167652F323030393C2F666F726D61743E3C2F666F726D6174733E504B0304140006080800CC70623BD486FD9CA0000000F4000000130000005B436F6E74656E745F54797065735D2E786D6C7D8EC10E82300C865F65E91D8A1E8C310C0EEA1BF002731658846E
310
D98AC1B77784ABF1D8FE5FBFBF75BBCE937A534CCEB38643598122B6FEE978D0B0485F9C41B54DDD7D022595594E1A469170414C76A4D9A4D207E29CF43ECE46F218070CC6BECC4078ACAA135ACF422C856C0E68EA1BF5669944DDD7BCDE7B1F8E415D77AECB980613C2E4AC91FC167A2B244592486606FC29C8FD7F045B9A
310
EF7053A7E60B504B0304140006080800CC70623B853B8169EB0000007C01000008000000636F72652E786D6C8D90416EC3201045AF62CDB6C206821CC7C244919D9CA01740401C94182C03558F5F9C3852BBEB6A467FFE9B197D7EFC9E1EC5975982F5AE035262288C535E5B377690E21535501C055FBC8FBF6C503839990E
310
5619041F179FE64D52DE45E362569DD7661365082642A11EB9E920A89B99642953CC8E702F67A9EE7234257977194EC9EAE275C4EABCCF5EAD5940D4AC6F0E35A568B8F43562CD7046CD199FD07E60174276A7BE677B5EADB0E0D14EEFFB6A31321A0D82627C4084204C3F096B71DD52F6819B16635EADF63F509AF53FA164
310
5DDCD1EDDD17164090FCC8732078B56691CB33A85CD7DCC40F504B0304140006080800CC70623B55019EA25F0000007C00000007000000636E782E786D6C4DCB3B0E80201045D1AD90E915ED2CF8AC45050C11660C8261F98AB1B07AC9C97D42D718D865D3E909258CFD00CCE24AC6E326A164D74DC0B4128928FF32603847
310
2BA13128B1252AC747C6BAB984FC68F0B87FE8960A5C09FE86CFB69FBA01504B0304140006080800CC70623BDBABAAF470010000D40300000C0000006662782F636F72652E786D6CC553D16E823014FD95A6AF4B694182CC941A83FA05FB810A9511A125A5257EFE2E82712ECEB8A7F100CD39F7F69E734AF9FADC366850B6
310
AF8DCE7018308C942E4C59EB2AC3DE1D498AD15A706B8CFB56869196ADCAF00863C12B6B7C374385D14E6907A836A59A41D9F7CA615434B0C8705F7CAA5606D23BA8E84F41278B93AC54100640439DE0BDB320004D43C63716C7C399D30917DCFBBA9CD9BA8469F5B156168B24CED3F7248AC8769F27244EB73B92EED8862C
310
B7F13E0C179B3C8F979C8ECD82BBBABDAA2BAC924E9558448CBD9330242CFA08E3154B5651FCC6D215639C8EE5774DBE2B5F6CF2B5768B68963BB5F5588420E442FC700B1139D4CB01F450C1E918227C2E09DF070D8140C84E1E9AAB8F1340832A9CB13130A5F1376A908D57309505ECF2A0DF179C4E9D30F5B239B87E3823
310
7A79C6F31DE1A8A5AEC08474B03C7837EAE4938639B44E5932B833D2C6B6B279CDC613877FA26EE21F4A2A4C63EC7F29A2F301D1F9F7A0E37D145F504B0304140006080800CC70623B9C113CC27E0000009D0000000B0000006662782F636E782E786D6C4DCCDF0A83201C86E15B91DFB94BFB330DD428C8FB886521330DA7
310
6397BF1A1DECE883878F57749FCDA1B7892F1BBC047A23808C7F84D9FA55424E0BE6803A256208E9EF06C84F9B91703228B1C690F78B66B34CD9A5439DF5CF0BFBF65E35BCA1B8D6A5C6F540381E886698B5741C695F9503EBA150A2F8958E3DC3EA0B504B0304140006080800CC70623B7DF2F77C2A010000120200003100
310
00006662782F41393633353835312D344632462D344230382D423046372D3739314545314133324237412F636F72652E786D6C8D51DB8EC22014FC15C2939B0D2DB4B45643319AE817EC0F6041255A68B86CFCFC856D4D76DF7CE190393373060EDB3DC707F856CE6B6B7A480A0C81328395DA5C7B18C3057510EC3873D686
310
3F34088C18550F330C39BB3A1BA7051AAC09CA84841A2BD5020AEF55806078A44B0FFD7053A328440C89E1EFC52486BBB8AA8214A99D789CF9E05200300FC927E4FB4D5B375D43103D5527440FB843077C5AA3F5861C8F645F5787F59E95B390B318B55CE45AA638FAA2957BD7248B390B7A7CC51F9C124149C82B8C378810
310
84AB2F42B7B8DD56F413775B8C5999E9FF4471926F8AA236A1AE96B8B3CC434E5839373893369E1FAF30EA395917409EB7F26AF8801C171837A4A6AC9C89E9F9C9B1A58BA30FD6A5EF5DDDCF894B9AD9B6A59C957943A9FCAE2FD5BC4DFE03504B0304140006080800CC70623BAD7543B64E01000033030000300000006662
310
782F41393633353835312D344632462D344230382D423046372D3739314545314133324237412F636E782E786D6CD593CD6EC32010845F0571AD6CE3D48AD20813A9873E410FBD12D82434182C7EAAE6EDBB2424CD25871E7B41D6EC30B3FA84F9E67BB2E40B4234DE8DB46F1925E094D7C6ED479AD3AE5951B2113C789FEE
310
6C943839C1488B4C05DF079FE72A69D8C96C13AAD6B8631503449F83828872B949AC57D26200B826A308D316B4064D6E46FCDA41C05550DC9E483A00797BFD207EFB092A45DE9514C1BBD22178396BD39D891265658C238DEA00936C654E5E433CB65A26D9F6EDB5EBC14EBF49A45CB856E66048291F6939A9A81BB5C89177
310
38143CA680F4AA299D66A042CEB3354A2684DC9D8D178FE0D9B8B41CAAD720F880EE7EF93C0C18769E099ECC04D5A102C8049A8A05632F4DDF376CF1DE0F6BB65C2F8627B65A33C6BB62177CEBBDAD973006829F89F22E814B54F4BC2BE347F8AA8F681390B50FA73F804400B5F542E796F19FF974E7F78DB802FE05E20750
310
4B0304140006080800CC70623BE75B7789680500003C100000340000006662782F41393633353835312D344632462D344230382D423046372D3739314545314133324237412F6F626A656374732E786D6CAD575B8F9B3818FD2B887D06C22499CB8AA1CA655245D5B455A356FB305264C061D8018C6C3393D95FBFC7600890
310
A4CD5EF210B0B1BFEBF98E3F7B1FF6596ABC522E1296DF9BAE3D320D9A872C4AF2F8DE2CE5CEBA358D0FBEC719939D65A691938CDE9B6ADAF4BD98B3B2D05311DD91329583D9D5FC0F438434A7A611A644887B5384CF34233629258BA878B12322891DEFF6B66BD70BFB62634E8AE781D082709A4B588AF91C528CDA28B73F
310
1C998EEF39EABBEFA97FBD6A7C7E9553F9D3D79FE442923C3C523610337627CB87ABE99D359D4CC6D6E4FACAB5E6ABF9D2726FC6A3C5F56271377BB88362213924694B38DD99FE47C48627A1E7D49F5A8BB5E1A74C0A599ED3B0F21F1E56366B89112D681E218F0915D0D6F17AD41FBA2A369DCF6335D62ABBD39779D5DDD1
310
11D4D8DE3CBB96B2E04FB8202E41051754A1AA8E8F76B4C6DFE810B580B1547F4B84911149794252234D024EF8BBE963A95AE27B3D310A9D5C215C7960FAEE415ED75694C6AFB17BCACA5D99A60A9AA65F217B0BFC53292ACB92BF283FAD0D3621576592CB5BED907C2FA8E9DF794E35E97BEA31BED21FEB401ABB94C44839
310
DCACBF0E1C5DA8DA5B2F4DFFD32AD86F543D9E565E7056502E157C00AD2671CD534549AB752FCA9CDA00677A313F04E51B22FF19E57B300579E3C97EB29F682D92935CEC18CF901B7B54FD8C51F362B56FC72FE0B3C1EAE335EDCCBF5AEC39ADB17DC238973F804BA5E6F6BFE7AF1FB32E523BE9F3BD571418E3631DCA4D48
310
5250CF639223210A9446CA30052EDF057BD35F8329C1ECD84552BF0DC8D18BE7BCE23BFE6BD960AB4A7DE79923A103BEBD80F911CBAA2C60DB19B01CF164A5583B772EE6D3FFA56666CBCDA74DC97724A48F9A58967497E489C4D979006FD7A05E227A1EBDD0F737C623387A9C844D3709995625106D157315F8B8392CD4E0
310
A0B9A720C4BE9829CEF37EA1E13111214D53925356365ADA634861B52519DD27A00AEB808EAF0628E6F435519D446F45CF2C9CF5214F0A15B2F6D06B79DA3EE3CBF7F56780D2F4E7EF73A0F5E5B02A38D07DC852C6B7C1FBB6664213E0C39E3EBA7FF4E1AD23EA2829407C85E586727488B751B2DB9502BC7B228A3FD68B6E
310
A65A22397E690AA8D158D7E404EC8CDA235CC3B7D1898680131CEC2CDF2638C65196279577750F15884AEE19F94199155B92B13297978469D4F8D358DF0AEF7631E28DC8F0D9F437D5D39A83B2231A1D52D543813A824EF8D44BCFF2FA6A31BD1E8DAD87F1CCB526B3879935BF59CDADD5C37479BB1CDD4CA7B3556B516589
310
EF352754B706114D9C885EC9131DE6EFEB43D99AFE2391C2F958179413D7CFEF6B1B6DB1E7600F00DE6E5C67454A339A4BA2E0FBA85ED26F045D454F463DBFCE484C2F90F2E5E3666003662ED8F755951A7D1BECD5B30B550B2785C8E7320B7292A4838DDA71BBC863ED7613CAF659337A3354231D4FF4A182A54904C2898C
310
98B28C4AD0CE056CCF332A80986E571EE9DBC305BB5FEB7E509220A58D25CF042D712A806AC0AD0C657FDEF80D2D9CEAA2EE4D1C76F60BFE74219A06527D6F82DF6412526107381E55E353090704D085B52408A8913C4ED159D79BDA71BB4BC506F4831350EB6F975CD22D69BF7AC49B91A2C0A9DDA3D5CA36AD20FC478E37
310
E61844E2352865EBCB61A275A65283CAAA9DD27703B4102F5AF51EF5F573B75CBB5AD38BC845F7A49F82A0966A49C2E3EA5EA0ECD326CD965F1DB402C6FA8B51A4658C5C5E2EC9E214602E55810345408596591009A82E7E7FFACA19EEA299B14A0081A705CB3296EBC14CDF658DCD336EA6D1136881AAEB87B81AB9EE53D5
310
F5EB8BC8362082DA24122F98680A4E7930C01A0079749CEA14382A0783E5EBA5A10F8C098456A03D6A4AEB6BB881E2513747552A5DB22C7EDAF83BD5528081A365F7FF06504B0304140006080000CC70623B000000000000000000000000350000006662782F41393633353835312D344632462D344230382D423046372D37
310
39314545314133324237412F76657274696365732E62696E504B0304140006080800CC70623BF270F1330600000004000000360000006662782F41393633353835312D344632462D344230382D423046372D3739314545314133324237412F747269616E676C65732E62696E636660600000504B0304140006080000CC7062
310
3B000000000000000000000000370000006662782F41393633353835312D344632462D344230382D423046372D3739314545314133324237412F617474726962757465732E62696E504B0304140006080800CC70623B08DA0BD19000000041010000360000006662782F41393633353835312D344632462D344230382D4230
310
46372D3739314545314133324237412F6469726563746F72792E786D6C858F410AC3201045AF22B36F53E9A60B35CBEEBAE80D244E44489C6234F4F835464A48035D0DF398FF9F8AF63D0E6CC63039F212F8F9020C7D47C6792B21C5FE7403D62A1188E2E60C98D7234A5830286103A55745067B9D86B8A3CF9C7F90C11DE6
310
07FB144396D7B6A82D282E9A152AD114D5EF2CB866EEE831B8EEA07A7BB5A8D7D61A2BAAEB7FD5F70921FF497D00504B0304140006080800CC70623BEDD1DC58FD000000A00100003B0000006662782F41393633353835312D344632462D344230382D423046372D3739314545314133324237412F7265736F75726365732F
310
636F72652E786D6C8D504B6E833010BD0A9A6D65B00922041947112427E8052C33A156828DFCA97AFC9A40A576D7CDCCE87D344F8F9FBFE667F689CE6B6B3A6039850C8DB2A336530731DC4903D95970676DF82583CCC8193B5861107C72362E3BA4AC096842428D1D7107A5F7182053CF7474E0D507CE32973124857FE48B
310
540F3961CEF244279DE03EB81420DB9EAC1384436FA353E879B1B182C7A8C75DA3C7F453DF353A1075D537A7BA6464B8F535A99AE14A9A2BBD90E350DD183B5CFABE3AF262350B1EF4FC9351399401471025A527C218A1E53BAB5A5AB765F5469B96525EACF23FA6B88CFF34456DC2A1DCE36E360F82A5202F42F062ED2BAD
310
579969AFDD8A6F504B010214000A0000080000CC70623B3DEE336E79000000790000001B00000000000000000000000000000000006175746F6465736B2D64657369676E2D7061636B6167652E786D6C504B01021400140006080800CC70623BD486FD9CA0000000F40000001300000000000000000000000000B20000005B
310
436F6E74656E745F54797065735D2E786D6C504B01021400140006080800CC70623B853B8169EB0000007C010000080000000000000000000000000083010000636F72652E786D6C504B01021400140006080800CC70623B55019EA25F0000007C000000070000000000000000000000000094020000636E782E786D6C504B
310
01021400140006080800CC70623BDBABAAF470010000D40300000C00000000000000000000000000180300006662782F636F72652E786D6C504B01021400140006080800CC70623B9C113CC27E0000009D0000000B00000000000000000000000000B20400006662782F636E782E786D6C504B01021400140006080800CC70
310
623B7DF2F77C2A010000120200003100000000000000000000000000590500006662782F41393633353835312D344632462D344230382D423046372D3739314545314133324237412F636F72652E786D6C504B01021400140006080800CC70623BAD7543B64E010000330300003000000000000000000000000000D2060000
310
6662782F41393633353835312D344632462D344230382D423046372D3739314545314133324237412F636E782E786D6C504B01021400140006080800CC70623BE75B7789680500003C10000034000000000000000000000000006E0800006662782F41393633353835312D344632462D344230382D423046372D3739314545
310
314133324237412F6F626A656374732E786D6C504B01021400140006080000CC70623B0000000000000000000000003500000000000000000000000000280E00006662782F41393633353835312D344632462D344230382D423046372D3739314545314133324237412F76657274696365732E62696E504B01021400140006
310
080800CC70623BF270F133060000000400000036000000000000000000000000007B0E00006662782F41393633353835312D344632462D344230382D423046372D3739314545314133324237412F747269616E676C65732E62696E504B01021400140006080000CC70623B0000000000000000000000003700000000000000
310
000000000000D50E00006662782F41393633353835312D344632462D344230382D423046372D3739314545314133324237412F617474726962757465732E62696E504B01021400140006080800CC70623B08DA0BD1900000004101000036000000000000000000000000002A0F00006662782F41393633353835312D344632
310
462D344230382D423046372D3739314545314133324237412F6469726563746F72792E786D6C504B01021400140006080800CC70623BEDD1DC58FD000000A00100003B000000000000000000000000000E1000006662782F41393633353835312D344632462D344230382D423046372D3739314545314133324237412F7265
310
736F75726365732F636F72652E786D6C504B0506000000000E000E0080040000641100000000
  0
XRECORD
  5
1F8
102
{ACAD_REACTORS
330
1F7
102
}
330
1F7
100
AcDbXrecord
280
     1
 70
     1
 90
429727718
  1
30362254-06B7-45E0-A893-8CFA70E3D6BC
310
504B03040A0000080000CC70623B3DEE336E79000000790000001B0000006175746F6465736B2D64657369676E2D7061636B6167652E786D6C3C3F786D6C2076657273696F6E3D22312E302220656E636F64696E673D227574662D3822203F3E3C666F726D6174733E3C666F726D61743E687474703A2F2F736368656D612E
310
6175746F6465736B2E636F6D2F64657369676E2D7061636B6167652F323030393C2F666F726D61743E3C2F666F726D6174733E504B0304140006080800CC70623BD486FD9CA0000000F4000000130000005B436F6E74656E745F54797065735D2E786D6C7D8EC10E82300C865F65E91D8A1E8C310C0EEA1BF002731658846E
310
D98AC1B77784ABF1D8FE5FBFBF75BBCE937A534CCEB38643598122B6FEE978D0B0485F9C41B54DDD7D022595594E1A469170414C76A4D9A4D207E29CF43ECE46F218070CC6BECC4078ACAA135ACF422C856C0E68EA1BF5669944DDD7BCDE7B1F8E415D77AECB980613C2E4AC91FC167A2B244592486606FC29C8FD7F045B9A
310
EF7053A7E60B504B0304140006080800CC70623B1EC5D7A3EB0000007C01000008000000636F72652E786D6C8D90416EC3201045AF82665B6103C6756C6122AB4D4ED00B204C5C94182C03558F5F9C3852BBEB6A467FFE9B197D71FC9E6FE8CBACC17AD7032D0820E3B41FAD9B7A48F1820F808E52ACDEC75F36404ECDA687
310
4D0629A6D5A76597B477D1B89855E747B38B2A041301E95B6E7A08FAD3CCAA50296647B8168BD2573599823EBB0CA76447F43862C7BCCF5EAC59410E4DDD9C7973C2755553CCCFA4C603E3040F1565ED3B1FDE4E432BCA0D9622DAF9795FAF464533826484B498524CD807E51D79ED187F21878E10516EF63F505AC67F42C9
310
BA58B1FDDD071640D2FCC87D2045B96591CB3DA85CB7DCE40F504B0304140006080800CC70623B55019EA25F0000007C00000007000000636E782E786D6C4DCB3B0E80201045D1AD90E915ED2CF8AC45050C11660C8261F98AB1B07AC9C97D42D718D865D3E909258CFD00CCE24AC6E326A164D74DC0B4128928FF32603847
310
2BA13128B1252AC747C6BAB984FC68F0B87FE8960A5C09FE86CFB69FBA01504B0304140006080800CC70623B8C9102E971010000D40300000C0000006662782F636F72652E786D6CC5535B6E833010BC8AE5DF0A6C08340F1947A84D4ED00B38C6A128602363A31CBFCB234A53A551FA553EC09AD9F5CE8C31DB9E9B1AF5CA
310
7695D1198E428A91D2D214952E33ECDD315861B4E5CC1AE3BE9561A445A3323CC098B3D21ADFCE9034DA29ED00D5A6503328BA4E398C640D8B0C77F253352214DE4145770A5B214FA2546114020D759C75CE8200340D19DE981F0F6746269C33EFAB6266AB02A655C74A59CCF365BADC27CB5D902ED22848F6340DF238A141
310
BE88E2F57B92BFEDF23523433367AE6A2EEAA455C2A902F398D2751045018D3FA264435F3771F242571B4A1919CA6F9A7C5B3CD9E42BED16F12C776AEB308F40C848FC700B1139D4891EF410CEC810227CC6846F8386402064270EF5C5C709A05E49676C024C61FC95EA45ED154CA5211D1FF4FB8291A913A68E9B83EBBB33
310
E2A7673CDE118E5AE8124C0807CB8377834E366998436B950D7A7746DAD846D4CFD978E0F04FD455FC5D49D2D4C6FE9722321F10997F0F32DC47FE05504B0304140006080800CC70623BFFEA85907E0000009D0000000B0000006662782F636E782E786D6C4DCCD10A83201886E15B91FFDC95D95A811AB6F23E625948A6C3
310
E9D8E5AF46073BFAE0E1E365ED67B3E8ADC3CB78C7815C7240DA3DFC64DCC221C519D7805AC182F7F1EF06C88D9BE6703008B6049F9E274D7A1E938DBB5AE3D6131B2589BA0D3D965551E0B2EA732C9B9A624AAEB41E3A557677029960D9AFB4EF11165F504B0304140006080800CC70623B4FEEA4082C0100001202000031
310
0000006662782F39464131463745442D413632322D343644302D413938332D3331353338454246344243312F636F72652E786D6C8D515B6EC32010BC0AE2AB55850DD871ED0813254D72825EC00192A2C460F1A872FC42ED48ED5F7E00CDCECCCEB26C731F6FE05B39AFADE921293004CA082BB5B9F43086336A21D870E6AC
310
0D7F68109861543DCC30E4ECE26C9C164858139409093556AA051CBC570102714B8F1E7AF1A5C6A11862480C7F2DA6415C878B2A4891CA89C7990F2E050073937C42DE1DB7E4F87ED8A36D4329AA9B3D46DBAEAD504556557BD81DEBDD0761E52CE42C462D17B996298E3E6BE59E35C962CE821E1FF18553435012728A7187
310
0841987E927A8D9B35ADDF70BBC6989599FE4F1427F9A4286A132ABAC49D651EF234CD5CE04CDA78BA3DC2A8FB645D00B9DF8B57E215725C60BCA2A463E54C4CE327C7A65E1C7DB02E7DEFCBF594B864C5CA6CDBD49C957943E9FA5D5FBAF336F90F504B0304140006080800CC70623BAD7543B64E01000033030000300000
310
006662782F39464131463745442D413632322D343644302D413938332D3331353338454246344243312F636E782E786D6CD593CD6EC32010845F0571AD6CE3D48AD20813A9873E410FBD12D82434182C7EAAE6EDBB2424CD25871E7B41D6EC30B3FA84F9E67BB2E40B4234DE8DB46F1925E094D7C6ED479AD3AE5951B2113C
310
789FEE6C943839C1488B4C05DF079FE72A69D8C96C13AAD6B8631503449F83828872B949AC57D26200B826A308D316B4064D6E46FCDA41C05550DC9E483A00797BFD207EFB092A45DE9514C1BBD22178396BD39D891265658C238DEA00936C654E5E433CB65A26D9F6EDB5EBC14EBF49A45CB856E66048291F6939A9A81BB5
310
C8917738143CA680F4AA299D66A042CEB3354A2684DC9D8D178FE0D9B8B41CAAD720F880EE7EF93C0C18769E099ECC04D5A102C8049A8A05632F4DDF376CF1DE0F6BB65C2F8627B65A33C6BB62177CEBBDAD973006829F89F22E814B54F4BC2BE347F8AA8F681390B50FA73F804400B5F542E796F19FF974E7F78DB802FE05
310
E207504B0304140006080800CC70623B16AB87BA640500003C100000340000006662782F39464131463745442D413632322D343644302D413938332D3331353338454246344243312F6F626A656374732E786D6CAD575B6FA33818FD2B887DE6924B3BED8A326A92B68A663B534DD4D13E548A0C38942D60649B369D5FBFC7
310
600890A493BDE42160637FD7F31D7FF63E6FB3D478A55C242CBF3247B66B1A340F5994E4F19559CA8D75611A9F7D8F33263BCB4C232719BD32D5B4E97B316765A1A722BA21652A07B3B7B33F0D11D29C9A46981221AE4C113ED38CD8A4942CA2E2C58E882476BCD9DA23BB5ED8171B73523C0F841684D35CC252CCE79062D4
310
468DFA43D7747CCF51DF7D4FFDEB5593E3AB9CCA9FBEFE241792E4E19EB28198C968BAB8199F5D5A67D3E9C49A9E8F47D6EC76B6B0469F26EEFC7C3EBFBCBEB98462213924694B38DD98FE1D62C393D073EA4FADC5DAF04326852CCF6958F90F0F2B9BB5C48816348F90C7840A68EB78EDF68723159BCEE7891A6B95DDE9D3
310
BCEAEEE8086A6C6F9E5D4B59F0175C10A7A0820BAA5055C7473B5AE3CFDD452D602CD5DF12616444529E90D448938013FE6EFA58AA96F85E4F8C42275708571E98FE6827AF6B2B4AE3D7D83D64E5A64C53054DD3AF90BD06FEA9149565C94FCA0F6B834DC85599E4F2423B24DF0B6AFA979E534DFA9E7A4CC6FA631D486393
310
921829879BF5D781A373557BCB85E97FB90DB62B558F8795179C15944B051F40AB495CF35451D26A4727654E6D8033BD98EF82F21D91FF8AF2DD9982BCF1643BDD4EB516C9492E368C67C88DED563FC36D5EACF66DFF057C3658BDBFA69DF9578B3DA735B64F18C7F20770A9D45CFCF7FCF563D6456A277DBEF78A02637CA2
310
43B90A490AEAB94F72244481D24819A6C0E59B606BFA4B3025981DBB48EAB701D97BF19C577CC77F2D1B6C55A9EF3C732474C0B727303F625995056C3B02963D9EAC146BE78EC5FCEC7FA999EBC5EACBAAE41B12D27B4D2C0BBA49F244E2ECDC81B76B502F113D8F5EE8FB1BE3111CDD4FC2AA9B844CAB1288B68AB90A7CDC
310
1C166AB0D3DC5310625FCC14E779BFD0709F8890A629C9292B1B2DED31A4B0DA928CEE135085754027E3018A397D4D5427D15BD1330B677DC8934285AC3DF45A9EB68FF8F2B8FC0A509AFEECFD0FF2DE25CC6047F7214B195F07EFEB9A094D800F7BFAE8FED187B78EA8A3A400F115961BCAD1215E47C966530AF0EE8128FE
310
58CEBB996A8964FFA529A046635D9353B0336A8F700DDF46271A024E70B0B37C9DE01847591E54DED53D54202AB947E4076556AC49C6CA5C9E1226B7F1A7B1BE15DEED62C41B91E1B3E9AFAAA735036547343A925075041DF0A9979E893B391F8FCFA6967B3EFB644DCF6E5CEBFAE272625DCC6FAF3FB93793C5F90CE1EF57
310
407342756B10D1C489E8953CD1617E5CEECAD6F4EF8914CE5D5D504E5C3F1F9736DA62CFC11E00BCDDB8CC8A9466349744C1F75EBDA4DF09BA8A9E8C7A7E9991989E20E5DBDD6A6003664ED8F7A04A8DBE0DF6EAD9B9AA858342E47399053949D2C146EDB85DE4B176BB0965FBAC19BD19AA918E27FA50C1D22402E144464C
310
59462568E704B6E71915404CB72B8FF4EDE184DDAF753F284990D2C6926782963815403548A70C657FDEF80D2D9CEAA2AE4C1C76F60BFE74219A06527D6582DF6412526107381E55E353090704D085B52408D0933C4ED159D79BDA71BB4BC506F4831350EB6F979CD22D69BF7AC49B91A2C0A9DDA3D5CA36AD20FC478E37E6
310
1844E2352865EBCB6EA275A652E3836BE04EFB400BF1A2556F515F1FBB35B2AB35BD889C744FFA1004B5544B121E57F70215746DD2F5E2C1412B602CBF19455AC6C8E5E9922C4E01E65215385004546899059180EAFCF7A707CE7017CD8CDB0410789AB32C63B91E5CEBBBACB17AC6CD347A022D5075FD106377347AAABA7E
310
7D11590744509B44E205134DC1290F06580320F78E537D3D73540E06CB970B431F185308AD40BBD794D6D77003C5A36E8EAA54BA64597CD8F83BD552A080A365F7FF06504B0304140006080000CC70623B000000000000000000000000350000006662782F39464131463745442D413632322D343644302D413938332D3331
310
353338454246344243312F76657274696365732E62696E504B0304140006080800CC70623BF270F1330600000004000000360000006662782F39464131463745442D413632322D343644302D413938332D3331353338454246344243312F747269616E676C65732E62696E636660600000504B0304140006080000CC70623B
310
000000000000000000000000370000006662782F39464131463745442D413632322D343644302D413938332D3331353338454246344243312F617474726962757465732E62696E504B0304140006080800CC70623B08DA0BD19000000041010000360000006662782F39464131463745442D413632322D343644302D413938
310
332D3331353338454246344243312F6469726563746F72792E786D6C858F410AC3201045AF22B36F53E9A60B35CBEEBAE80D244E44489C6234F4F835464A48035D0DF398FF9F8AF63D0E6CC63039F212F8F9020C7D47C6792B21C5FE7403D62A1188E2E60C98D7234A5830286103A55745067B9D86B8A3CF9C7F90C11DE607
310
FB144396D7B6A82D282E9A152AD114D5EF2CB866EEE831B8EEA07A7BB5A8D7D61A2BAAEB7FD5F70921FF497D00504B0304140006080800CC70623B0D6EF93BFE000000A00100003B0000006662782F39464131463745442D413632322D343644302D413938332D3331353338454246344243312F7265736F75726365732F63
310
6F72652E786D6C8D50596E833010BD0A9ADFCA60B334011947A8694ED00B586642AC041B79A97AFC9A40A5F6AF3F33A3B7689E1E3F7DCD8FEC139DD7D6F4C0720A191A65476DA61E62B892236427C19DB5E1970C322367EC618541F0C9D9B8EC90B226A009093576C41D94DE63804C3DD2D18357379C652E63480A7FCF17A9
310
EE72C29CE5894E3AC17D702940B63D59270887DE46A7D0F36263058F518FBB468FE9A7BE6A7420864373B8D4873369AA8691FA421B3294352543C5CAF65C0F6FEF43CB8BD52C78D0F34F46E550061C419494B6843142CB0F5677F4B52BEB177AEC28E5C52AFF638ACBF84F53D42654E51E77B379102C05791282176B5F693D
310
CB4C7BED567C03504B010214000A0000080000CC70623B3DEE336E79000000790000001B00000000000000000000000000000000006175746F6465736B2D64657369676E2D7061636B6167652E786D6C504B01021400140006080800CC70623BD486FD9CA0000000F40000001300000000000000000000000000B20000005B
310
436F6E74656E745F54797065735D2E786D6C504B01021400140006080800CC70623B1EC5D7A3EB0000007C010000080000000000000000000000000083010000636F72652E786D6C504B01021400140006080800CC70623B55019EA25F0000007C000000070000000000000000000000000094020000636E782E786D6C504B
310
01021400140006080800CC70623B8C9102E971010000D40300000C00000000000000000000000000180300006662782F636F72652E786D6C504B01021400140006080800CC70623BFFEA85907E0000009D0000000B00000000000000000000000000B30400006662782F636E782E786D6C504B01021400140006080800CC70
310
623B4FEEA4082C0100001202000031000000000000000000000000005A0500006662782F39464131463745442D413632322D343644302D413938332D3331353338454246344243312F636F72652E786D6C504B01021400140006080800CC70623BAD7543B64E010000330300003000000000000000000000000000D5060000
310
6662782F39464131463745442D413632322D343644302D413938332D3331353338454246344243312F636E782E786D6C504B01021400140006080800CC70623B16AB87BA640500003C1000003400000000000000000000000000710800006662782F39464131463745442D413632322D343644302D413938332D3331353338
310
454246344243312F6F626A656374732E786D6C504B01021400140006080000CC70623B0000000000000000000000003500000000000000000000000000270E00006662782F39464131463745442D413632322D343644302D413938332D3331353338454246344243312F76657274696365732E62696E504B01021400140006
310
080800CC70623BF270F133060000000400000036000000000000000000000000007A0E00006662782F39464131463745442D413632322D343644302D413938332D3331353338454246344243312F747269616E676C65732E62696E504B01021400140006080000CC70623B0000000000000000000000003700000000000000
310
000000000000D40E00006662782F39464131463745442D413632322D343644302D413938332D3331353338454246344243312F617474726962757465732E62696E504B01021400140006080800CC70623B08DA0BD190000000410100003600000000000000000000000000290F00006662782F39464131463745442D413632
310
322D343644302D413938332D3331353338454246344243312F6469726563746F72792E786D6C504B01021400140006080800CC70623B0D6EF93BFE000000A00100003B000000000000000000000000000D1000006662782F39464131463745442D413632322D343644302D413938332D3331353338454246344243312F7265
310
736F75726365732F636F72652E786D6C504B0506000000000E000E0080040000641100000000
  0
XRECORD
  5
175
102
{ACAD_REACTORS
330
173
102
}
330
173
100
AcDbXrecord
280
     1
270
     1
271
     1
  0
XRECORD
  5
174
102
{ACAD_REACTORS
330
173
102
}
330
173
100
AcDbXrecord
280
     1
270
     1
271
     1
  0
XRECORD
  5
1FB
102
{ACAD_REACTORS
330
173
102
}
330
173
100
AcDbXrecord
280
     1
 70
     0
 90
1673772943
  1
ECE7A1D2-D628-4531-984C-D00F80459256
310
504B03040A0000080000CC70623B3DEE336E79000000790000001B0000006175746F6465736B2D64657369676E2D7061636B6167652E786D6C3C3F786D6C2076657273696F6E3D22312E302220656E636F64696E673D227574662D3822203F3E3C666F726D6174733E3C666F726D61743E687474703A2F2F736368656D612E
310
6175746F6465736B2E636F6D2F64657369676E2D7061636B6167652F323030393C2F666F726D61743E3C2F666F726D6174733E504B0304140006080800CC70623BD486FD9CA0000000F4000000130000005B436F6E74656E745F54797065735D2E786D6C7D8EC10E82300C865F65E91D8A1E8C310C0EEA1BF002731658846E
310
D98AC1B77784ABF1D8FE5FBFBF75BBCE937A534CCEB38643598122B6FEE978D0B0485F9C41B54DDD7D022595594E1A469170414C76A4D9A4D207E29CF43ECE46F218070CC6BECC4078ACAA135ACF422C856C0E68EA1BF5669944DDD7BCDE7B1F8E415D77AECB980613C2E4AC91FC167A2B244592486606FC29C8FD7F045B9A
310
EF7053A7E60B504B0304140006080800CC70623BD9DDAED0EC0000007C01000008000000636F72652E786D6C8D90416EC3201045AF82665B61836D9CD8C2444DD39CA01740405C94182C03558F5F9C3852BBEB6A467FFE9B197D7EF89E6EE8CB2CC17A37002D0820E394D7D68D03A478C17B4007C117EFE32F1B20272733C0
310
2A83E0E3E2D3BC49CABB685CCCAAF3DA6CA20CC14440EA969B0182FA34932C648AD911AEC52CD5558EA6A0CF2EC329598D1E47ACCEFBECC59A050463A7EA5833865FEBDD0E37353BE3EE8DBDE3F6786A48D375FBF6CC78B9C282473B3DEFABC5C86834888A900E538A49F5419B9EB47DD5BC907D4F082F57FB1F28CDFA9F50
310
B22ED6D5F6EE030B20687EE43E10BC5CB3C8E51E54AE6B6EE207504B0304140006080800CC70623B55019EA25F0000007C00000007000000636E782E786D6C4DCB3B0E80201045D1AD90E915ED2CF8AC45050C11660C8261F98AB1B07AC9C97D42D718D865D3E909258CFD00CCE24AC6E326A164D74DC0B4128928FF326038
310
472BA13128B1252AC747C6BAB984FC68F0B87FE8960A5C09FE86CFB69FBA01504B0304140006080800CC70623BA24EB22D72010000D40300000C0000006662782F636F72652E786D6CC5535B6E833010BC8AE5DF0A6C5E49888CA3A6694ED00B38E05014B091B1518EDFE511A5A9D228FD2A1F60CDEC7A67C6986DCE4D8D7A
310
69BA4AAB0C073EC548AA5C17952A33ECECD15B61B4E1CC686DBF9561A44423333CC098B3D268D7CE50AE9595CA02AA74216750749DB418E5352C32DCE59FB211BE70162ABA93DF8AFC244AE9073ED050C759670D0840D390E18DF9F1706664C23973AE2A66B62A605A75ACA4C13C4976E1364A12EF355A2EBD384AF65EFA96
310
BC7B8BED2EA6719AAE16FB8491A199335B351775B991C2CA02F390D2D40B028F861F41BCA68B7518BFD0D59A524686F29B26D7164F36B94AD9289CE54E6D1DE6010819891F6E21228B3AD1831EC219194284CF98F06DD01008846CC5A1BEF83801D4CBDC6A1303536877A57A513B0953A94FC707FDBE6064EA84A9E3E6E0FA
310
EE8CF0E9198F7784A316AA0413C2C2F2E0ECA0934D1AE6D05A69BCDE9E91D2A611F573361E38FC1375157F5752AE6B6DFE4B11990F88CCBF0719EE23FF02504B0304140006080800CC70623B408A7D3B7C0000009D0000000B0000006662782F636E782E786D6C4DCCD10A83201886E15B91FFDC552A92A0064DBC8F581632
310
D3703A76F9ABD1C18E3E78F878E5F0D9027ABBFCF2292AE86E2D20171F69F6715550CB827B40839639A5F2770314A7CD293819B45C73AAFB45B35BA61ACAA1C1C7E7855C58C15BC331339661262CC762340413D68D77DA5B42298546CBE6573AF60CEB2F504B0304140006080800CC70623B449FB9BD290100001202000031
310
0000006662782F36394639363044362D344446342D343946362D394244322D3234314243333846323333332F636F72652E786D6C8D515B6EC32010BC0AE22B55850D98B871848994463E412FE002495162B07854397EA176A4F62F3F2C9A9D991D587EB84F37F0AD7D30CEF6905418026DA553C65E7A98E219ED203808EE9D
310
8B7F6810D871D23D2C3014FCE25D9A57483A1BB58D19B54EE9151C43D0110279CB971E06F9A5A7B11A53CC8C70ADE6515EC78BAE4895DB992778883E0700CB907242D17643D7E2538BD869608875438BBAE38922CAC8F1BDD90DB4691A5E2F42C153326A951B95E398B3D1FE599322163C9AE9115F7A3D46ADA0A018778810
310
84E907617BDCEE297BC5BB3DC6BC2EF47FA234AB2745C9D8D8D035EE220B50105E2F0DC1954B9FB747187D9F9D8FA0CCDB042D5FA0C015C65B42DF78BD10F3F3B363CB56C7109DCFDFBBB97E662ED92EB62D13BC2E1BCAE5777DB9966D8A1F504B0304140006080800CC70623BAD7543B64E01000033030000300000006662
310
782F36394639363044362D344446342D343946362D394244322D3234314243333846323333332F636E782E786D6CD593CD6EC32010845F0571AD6CE3D48AD20813A9873E410FBD12D82434182C7EAAE6EDBB2424CD25871E7B41D6EC30B3FA84F9E67BB2E40B4234DE8DB46F1925E094D7C6ED479AD3AE5951B2113C789FEE
310
6C943839C1488B4C05DF079FE72A69D8C96C13AAD6B8631503449F83828872B949AC57D26200B826A308D316B4064D6E46FCDA41C05550DC9E483A00797BFD207EFB092A45DE9514C1BBD22178396BD39D891265658C238DEA00936C654E5E433CB65A26D9F6EDB5EBC14EBF49A45CB856E66048291F6939A9A81BB5C89177
310
38143CA680F4AA299D66A042CEB3354A2684DC9D8D178FE0D9B8B41CAAD720F880EE7EF93C0C18769E099ECC04D5A102C8049A8A05632F4DDF376CF1DE0F6BB65C2F8627B65A33C6BB62177CEBBDAD973006829F89F22E814B54F4BC2BE347F8AA8F681390B50FA73F804400B5F542E796F19FF974E7F78DB802FE05E20750
310
4B0304140006080800CC70623B8D05915C650500003B100000340000006662782F36394639363044362D344446342D343946362D394244322D3234314243333846323333332F6F626A656374732E786D6CAD575B6FA33814FE2B887D06429276DA1565D4266D158D3A339A6846FB502932E050B66023DB74D2FDF5FB190C01
310
9276B2973C046C8ECFF53B17071F77456EBD502133CEAE6CDF9DD81665314F32965ED995DA3A17B6F5310C04E7AA47665B8C14F4CAD6DB7618A48257A5D94AE89654B91AEDDEDDFC61C998326A5B714EA4BCB265FC440BE2924AF184CA6737218AB8E976E7FA6E4338649B0A523E8D98964450A6A029F619B8588D52FE7039
310
B1BD30F0F4F730D0FF866AF6369557DB33949F31A9088B0F848DD8CCFCF9F2767A76E99CCDE733677E3EF59D9BBB9BA5E37F984D16E78BC5E5F5ED25044B25C0C96822E8D60EEFE11B91C581D77CEA34368A1F5329E68CD1B8B61F16D63A1B8E092D294B10C78C4A48EB593D192E7DED9BDEE7995E1B91FDEDD3ACEA9FE831
310
6A756F9F7D4D79F4274C90A7A04248AA51D5F8C718DAE06FB2F75AC4796EBE65D22A88A22223B995679120E2D50E41AA49C260C046A35368846B0BECD0DFF3EBEB8AD4F835768F69B9ADF25C43D30E6B646F807FAA64AD59F61715C7A54127C4AACA98BA3006A9D792DAE165E0D59B61A01FB3A9F9D838D2DAE62445C86166
310
F37564E842E7DE6A69879FEEA2DD5AE7E371E1A5E025154AC307D06A03D73EB5978C58FFA4C8E9033066E0F3BD53BEC1F39F91BE7B55103791EDE6BBB991A2046172CB4581D8B893FA674DDA17A77B3B7C413D1B511FD2743BFF8A38F03A658705E3ADF8015C3A3417FF3D7E439FF591DA0B5F18BC20C1B8981957AE6392A3
310
F43C640C01D1A0B4728E2DD4F26DB4B3C3152A252A3B4E913CEC1C72F012782FF88EFF8637AA552DBEF76408E8A8DE9E50F9E1CB3A2DA0DB1B6039A893B56063DC5B3E3FFB5F72E67AB9FEB4AEC496C4F4C1149625DD662C53E89D7BF0F6151A046260D1337DFDC94502430F83B0EE07A130A224BCAD7DAE1D9FB6CD422FF6
310
920702629C4BB9AE79C12F243C6432A6794E18E5552BA56B431AAB5D91317302B2B071E86C3A42B1A02F999E24061403B5D0EB639195DA655DD3EBEAB4FB862DDF579F014AD0E73C22F99E28DA57FB98E75C6CA2D74D53086D600F4786E0FE3144B771A8A7B900F03594DB8A633CBC49B2EDB69228BB479CF863B5E807AAAB
310
23872F6DFEB4129B949CA33823F58830E86D65621E10047D9DB34D862E8EAC3C2ABC2F7B2C40D67CDFE01F5545B92105AF983AC54D93D69E56FB8E797F88913F898A9FEC705D3F9D1B54EC8426FB500D40A03BD0119B06E1B95DDC7EB8F6975367793EBD70E66733DFB9BC982F9CE564727731999F5D4ECFCE3B8D6A4DC2A0
310
6D50FD148437D110834A64C6CDDF57FBACB5C307A2A477DFE4939736CFEF2B175371E0E10CF0DD1D5C15654E0BCA14D1E87DD02FF93782A162C0A3D95F1524A52770F972BF1EE9809D13CE7DD599467F8ECE9ADD85CE85A34CD45355448C64F9E8A031DC2D596ACC6E5DD93D9B82DE2EF5CAF81363A8E47996A0DE24564A79
310
4115AACE09C55E14540231FDA13C319787134EBF34E3A022514E5B4D9E0826E25C02D5805B15ABE1BEF51B26383D445DD9E875EE33FE4C22DA16427D65A3BCA92CA6D28DD01DF5DC53330704308475351050232CCD31583787BA75774AFB06E5070DD0C8EF484E19968C5D83BA5B90B244D31E54D55A372320FE4786B7EA58
310
44E135AA5467CB7EA333A61683CC6A8C3257034C10CF46F40EF9F5BE59BE5BD30C3C72D235E95D10345C1D45445A5F0BB47E46A5EBE5570F9380B5FA629579952296A773720405982B9DE04011506178964401AA8BDF1FBF0A8EAB6861DD6580C0E38217056766716DAEB2D6FA0917D3E4116581EADB879C4E7CFFB11EFACD
310
3D641311495D92C8676CB409A72D18610D803CE8A626049E8EC1887CB5B44CC39883690DDA8399B4B9855B481E7D71D4A9D22F96E5BB73BF5793020C02137BF837504B0304140006080000CC70623B000000000000000000000000350000006662782F36394639363044362D344446342D343946362D394244322D32343142
310
43333846323333332F76657274696365732E62696E504B0304140006080800CC70623BF270F1330600000004000000360000006662782F36394639363044362D344446342D343946362D394244322D3234314243333846323333332F747269616E676C65732E62696E636660600000504B0304140006080000CC70623B0000
310
00000000000000000000370000006662782F36394639363044362D344446342D343946362D394244322D3234314243333846323333332F617474726962757465732E62696E504B0304140006080800CC70623B08DA0BD19000000041010000360000006662782F36394639363044362D344446342D343946362D394244322D
310
3234314243333846323333332F6469726563746F72792E786D6C858F410AC3201045AF22B36F53E9A60B35CBEEBAE80D244E44489C6234F4F835464A48035D0DF398FF9F8AF63D0E6CC63039F212F8F9020C7D47C6792B21C5FE7403D62A1188E2E60C98D7234A5830286103A55745067B9D86B8A3CF9C7F90C11DE607FB14
310
4396D7B6A82D282E9A152AD114D5EF2CB866EEE831B8EEA07A7BB5A8D7D61A2BAAEB7FD5F70921FF497D00504B0304140006080800CC70623BCA768048FE000000A00100003B0000006662782F36394639363044362D344446342D343946362D394244322D3234314243333846323333332F7265736F75726365732F636F72
310
652E786D6C8D50596E833010BD0A9ADFCA60D600328E9AA639412F609909B1126CE4A5EAF16B0295DABFFECC8CDEA2797AECF8353F924FB44E193D409E5248504B332A3D0D10FC95B4901C39B3C6F85F3248B49871801506CE266BC2B243D2688FDA47549B11775038871E12F988C7004EDE7016A9083E2ADC3D5D84BC8B09
310
D33C8D74D471E6BC8D0192EDC93A815B742658898E651BCB59086ADC356A8C3FD555A1055ED7E7E254D615792D0F075295F585746FF53B694EE78A565DD736979A65AB9933AFE69F8CD2A2F038022F28ED489E135A7CE4554F9BBEA85E68DB53CAB255FEC71496F19FA6A0B42F8B3DEE6673C0F318E4497096AD7DC5F52C33
310
EEB55BFE0D504B010214000A0000080000CC70623B3DEE336E79000000790000001B00000000000000000000000000000000006175746F6465736B2D64657369676E2D7061636B6167652E786D6C504B01021400140006080800CC70623BD486FD9CA0000000F40000001300000000000000000000000000B20000005B436F
310
6E74656E745F54797065735D2E786D6C504B01021400140006080800CC70623BD9DDAED0EC0000007C010000080000000000000000000000000083010000636F72652E786D6C504B01021400140006080800CC70623B55019EA25F0000007C000000070000000000000000000000000095020000636E782E786D6C504B0102
310
1400140006080800CC70623BA24EB22D72010000D40300000C00000000000000000000000000190300006662782F636F72652E786D6C504B01021400140006080800CC70623B408A7D3B7C0000009D0000000B00000000000000000000000000B50400006662782F636E782E786D6C504B01021400140006080800CC70623B
310
449FB9BD290100001202000031000000000000000000000000005A0500006662782F36394639363044362D344446342D343946362D394244322D3234314243333846323333332F636F72652E786D6C504B01021400140006080800CC70623BAD7543B64E010000330300003000000000000000000000000000D20600006662
310
782F36394639363044362D344446342D343946362D394244322D3234314243333846323333332F636E782E786D6C504B01021400140006080800CC70623B8D05915C650500003B10000034000000000000000000000000006E0800006662782F36394639363044362D344446342D343946362D394244322D32343142433338
310
46323333332F6F626A656374732E786D6C504B01021400140006080000CC70623B0000000000000000000000003500000000000000000000000000250E00006662782F36394639363044362D344446342D343946362D394244322D3234314243333846323333332F76657274696365732E62696E504B010214001400060808
310
00CC70623BF270F13306000000040000003600000000000000000000000000780E00006662782F36394639363044362D344446342D343946362D394244322D3234314243333846323333332F747269616E676C65732E62696E504B01021400140006080000CC70623B00000000000000000000000037000000000000000000
310
00000000D20E00006662782F36394639363044362D344446342D343946362D394244322D3234314243333846323333332F617474726962757465732E62696E504B01021400140006080800CC70623B08DA0BD190000000410100003600000000000000000000000000270F00006662782F36394639363044362D344446342D
310
343946362D394244322D3234314243333846323333332F6469726563746F72792E786D6C504B01021400140006080800CC70623BCA768048FE000000A00100003B000000000000000000000000000B1000006662782F36394639363044362D344446342D343946362D394244322D3234314243333846323333332F7265736F
310
75726365732F636F72652E786D6C504B0506000000000E000E0080040000621100000000
  0
XRECORD
  5
176
102
{ACAD_REACTORS
330
173
102
}
330
173
100
AcDbXrecord
280
     1
270
     1
271
     1
  0
XRECORD
  5
177
102
{ACAD_REACTORS
330
173
102
}
330
173
100
AcDbXrecord
280
     1
270
     1
271
     1
  0
XRECORD
  5
57CA
102
{ACAD_REACTORS
330
4E54
102
}
330
4E54
100
AcDbXrecord
280
     1
102
DISPLAYNAME
  1
Imperial24
102
FLAGS
 90
        0
  0
XRECORD
  5
57C8
102
{ACAD_REACTORS
330
3FA4
102
}
330
3FA4
100
AcDbXrecord
280
     1
102
DISPLAYNAME
  1
Metric50
102
FLAGS
 90
        0
  0
CELLSTYLEMAP
  5
578E
102
{ACAD_REACTORS
330
162
102
}
330
162
100
AcDbCellStyleMap
 90
        3
300
CELLSTYLE
  1
TABLEFORMAT_BEGIN
 90
        5
170
     1
 91
        0
 92
    32768
 62
   257
 93
        1
300
CONTENTFORMAT
  1
CONTENTFORMAT_BEGIN
 90
        0
 91
        0
 92
      512
 93
        0
300

 40
0.0
140
1.0
 94
        5
 62
     0
340
11
144
6.0
309
CONTENTFORMAT_END
171
     1
301
MARGIN
  1
CELLMARGIN_BEGIN
 40
1.5
 40
1.5
 40
1.5
 40
1.5
 40
4.5
 40
4.5
309
CELLMARGIN_END
 94
        6
 95
        1
302
GRIDFORMAT
  1
GRIDFORMAT_BEGIN
 90
        0
 91
        1
 62
     0
 92
       -2
340
14
 93
        0
 40
1.125
309
GRIDFORMAT_END
 95
        2
302
GRIDFORMAT
  1
GRIDFORMAT_BEGIN
 90
        0
 91
        1
 62
     0
 92
       -2
340
14
 93
        0
 40
1.125
309
GRIDFORMAT_END
 95
        4
302
GRIDFORMAT
  1
GRIDFORMAT_BEGIN
 90
        0
 91
        1
 62
     0
 92
       -2
340
14
 93
        0
 40
1.125
309
GRIDFORMAT_END
 95
        8
302
GRIDFORMAT
  1
GRIDFORMAT_BEGIN
 90
        0
 91
        1
 62
     0
 92
       -2
340
14
 93
        0
 40
1.125
309
GRIDFORMAT_END
 95
       16
302
GRIDFORMAT
  1
GRIDFORMAT_BEGIN
 90
        0
 91
        1
 62
     0
 92
       -2
340
14
 93
        0
 40
1.125
309
GRIDFORMAT_END
 95
       32
302
GRIDFORMAT
  1
GRIDFORMAT_BEGIN
 90
        0
 91
        1
 62
     0
 92
       -2
340
14
 93
        0
 40
1.125
309
GRIDFORMAT_END
309
TABLEFORMAT_END
  1
CELLSTYLE_BEGIN
 90
        1
 91
        1
300
_TITLE
309
CELLSTYLE_END
300
CELLSTYLE
  1
TABLEFORMAT_BEGIN
 90
        5
170
     1
 91
        0
 92
        0
 62
   257
 93
        1
300
CONTENTFORMAT
  1
CONTENTFORMAT_BEGIN
 90
        0
 91
        0
 92
      512
 93
        0
300

 40
0.0
140
1.0
 94
        5
 62
     0
340
11
144
4.5
309
CONTENTFORMAT_END
171
     1
301
MARGIN
  1
CELLMARGIN_BEGIN
 40
1.5
 40
1.5
 40
1.5
 40
1.5
 40
4.5
 40
4.5
309
CELLMARGIN_END
 94
        6
 95
        1
302
GRIDFORMAT
  1
GRIDFORMAT_BEGIN
 90
        0
 91
        1
 62
     0
 92
       -2
340
14
 93
        0
 40
1.125
309
GRIDFORMAT_END
 95
        2
302
GRIDFORMAT
  1
GRIDFORMAT_BEGIN
 90
        0
 91
        1
 62
     0
 92
       -2
340
14
 93
        0
 40
1.125
309
GRIDFORMAT_END
 95
        4
302
GRIDFORMAT
  1
GRIDFORMAT_BEGIN
 90
        0
 91
        1
 62
     0
 92
       -2
340
14
 93
        0
 40
1.125
309
GRIDFORMAT_END
 95
        8
302
GRIDFORMAT
  1
GRIDFORMAT_BEGIN
 90
        0
 91
        1
 62
     0
 92
       -2
340
14
 93
        0
 40
1.125
309
GRIDFORMAT_END
 95
       16
302
GRIDFORMAT
  1
GRIDFORMAT_BEGIN
 90
        0
 91
        1
 62
     0
 92
       -2
340
14
 93
        0
 40
1.125
309
GRIDFORMAT_END
 95
       32
302
GRIDFORMAT
  1
GRIDFORMAT_BEGIN
 90
        0
 91
        1
 62
     0
 92
       -2
340
14
 93
        0
 40
1.125
309
GRIDFORMAT_END
309
TABLEFORMAT_END
  1
CELLSTYLE_BEGIN
 90
        2
 91
        1
300
_HEADER
309
CELLSTYLE_END
300
CELLSTYLE
  1
TABLEFORMAT_BEGIN
 90
        5
170
     1
 91
        0
 92
        0
 62
   257
 93
        1
300
CONTENTFORMAT
  1
CONTENTFORMAT_BEGIN
 90
        0
 91
        0
 92
      512
 93
        0
300

 40
0.0
140
1.0
 94
        2
 62
     0
340
11
144
4.5
309
CONTENTFORMAT_END
171
     1
301
MARGIN
  1
CELLMARGIN_BEGIN
 40
1.5
 40
1.5
 40
1.5
 40
1.5
 40
4.5
 40
4.5
309
CELLMARGIN_END
 94
        6
 95
        1
302
GRIDFORMAT
  1
GRIDFORMAT_BEGIN
 90
        0
 91
        1
 62
     0
 92
       -2
340
14
 93
        0
 40
1.125
309
GRIDFORMAT_END
 95
        2
302
GRIDFORMAT
  1
GRIDFORMAT_BEGIN
 90
        0
 91
        1
 62
     0
 92
       -2
340
14
 93
        0
 40
1.125
309
GRIDFORMAT_END
 95
        4
302
GRIDFORMAT
  1
GRIDFORMAT_BEGIN
 90
        0
 91
        1
 62
     0
 92
       -2
340
14
 93
        0
 40
1.125
309
GRIDFORMAT_END
 95
        8
302
GRIDFORMAT
  1
GRIDFORMAT_BEGIN
 90
        0
 91
        1
 62
     0
 92
       -2
340
14
 93
        0
 40
1.125
309
GRIDFORMAT_END
 95
       16
302
GRIDFORMAT
  1
GRIDFORMAT_BEGIN
 90
        0
 91
        1
 62
     0
 92
       -2
340
14
 93
        0
 40
1.125
309
GRIDFORMAT_END
 95
       32
302
GRIDFORMAT
  1
GRIDFORMAT_BEGIN
 90
        0
 91
        1
 62
     0
 92
       -2
340
14
 93
        0
 40
1.125
309
GRIDFORMAT_END
309
TABLEFORMAT_END
  1
CELLSTYLE_BEGIN
 90
        3
 91
        2
300
_DATA
309
CELLSTYLE_END
  0
XRECORD
  5
57A3
102
{ACAD_REACTORS
330
57A2
102
}
330
57A2
100
AcDbXrecord
280
     1
102
RTVSPost2010Prop28
280
     1
102
RTVSPost2010PropOp28
 70
     1
102
RTVSPost2010Prop29
280
     1
102
RTVSPost2010PropOp29
 70
     1
102
RTVSPost2010Prop30
280
     0
102
RTVSPost2010PropOp30
 70
     1
102
RTVSPost2010Prop31
280
     0
102
RTVSPost2010PropOp31
 70
     1
102
RTVSPost2010Prop32
280
     0
102
RTVSPost2010PropOp32
 70
     1
102
RTVSPost2010Prop33
280
     0
102
RTVSPost2010PropOp33
 70
     1
102
RTVSPost2010Prop34
280
     0
102
RTVSPost2010PropOp34
 70
     1
102
RTVSPost2010Prop35
280
     0
102
RTVSPost2010PropOp35
 70
     1
102
RTVSPost2010Prop36
280
     0
102
RTVSPost2010PropOp36
 70
     1
102
RTVSPost2010Prop37
 90
       50
102
RTVSPost2010PropOp37
 70
     1
102
RTVSPost2010Prop38
140
0.0
102
RTVSPost2010PropOp38
 70
     1
102
RTVSPost2010Prop39
140
1.0
102
RTVSPost2010PropOp39
 70
     1
102
RTVSPost2010Prop40
 90
        0
102
RTVSPost2010PropOp40
 70
     1
102
RTVSPost2010Prop41ColorIndex
 90
       18
102
RTVSPost2010Prop41ColorRGB
 90
        0
102
RTVSPost2010PropOp41
 70
     1
102
RTVSPost2010Prop42
 90
       50
102
RTVSPost2010PropOp42
 70
     1
102
RTVSPost2010Prop43
 90
        3
102
RTVSPost2010PropOp43
 70
     1
102
RTVSPost2010Prop44ColorIndex
 90
        5
102
RTVSPost2010Prop44ColorRGB
 90
      255
102
RTVSPost2010PropOp44
 70
     1
102
RTVSPost2010Prop45
280
     0
102
RTVSPost2010PropOp45
 70
     1
102
RTVSPost2010Prop46
 90
       50
102
RTVSPost2010PropOp46
 70
     1
102
RTVSPost2010Prop47
 90
       50
102
RTVSPost2010PropOp47
 70
     1
102
RTVSPost2010Prop48
 90
       50
102
RTVSPost2010PropOp48
 70
     1
102
RTVSPost2010Prop49
280
     0
102
RTVSPost2010PropOp49
 70
     1
102
RTVSPost2010Prop50
 90
       50
102
RTVSPost2010PropOp50
 70
     1
102
RTVSPost2010Prop51ColorIndex
 90
      256
102
RTVSPost2010Prop51ColorRGB
 90
-16777216
102
RTVSPost2010PropOp51
 70
     0
102
RTVSPost2010Prop52
140
1.0
102
RTVSPost2010PropOp52
 70
     0
102
RTVSPost2010Prop53
 90
        2
102
RTVSPost2010PropOp53
 70
     1
102
RTVSPost2010Prop54
  1
strokes_ogs.tif
102
RTVSPost2010PropOp54
 70
     1
102
RTVSPost2010Prop55
280
     0
102
RTVSPost2010PropOp55
 70
     1
102
RTVSPost2010Prop56
140
1.0
102
RTVSPost2010PropOp56
 70
     1
102
RTVSPost2010Prop57
140
1.0
102
RTVSPost2010PropOp57
 70
     1
  0
XRECORD
  5
57A1
102
{ACAD_REACTORS
330
57A0
102
}
330
57A0
100
AcDbXrecord
280
     1
102
RTVSPost2010Prop28
280
     0
102
RTVSPost2010PropOp28
 70
     1
102
RTVSPost2010Prop29
280
     1
102
RTVSPost2010PropOp29
 70
     1
102
RTVSPost2010Prop30
280
     1
102
RTVSPost2010PropOp30
 70
     1
102
RTVSPost2010Prop31
280
     0
102
RTVSPost2010PropOp31
 70
     1
102
RTVSPost2010Prop32
280
     0
102
RTVSPost2010PropOp32
 70
     1
102
RTVSPost2010Prop33
280
     0
102
RTVSPost2010PropOp33
 70
     1
102
RTVSPost2010Prop34
280
     0
102
RTVSPost2010PropOp34
 70
     1
102
RTVSPost2010Prop35
280
     0
102
RTVSPost2010PropOp35
 70
     1
102
RTVSPost2010Prop36
280
     0
102
RTVSPost2010PropOp36
 70
     1
102
RTVSPost2010Prop37
 90
       50
102
RTVSPost2010PropOp37
 70
     1
102
RTVSPost2010Prop38
140
0.0
102
RTVSPost2010PropOp38
 70
     1
102
RTVSPost2010Prop39
140
1.0
102
RTVSPost2010PropOp39
 70
     1
102
RTVSPost2010Prop40
 90
        0
102
RTVSPost2010PropOp40
 70
     1
102
RTVSPost2010Prop41ColorIndex
 90
       18
102
RTVSPost2010Prop41ColorRGB
 90
        0
102
RTVSPost2010PropOp41
 70
     1
102
RTVSPost2010Prop42
 90
       50
102
RTVSPost2010PropOp42
 70
     1
102
RTVSPost2010Prop43
 90
        3
102
RTVSPost2010PropOp43
 70
     1
102
RTVSPost2010Prop44ColorIndex
 90
        5
102
RTVSPost2010Prop44ColorRGB
 90
      255
102
RTVSPost2010PropOp44
 70
     1
102
RTVSPost2010Prop45
280
     0
102
RTVSPost2010PropOp45
 70
     1
102
RTVSPost2010Prop46
 90
       50
102
RTVSPost2010PropOp46
 70
     1
102
RTVSPost2010Prop47
 90
       50
102
RTVSPost2010PropOp47
 70
     1
102
RTVSPost2010Prop48
 90
       50
102
RTVSPost2010PropOp48
 70
     1
102
RTVSPost2010Prop49
280
     0
102
RTVSPost2010PropOp49
 70
     1
102
RTVSPost2010Prop50
 90
       50
102
RTVSPost2010PropOp50
 70
     1
102
RTVSPost2010Prop51ColorIndex
 90
      256
102
RTVSPost2010Prop51ColorRGB
 90
-16777216
102
RTVSPost2010PropOp51
 70
     0
102
RTVSPost2010Prop52
140
1.0
102
RTVSPost2010PropOp52
 70
     0
102
RTVSPost2010Prop53
 90
        2
102
RTVSPost2010PropOp53
 70
     1
102
RTVSPost2010Prop54
  1
strokes_ogs.tif
102
RTVSPost2010PropOp54
 70
     1
102
RTVSPost2010Prop55
280
     0
102
RTVSPost2010PropOp55
 70
     1
102
RTVSPost2010Prop56
140
1.0
102
RTVSPost2010PropOp56
 70
     1
102
RTVSPost2010Prop57
140
1.0
102
RTVSPost2010PropOp57
 70
     1
  0
XRECORD
  5
57AF
102
{ACAD_REACTORS
330
57AE
102
}
330
57AE
100
AcDbXrecord
280
     1
102
RTVSPost2010Prop28
280
     0
102
RTVSPost2010PropOp28
 70
     1
102
RTVSPost2010Prop29
280
     1
102
RTVSPost2010PropOp29
 70
     1
102
RTVSPost2010Prop30
280
     1
102
RTVSPost2010PropOp30
 70
     1
102
RTVSPost2010Prop31
280
     0
102
RTVSPost2010PropOp31
 70
     1
102
RTVSPost2010Prop32
280
     0
102
RTVSPost2010PropOp32
 70
     1
102
RTVSPost2010Prop33
280
     0
102
RTVSPost2010PropOp33
 70
     1
102
RTVSPost2010Prop34
280
     0
102
RTVSPost2010PropOp34
 70
     1
102
RTVSPost2010Prop35
280
     0
102
RTVSPost2010PropOp35
 70
     1
102
RTVSPost2010Prop36
280
     0
102
RTVSPost2010PropOp36
 70
     1
102
RTVSPost2010Prop37
 90
       50
102
RTVSPost2010PropOp37
 70
     1
102
RTVSPost2010Prop38
140
0.0
102
RTVSPost2010PropOp38
 70
     1
102
RTVSPost2010Prop39
140
1.0
102
RTVSPost2010PropOp39
 70
     1
102
RTVSPost2010Prop40
 90
        0
102
RTVSPost2010PropOp40
 70
     1
102
RTVSPost2010Prop41ColorIndex
 90
       18
102
RTVSPost2010Prop41ColorRGB
 90
        0
102
RTVSPost2010PropOp41
 70
     1
102
RTVSPost2010Prop42
 90
       50
102
RTVSPost2010PropOp42
 70
     1
102
RTVSPost2010Prop43
 90
        3
102
RTVSPost2010PropOp43
 70
     1
102
RTVSPost2010Prop44ColorIndex
 90
        5
102
RTVSPost2010Prop44ColorRGB
 90
      255
102
RTVSPost2010PropOp44
 70
     1
102
RTVSPost2010Prop45
280
     0
102
RTVSPost2010PropOp45
 70
     1
102
RTVSPost2010Prop46
 90
       50
102
RTVSPost2010PropOp46
 70
     1
102
RTVSPost2010Prop47
 90
       50
102
RTVSPost2010PropOp47
 70
     1
102
RTVSPost2010Prop48
 90
       50
102
RTVSPost2010PropOp48
 70
     1
102
RTVSPost2010Prop49
280
     0
102
RTVSPost2010PropOp49
 70
     1
102
RTVSPost2010Prop50
 90
       50
102
RTVSPost2010PropOp50
 70
     1
102
RTVSPost2010Prop51ColorIndex
 90
      256
102
RTVSPost2010Prop51ColorRGB
 90
-16777216
102
RTVSPost2010PropOp51
 70
     0
102
RTVSPost2010Prop52
140
1.0
102
RTVSPost2010PropOp52
 70
     0
102
RTVSPost2010Prop53
 90
        2
102
RTVSPost2010PropOp53
 70
     1
102
RTVSPost2010Prop54
  1
strokes_ogs.tif
102
RTVSPost2010PropOp54
 70
     1
102
RTVSPost2010Prop55
280
     0
102
RTVSPost2010PropOp55
 70
     1
102
RTVSPost2010Prop56
140
1.0
102
RTVSPost2010PropOp56
 70
     1
102
RTVSPost2010Prop57
140
1.0
102
RTVSPost2010PropOp57
 70
     1
  0
XRECORD
  5
57B7
102
{ACAD_REACTORS
330
57B6
102
}
330
57B6
100
AcDbXrecord
280
     1
102
RTVSPost2010Prop28
280
     0
102
RTVSPost2010PropOp28
 70
     1
102
RTVSPost2010Prop29
280
     1
102
RTVSPost2010PropOp29
 70
     1
102
RTVSPost2010Prop30
280
     1
102
RTVSPost2010PropOp30
 70
     1
102
RTVSPost2010Prop31
280
     0
102
RTVSPost2010PropOp31
 70
     1
102
RTVSPost2010Prop32
280
     0
102
RTVSPost2010PropOp32
 70
     1
102
RTVSPost2010Prop33
280
     0
102
RTVSPost2010PropOp33
 70
     1
102
RTVSPost2010Prop34
280
     0
102
RTVSPost2010PropOp34
 70
     1
102
RTVSPost2010Prop35
280
     0
102
RTVSPost2010PropOp35
 70
     1
102
RTVSPost2010Prop36
280
     0
102
RTVSPost2010PropOp36
 70
     1
102
RTVSPost2010Prop37
 90
       50
102
RTVSPost2010PropOp37
 70
     1
102
RTVSPost2010Prop38
140
0.0
102
RTVSPost2010PropOp38
 70
     1
102
RTVSPost2010Prop39
140
1.0
102
RTVSPost2010PropOp39
 70
     1
102
RTVSPost2010Prop40
 90
        0
102
RTVSPost2010PropOp40
 70
     1
102
RTVSPost2010Prop41ColorIndex
 90
       18
102
RTVSPost2010Prop41ColorRGB
 90
        0
102
RTVSPost2010PropOp41
 70
     1
102
RTVSPost2010Prop42
 90
       50
102
RTVSPost2010PropOp42
 70
     1
102
RTVSPost2010Prop43
 90
        3
102
RTVSPost2010PropOp43
 70
     1
102
RTVSPost2010Prop44ColorIndex
 90
        5
102
RTVSPost2010Prop44ColorRGB
 90
      255
102
RTVSPost2010PropOp44
 70
     1
102
RTVSPost2010Prop45
280
     0
102
RTVSPost2010PropOp45
 70
     1
102
RTVSPost2010Prop46
 90
       50
102
RTVSPost2010PropOp46
 70
     1
102
RTVSPost2010Prop47
 90
       50
102
RTVSPost2010PropOp47
 70
     1
102
RTVSPost2010Prop48
 90
       50
102
RTVSPost2010PropOp48
 70
     1
102
RTVSPost2010Prop49
280
     0
102
RTVSPost2010PropOp49
 70
     1
102
RTVSPost2010Prop50
 90
       50
102
RTVSPost2010PropOp50
 70
     1
102
RTVSPost2010Prop51ColorIndex
 90
      256
102
RTVSPost2010Prop51ColorRGB
 90
-16777216
102
RTVSPost2010PropOp51
 70
     0
102
RTVSPost2010Prop52
140
1.0
102
RTVSPost2010PropOp52
 70
     0
102
RTVSPost2010Prop53
 90
        2
102
RTVSPost2010PropOp53
 70
     1
102
RTVSPost2010Prop54
  1
strokes_ogs.tif
102
RTVSPost2010PropOp54
 70
     1
102
RTVSPost2010Prop55
280
     0
102
RTVSPost2010PropOp55
 70
     1
102
RTVSPost2010Prop56
140
1.0
102
RTVSPost2010PropOp56
 70
     1
102
RTVSPost2010Prop57
140
1.0
102
RTVSPost2010PropOp57
 70
     1
  0
XRECORD
  5
57A9
102
{ACAD_REACTORS
330
57A8
102
}
330
57A8
100
AcDbXrecord
280
     1
102
RTVSPost2010Prop28
280
     0
102
RTVSPost2010PropOp28
 70
     1
102
RTVSPost2010Prop29
280
     1
102
RTVSPost2010PropOp29
 70
     1
102
RTVSPost2010Prop30
280
     1
102
RTVSPost2010PropOp30
 70
     1
102
RTVSPost2010Prop31
280
     0
102
RTVSPost2010PropOp31
 70
     1
102
RTVSPost2010Prop32
280
     0
102
RTVSPost2010PropOp32
 70
     1
102
RTVSPost2010Prop33
280
     0
102
RTVSPost2010PropOp33
 70
     1
102
RTVSPost2010Prop34
280
     0
102
RTVSPost2010PropOp34
 70
     1
102
RTVSPost2010Prop35
280
     0
102
RTVSPost2010PropOp35
 70
     1
102
RTVSPost2010Prop36
280
     0
102
RTVSPost2010PropOp36
 70
     1
102
RTVSPost2010Prop37
 90
       50
102
RTVSPost2010PropOp37
 70
     1
102
RTVSPost2010Prop38
140
0.0
102
RTVSPost2010PropOp38
 70
     1
102
RTVSPost2010Prop39
140
1.0
102
RTVSPost2010PropOp39
 70
     1
102
RTVSPost2010Prop40
 90
        0
102
RTVSPost2010PropOp40
 70
     1
102
RTVSPost2010Prop41ColorIndex
 90
       18
102
RTVSPost2010Prop41ColorRGB
 90
        0
102
RTVSPost2010PropOp41
 70
     1
102
RTVSPost2010Prop42
 90
       50
102
RTVSPost2010PropOp42
 70
     1
102
RTVSPost2010Prop43
 90
        3
102
RTVSPost2010PropOp43
 70
     1
102
RTVSPost2010Prop44ColorIndex
 90
        5
102
RTVSPost2010Prop44ColorRGB
 90
      255
102
RTVSPost2010PropOp44
 70
     1
102
RTVSPost2010Prop45
280
     0
102
RTVSPost2010PropOp45
 70
     1
102
RTVSPost2010Prop46
 90
       50
102
RTVSPost2010PropOp46
 70
     1
102
RTVSPost2010Prop47
 90
       50
102
RTVSPost2010PropOp47
 70
     1
102
RTVSPost2010Prop48
 90
       50
102
RTVSPost2010PropOp48
 70
     1
102
RTVSPost2010Prop49
280
     0
102
RTVSPost2010PropOp49
 70
     1
102
RTVSPost2010Prop50
 90
       50
102
RTVSPost2010PropOp50
 70
     1
102
RTVSPost2010Prop51ColorIndex
 90
      256
102
RTVSPost2010Prop51ColorRGB
 90
-16777216
102
RTVSPost2010PropOp51
 70
     0
102
RTVSPost2010Prop52
140
1.0
102
RTVSPost2010PropOp52
 70
     0
102
RTVSPost2010Prop53
 90
        2
102
RTVSPost2010PropOp53
 70
     1
102
RTVSPost2010Prop54
  1
strokes_ogs.tif
102
RTVSPost2010PropOp54
 70
     1
102
RTVSPost2010Prop55
280
     0
102
RTVSPost2010PropOp55
 70
     1
102
RTVSPost2010Prop56
140
1.0
102
RTVSPost2010PropOp56
 70
     1
102
RTVSPost2010Prop57
140
1.0
102
RTVSPost2010PropOp57
 70
     1
  0
XRECORD
  5
57AD
102
{ACAD_REACTORS
330
57AC
102
}
330
57AC
100
AcDbXrecord
280
     1
102
RTVSPost2010Prop28
280
     0
102
RTVSPost2010PropOp28
 70
     1
102
RTVSPost2010Prop29
280
     1
102
RTVSPost2010PropOp29
 70
     1
102
RTVSPost2010Prop30
280
     1
102
RTVSPost2010PropOp30
 70
     1
102
RTVSPost2010Prop31
280
     0
102
RTVSPost2010PropOp31
 70
     1
102
RTVSPost2010Prop32
280
     0
102
RTVSPost2010PropOp32
 70
     1
102
RTVSPost2010Prop33
280
     0
102
RTVSPost2010PropOp33
 70
     1
102
RTVSPost2010Prop34
280
     0
102
RTVSPost2010PropOp34
 70
     1
102
RTVSPost2010Prop35
280
     0
102
RTVSPost2010PropOp35
 70
     1
102
RTVSPost2010Prop36
280
     0
102
RTVSPost2010PropOp36
 70
     1
102
RTVSPost2010Prop37
 90
       50
102
RTVSPost2010PropOp37
 70
     1
102
RTVSPost2010Prop38
140
0.0
102
RTVSPost2010PropOp38
 70
     1
102
RTVSPost2010Prop39
140
1.0
102
RTVSPost2010PropOp39
 70
     1
102
RTVSPost2010Prop40
 90
        0
102
RTVSPost2010PropOp40
 70
     1
102
RTVSPost2010Prop41ColorIndex
 90
       18
102
RTVSPost2010Prop41ColorRGB
 90
        0
102
RTVSPost2010PropOp41
 70
     1
102
RTVSPost2010Prop42
 90
       50
102
RTVSPost2010PropOp42
 70
     1
102
RTVSPost2010Prop43
 90
        3
102
RTVSPost2010PropOp43
 70
     1
102
RTVSPost2010Prop44ColorIndex
 90
        5
102
RTVSPost2010Prop44ColorRGB
 90
      255
102
RTVSPost2010PropOp44
 70
     1
102
RTVSPost2010Prop45
280
     0
102
RTVSPost2010PropOp45
 70
     1
102
RTVSPost2010Prop46
 90
       50
102
RTVSPost2010PropOp46
 70
     1
102
RTVSPost2010Prop47
 90
       50
102
RTVSPost2010PropOp47
 70
     1
102
RTVSPost2010Prop48
 90
       50
102
RTVSPost2010PropOp48
 70
     1
102
RTVSPost2010Prop49
280
     0
102
RTVSPost2010PropOp49
 70
     1
102
RTVSPost2010Prop50
 90
       50
102
RTVSPost2010PropOp50
 70
     1
102
RTVSPost2010Prop51ColorIndex
 90
      256
102
RTVSPost2010Prop51ColorRGB
 90
-16777216
102
RTVSPost2010PropOp51
 70
     0
102
RTVSPost2010Prop52
140
1.0
102
RTVSPost2010PropOp52
 70
     0
102
RTVSPost2010Prop53
 90
        2
102
RTVSPost2010PropOp53
 70
     1
102
RTVSPost2010Prop54
  1
strokes_ogs.tif
102
RTVSPost2010PropOp54
 70
     1
102
RTVSPost2010Prop55
280
     0
102
RTVSPost2010PropOp55
 70
     1
102
RTVSPost2010Prop56
140
1.0
102
RTVSPost2010PropOp56
 70
     1
102
RTVSPost2010Prop57
140
1.0
102
RTVSPost2010PropOp57
 70
     1
  0
XRECORD
  5
57BD
102
{ACAD_REACTORS
330
57BC
102
}
330
57BC
100
AcDbXrecord
280
     1
102
RTVSPost2010Prop28
280
     0
102
RTVSPost2010PropOp28
 70
     1
102
RTVSPost2010Prop29
280
     1
102
RTVSPost2010PropOp29
 70
     1
102
RTVSPost2010Prop30
280
     1
102
RTVSPost2010PropOp30
 70
     1
102
RTVSPost2010Prop31
280
     0
102
RTVSPost2010PropOp31
 70
     1
102
RTVSPost2010Prop32
280
     0
102
RTVSPost2010PropOp32
 70
     1
102
RTVSPost2010Prop33
280
     0
102
RTVSPost2010PropOp33
 70
     1
102
RTVSPost2010Prop34
280
     0
102
RTVSPost2010PropOp34
 70
     1
102
RTVSPost2010Prop35
280
     0
102
RTVSPost2010PropOp35
 70
     1
102
RTVSPost2010Prop36
280
     0
102
RTVSPost2010PropOp36
 70
     1
102
RTVSPost2010Prop37
 90
       50
102
RTVSPost2010PropOp37
 70
     1
102
RTVSPost2010Prop38
140
0.0
102
RTVSPost2010PropOp38
 70
     1
102
RTVSPost2010Prop39
140
1.0
102
RTVSPost2010PropOp39
 70
     1
102
RTVSPost2010Prop40
 90
        0
102
RTVSPost2010PropOp40
 70
     1
102
RTVSPost2010Prop41ColorIndex
 90
       18
102
RTVSPost2010Prop41ColorRGB
 90
        0
102
RTVSPost2010PropOp41
 70
     1
102
RTVSPost2010Prop42
 90
       50
102
RTVSPost2010PropOp42
 70
     1
102
RTVSPost2010Prop43
 90
        3
102
RTVSPost2010PropOp43
 70
     1
102
RTVSPost2010Prop44ColorIndex
 90
        5
102
RTVSPost2010Prop44ColorRGB
 90
      255
102
RTVSPost2010PropOp44
 70
     1
102
RTVSPost2010Prop45
280
     0
102
RTVSPost2010PropOp45
 70
     1
102
RTVSPost2010Prop46
 90
       50
102
RTVSPost2010PropOp46
 70
     1
102
RTVSPost2010Prop47
 90
       50
102
RTVSPost2010PropOp47
 70
     1
102
RTVSPost2010Prop48
 90
       50
102
RTVSPost2010PropOp48
 70
     1
102
RTVSPost2010Prop49
280
     0
102
RTVSPost2010PropOp49
 70
     1
102
RTVSPost2010Prop50
 90
       50
102
RTVSPost2010PropOp50
 70
     1
102
RTVSPost2010Prop51ColorIndex
 90
      256
102
RTVSPost2010Prop51ColorRGB
 90
-16777216
102
RTVSPost2010PropOp51
 70
     0
102
RTVSPost2010Prop52
140
1.0
102
RTVSPost2010PropOp52
 70
     0
102
RTVSPost2010Prop53
 90
        2
102
RTVSPost2010PropOp53
 70
     1
102
RTVSPost2010Prop54
  1
strokes_ogs.tif
102
RTVSPost2010PropOp54
 70
     1
102
RTVSPost2010Prop55
280
     0
102
RTVSPost2010PropOp55
 70
     1
102
RTVSPost2010Prop56
140
1.0
102
RTVSPost2010PropOp56
 70
     1
102
RTVSPost2010Prop57
140
1.0
102
RTVSPost2010PropOp57
 70
     1
  0
XRECORD
  5
57B5
102
{ACAD_REACTORS
330
57B4
102
}
330
57B4
100
AcDbXrecord
280
     1
102
RTVSPost2010Prop28
280
     0
102
RTVSPost2010PropOp28
 70
     1
102
RTVSPost2010Prop29
280
     1
102
RTVSPost2010PropOp29
 70
     1
102
RTVSPost2010Prop30
280
     1
102
RTVSPost2010PropOp30
 70
     1
102
RTVSPost2010Prop31
280
     0
102
RTVSPost2010PropOp31
 70
     1
102
RTVSPost2010Prop32
280
     0
102
RTVSPost2010PropOp32
 70
     1
102
RTVSPost2010Prop33
280
     0
102
RTVSPost2010PropOp33
 70
     1
102
RTVSPost2010Prop34
280
     0
102
RTVSPost2010PropOp34
 70
     1
102
RTVSPost2010Prop35
280
     0
102
RTVSPost2010PropOp35
 70
     1
102
RTVSPost2010Prop36
280
     0
102
RTVSPost2010PropOp36
 70
     1
102
RTVSPost2010Prop37
 90
       50
102
RTVSPost2010PropOp37
 70
     1
102
RTVSPost2010Prop38
140
0.0
102
RTVSPost2010PropOp38
 70
     1
102
RTVSPost2010Prop39
140
1.0
102
RTVSPost2010PropOp39
 70
     1
102
RTVSPost2010Prop40
 90
        0
102
RTVSPost2010PropOp40
 70
     1
102
RTVSPost2010Prop41ColorIndex
 90
       18
102
RTVSPost2010Prop41ColorRGB
 90
        0
102
RTVSPost2010PropOp41
 70
     1
102
RTVSPost2010Prop42
 90
       50
102
RTVSPost2010PropOp42
 70
     1
102
RTVSPost2010Prop43
 90
        3
102
RTVSPost2010PropOp43
 70
     1
102
RTVSPost2010Prop44ColorIndex
 90
        5
102
RTVSPost2010Prop44ColorRGB
 90
      255
102
RTVSPost2010PropOp44
 70
     1
102
RTVSPost2010Prop45
280
     0
102
RTVSPost2010PropOp45
 70
     1
102
RTVSPost2010Prop46
 90
       50
102
RTVSPost2010PropOp46
 70
     1
102
RTVSPost2010Prop47
 90
       50
102
RTVSPost2010PropOp47
 70
     1
102
RTVSPost2010Prop48
 90
       50
102
RTVSPost2010PropOp48
 70
     1
102
RTVSPost2010Prop49
280
     0
102
RTVSPost2010PropOp49
 70
     1
102
RTVSPost2010Prop50
 90
       50
102
RTVSPost2010PropOp50
 70
     1
102
RTVSPost2010Prop51ColorIndex
 90
      256
102
RTVSPost2010Prop51ColorRGB
 90
-16777216
102
RTVSPost2010PropOp51
 70
     0
102
RTVSPost2010Prop52
140
1.0
102
RTVSPost2010PropOp52
 70
     0
102
RTVSPost2010Prop53
 90
        2
102
RTVSPost2010PropOp53
 70
     1
102
RTVSPost2010Prop54
  1
strokes_ogs.tif
102
RTVSPost2010PropOp54
 70
     1
102
RTVSPost2010Prop55
280
     0
102
RTVSPost2010PropOp55
 70
     1
102
RTVSPost2010Prop56
140
1.0
102
RTVSPost2010PropOp56
 70
     1
102
RTVSPost2010Prop57
140
1.0
102
RTVSPost2010PropOp57
 70
     1
  0
XRECORD
  5
5799
102
{ACAD_REACTORS
330
5798
102
}
330
5798
100
AcDbXrecord
280
     1
102
RTVSPost2010Prop28
280
     0
102
RTVSPost2010PropOp28
 70
     1
102
RTVSPost2010Prop29
280
     1
102
RTVSPost2010PropOp29
 70
     1
102
RTVSPost2010Prop30
280
     1
102
RTVSPost2010PropOp30
 70
     1
102
RTVSPost2010Prop31
280
     0
102
RTVSPost2010PropOp31
 70
     1
102
RTVSPost2010Prop32
280
     0
102
RTVSPost2010PropOp32
 70
     1
102
RTVSPost2010Prop33
280
     0
102
RTVSPost2010PropOp33
 70
     1
102
RTVSPost2010Prop34
280
     0
102
RTVSPost2010PropOp34
 70
     1
102
RTVSPost2010Prop35
280
     0
102
RTVSPost2010PropOp35
 70
     1
102
RTVSPost2010Prop36
280
     0
102
RTVSPost2010PropOp36
 70
     1
102
RTVSPost2010Prop37
 90
       50
102
RTVSPost2010PropOp37
 70
     1
102
RTVSPost2010Prop38
140
0.0
102
RTVSPost2010PropOp38
 70
     1
102
RTVSPost2010Prop39
140
1.0
102
RTVSPost2010PropOp39
 70
     1
102
RTVSPost2010Prop40
 90
        0
102
RTVSPost2010PropOp40
 70
     1
102
RTVSPost2010Prop41ColorIndex
 90
       18
102
RTVSPost2010Prop41ColorRGB
 90
        0
102
RTVSPost2010PropOp41
 70
     1
102
RTVSPost2010Prop42
 90
       50
102
RTVSPost2010PropOp42
 70
     1
102
RTVSPost2010Prop43
 90
        3
102
RTVSPost2010PropOp43
 70
     1
102
RTVSPost2010Prop44ColorIndex
 90
        5
102
RTVSPost2010Prop44ColorRGB
 90
      255
102
RTVSPost2010PropOp44
 70
     1
102
RTVSPost2010Prop45
280
     0
102
RTVSPost2010PropOp45
 70
     1
102
RTVSPost2010Prop46
 90
       50
102
RTVSPost2010PropOp46
 70
     1
102
RTVSPost2010Prop47
 90
       50
102
RTVSPost2010PropOp47
 70
     1
102
RTVSPost2010Prop48
 90
       50
102
RTVSPost2010PropOp48
 70
     1
102
RTVSPost2010Prop49
280
     0
102
RTVSPost2010PropOp49
 70
     1
102
RTVSPost2010Prop50
 90
       50
102
RTVSPost2010PropOp50
 70
     1
102
RTVSPost2010Prop51ColorIndex
 90
      256
102
RTVSPost2010Prop51ColorRGB
 90
-16777216
102
RTVSPost2010PropOp51
 70
     0
102
RTVSPost2010Prop52
140
1.0
102
RTVSPost2010PropOp52
 70
     0
102
RTVSPost2010Prop53
 90
        2
102
RTVSPost2010PropOp53
 70
     1
102
RTVSPost2010Prop54
  1
strokes_ogs.tif
102
RTVSPost2010PropOp54
 70
     1
102
RTVSPost2010Prop55
280
     0
102
RTVSPost2010PropOp55
 70
     1
102
RTVSPost2010Prop56
140
1.0
102
RTVSPost2010PropOp56
 70
     1
102
RTVSPost2010Prop57
140
1.0
102
RTVSPost2010PropOp57
 70
     1
  0
XRECORD
  5
579B
102
{ACAD_REACTORS
330
579A
102
}
330
579A
100
AcDbXrecord
280
     1
102
RTVSPost2010Prop28
280
     0
102
RTVSPost2010PropOp28
 70
     1
102
RTVSPost2010Prop29
280
     1
102
RTVSPost2010PropOp29
 70
     1
102
RTVSPost2010Prop30
280
     1
102
RTVSPost2010PropOp30
 70
     1
102
RTVSPost2010Prop31
280
     0
102
RTVSPost2010PropOp31
 70
     1
102
RTVSPost2010Prop32
280
     0
102
RTVSPost2010PropOp32
 70
     1
102
RTVSPost2010Prop33
280
     0
102
RTVSPost2010PropOp33
 70
     1
102
RTVSPost2010Prop34
280
     0
102
RTVSPost2010PropOp34
 70
     1
102
RTVSPost2010Prop35
280
     0
102
RTVSPost2010PropOp35
 70
     1
102
RTVSPost2010Prop36
280
     0
102
RTVSPost2010PropOp36
 70
     1
102
RTVSPost2010Prop37
 90
       50
102
RTVSPost2010PropOp37
 70
     1
102
RTVSPost2010Prop38
140
0.0
102
RTVSPost2010PropOp38
 70
     1
102
RTVSPost2010Prop39
140
1.0
102
RTVSPost2010PropOp39
 70
     1
102
RTVSPost2010Prop40
 90
        0
102
RTVSPost2010PropOp40
 70
     1
102
RTVSPost2010Prop41ColorIndex
 90
       18
102
RTVSPost2010Prop41ColorRGB
 90
        0
102
RTVSPost2010PropOp41
 70
     1
102
RTVSPost2010Prop42
 90
       50
102
RTVSPost2010PropOp42
 70
     1
102
RTVSPost2010Prop43
 90
        3
102
RTVSPost2010PropOp43
 70
     1
102
RTVSPost2010Prop44ColorIndex
 90
        5
102
RTVSPost2010Prop44ColorRGB
 90
      255
102
RTVSPost2010PropOp44
 70
     1
102
RTVSPost2010Prop45
280
     0
102
RTVSPost2010PropOp45
 70
     1
102
RTVSPost2010Prop46
 90
       50
102
RTVSPost2010PropOp46
 70
     1
102
RTVSPost2010Prop47
 90
       50
102
RTVSPost2010PropOp47
 70
     1
102
RTVSPost2010Prop48
 90
       50
102
RTVSPost2010PropOp48
 70
     1
102
RTVSPost2010Prop49
280
     0
102
RTVSPost2010PropOp49
 70
     1
102
RTVSPost2010Prop50
 90
       50
102
RTVSPost2010PropOp50
 70
     1
102
RTVSPost2010Prop51ColorIndex
 90
      256
102
RTVSPost2010Prop51ColorRGB
 90
-16777216
102
RTVSPost2010PropOp51
 70
     0
102
RTVSPost2010Prop52
140
1.0
102
RTVSPost2010PropOp52
 70
     0
102
RTVSPost2010Prop53
 90
        2
102
RTVSPost2010PropOp53
 70
     1
102
RTVSPost2010Prop54
  1
strokes_ogs.tif
102
RTVSPost2010PropOp54
 70
     1
102
RTVSPost2010Prop55
280
     0
102
RTVSPost2010PropOp55
 70
     1
102
RTVSPost2010Prop56
140
1.0
102
RTVSPost2010PropOp56
 70
     1
102
RTVSPost2010Prop57
140
1.0
102
RTVSPost2010PropOp57
 70
     1
  0
XRECORD
  5
579D
102
{ACAD_REACTORS
330
579C
102
}
330
579C
100
AcDbXrecord
280
     1
102
RTVSPost2010Prop28
280
     0
102
RTVSPost2010PropOp28
 70
     1
102
RTVSPost2010Prop29
280
     1
102
RTVSPost2010PropOp29
 70
     1
102
RTVSPost2010Prop30
280
     1
102
RTVSPost2010PropOp30
 70
     1
102
RTVSPost2010Prop31
280
     0
102
RTVSPost2010PropOp31
 70
     1
102
RTVSPost2010Prop32
280
     0
102
RTVSPost2010PropOp32
 70
     1
102
RTVSPost2010Prop33
280
     0
102
RTVSPost2010PropOp33
 70
     1
102
RTVSPost2010Prop34
280
     0
102
RTVSPost2010PropOp34
 70
     1
102
RTVSPost2010Prop35
280
     0
102
RTVSPost2010PropOp35
 70
     1
102
RTVSPost2010Prop36
280
     0
102
RTVSPost2010PropOp36
 70
     1
102
RTVSPost2010Prop37
 90
       50
102
RTVSPost2010PropOp37
 70
     1
102
RTVSPost2010Prop38
140
0.0
102
RTVSPost2010PropOp38
 70
     1
102
RTVSPost2010Prop39
140
1.0
102
RTVSPost2010PropOp39
 70
     1
102
RTVSPost2010Prop40
 90
        0
102
RTVSPost2010PropOp40
 70
     1
102
RTVSPost2010Prop41ColorIndex
 90
       18
102
RTVSPost2010Prop41ColorRGB
 90
        0
102
RTVSPost2010PropOp41
 70
     1
102
RTVSPost2010Prop42
 90
       50
102
RTVSPost2010PropOp42
 70
     1
102
RTVSPost2010Prop43
 90
        3
102
RTVSPost2010PropOp43
 70
     1
102
RTVSPost2010Prop44ColorIndex
 90
        5
102
RTVSPost2010Prop44ColorRGB
 90
      255
102
RTVSPost2010PropOp44
 70
     1
102
RTVSPost2010Prop45
280
     0
102
RTVSPost2010PropOp45
 70
     1
102
RTVSPost2010Prop46
 90
       50
102
RTVSPost2010PropOp46
 70
     1
102
RTVSPost2010Prop47
 90
       50
102
RTVSPost2010PropOp47
 70
     1
102
RTVSPost2010Prop48
 90
       50
102
RTVSPost2010PropOp48
 70
     1
102
RTVSPost2010Prop49
280
     0
102
RTVSPost2010PropOp49
 70
     1
102
RTVSPost2010Prop50
 90
       50
102
RTVSPost2010PropOp50
 70
     1
102
RTVSPost2010Prop51ColorIndex
 90
      256
102
RTVSPost2010Prop51ColorRGB
 90
-16777216
102
RTVSPost2010PropOp51
 70
     0
102
RTVSPost2010Prop52
140
1.0
102
RTVSPost2010PropOp52
 70
     0
102
RTVSPost2010Prop53
 90
        2
102
RTVSPost2010PropOp53
 70
     1
102
RTVSPost2010Prop54
  1
strokes_ogs.tif
102
RTVSPost2010PropOp54
 70
     1
102
RTVSPost2010Prop55
280
     0
102
RTVSPost2010PropOp55
 70
     1
102
RTVSPost2010Prop56
140
1.0
102
RTVSPost2010PropOp56
 70
     1
102
RTVSPost2010Prop57
140
1.0
102
RTVSPost2010PropOp57
 70
     1
  0
XRECORD
  5
579F
102
{ACAD_REACTORS
330
579E
102
}
330
579E
100
AcDbXrecord
280
     1
102
RTVSPost2010Prop28
280
     0
102
RTVSPost2010PropOp28
 70
     1
102
RTVSPost2010Prop29
280
     1
102
RTVSPost2010PropOp29
 70
     1
102
RTVSPost2010Prop30
280
     1
102
RTVSPost2010PropOp30
 70
     1
102
RTVSPost2010Prop31
280
     0
102
RTVSPost2010PropOp31
 70
     1
102
RTVSPost2010Prop32
280
     0
102
RTVSPost2010PropOp32
 70
     1
102
RTVSPost2010Prop33
280
     0
102
RTVSPost2010PropOp33
 70
     1
102
RTVSPost2010Prop34
280
     0
102
RTVSPost2010PropOp34
 70
     1
102
RTVSPost2010Prop35
280
     0
102
RTVSPost2010PropOp35
 70
     1
102
RTVSPost2010Prop36
280
     0
102
RTVSPost2010PropOp36
 70
     1
102
RTVSPost2010Prop37
 90
       50
102
RTVSPost2010PropOp37
 70
     1
102
RTVSPost2010Prop38
140
0.0
102
RTVSPost2010PropOp38
 70
     1
102
RTVSPost2010Prop39
140
1.0
102
RTVSPost2010PropOp39
 70
     1
102
RTVSPost2010Prop40
 90
        0
102
RTVSPost2010PropOp40
 70
     1
102
RTVSPost2010Prop41ColorIndex
 90
       18
102
RTVSPost2010Prop41ColorRGB
 90
        0
102
RTVSPost2010PropOp41
 70
     1
102
RTVSPost2010Prop42
 90
       50
102
RTVSPost2010PropOp42
 70
     1
102
RTVSPost2010Prop43
 90
        3
102
RTVSPost2010PropOp43
 70
     1
102
RTVSPost2010Prop44ColorIndex
 90
        5
102
RTVSPost2010Prop44ColorRGB
 90
      255
102
RTVSPost2010PropOp44
 70
     1
102
RTVSPost2010Prop45
280
     0
102
RTVSPost2010PropOp45
 70
     1
102
RTVSPost2010Prop46
 90
       50
102
RTVSPost2010PropOp46
 70
     1
102
RTVSPost2010Prop47
 90
       50
102
RTVSPost2010PropOp47
 70
     1
102
RTVSPost2010Prop48
 90
       50
102
RTVSPost2010PropOp48
 70
     1
102
RTVSPost2010Prop49
280
     0
102
RTVSPost2010PropOp49
 70
     1
102
RTVSPost2010Prop50
 90
       50
102
RTVSPost2010PropOp50
 70
     1
102
RTVSPost2010Prop51ColorIndex
 90
      256
102
RTVSPost2010Prop51ColorRGB
 90
-16777216
102
RTVSPost2010PropOp51
 70
     0
102
RTVSPost2010Prop52
140
1.0
102
RTVSPost2010PropOp52
 70
     0
102
RTVSPost2010Prop53
 90
        2
102
RTVSPost2010PropOp53
 70
     1
102
RTVSPost2010Prop54
  1
strokes_ogs.tif
102
RTVSPost2010PropOp54
 70
     1
102
RTVSPost2010Prop55
280
     0
102
RTVSPost2010PropOp55
 70
     1
102
RTVSPost2010Prop56
140
1.0
102
RTVSPost2010PropOp56
 70
     1
102
RTVSPost2010Prop57
140
1.0
102
RTVSPost2010PropOp57
 70
     1
  0
XRECORD
  5
57A7
102
{ACAD_REACTORS
330
57A6
102
}
330
57A6
100
AcDbXrecord
280
     1
102
RTVSPost2010Prop28
280
     0
102
RTVSPost2010PropOp28
 70
     1
102
RTVSPost2010Prop29
280
     1
102
RTVSPost2010PropOp29
 70
     1
102
RTVSPost2010Prop30
280
     1
102
RTVSPost2010PropOp30
 70
     1
102
RTVSPost2010Prop31
280
     0
102
RTVSPost2010PropOp31
 70
     1
102
RTVSPost2010Prop32
280
     0
102
RTVSPost2010PropOp32
 70
     1
102
RTVSPost2010Prop33
280
     0
102
RTVSPost2010PropOp33
 70
     1
102
RTVSPost2010Prop34
280
     0
102
RTVSPost2010PropOp34
 70
     1
102
RTVSPost2010Prop35
280
     0
102
RTVSPost2010PropOp35
 70
     1
102
RTVSPost2010Prop36
280
     0
102
RTVSPost2010PropOp36
 70
     1
102
RTVSPost2010Prop37
 90
       50
102
RTVSPost2010PropOp37
 70
     1
102
RTVSPost2010Prop38
140
0.0
102
RTVSPost2010PropOp38
 70
     1
102
RTVSPost2010Prop39
140
1.0
102
RTVSPost2010PropOp39
 70
     1
102
RTVSPost2010Prop40
 90
        0
102
RTVSPost2010PropOp40
 70
     1
102
RTVSPost2010Prop41ColorIndex
 90
       18
102
RTVSPost2010Prop41ColorRGB
 90
        0
102
RTVSPost2010PropOp41
 70
     1
102
RTVSPost2010Prop42
 90
       50
102
RTVSPost2010PropOp42
 70
     1
102
RTVSPost2010Prop43
 90
        3
102
RTVSPost2010PropOp43
 70
     1
102
RTVSPost2010Prop44ColorIndex
 90
        5
102
RTVSPost2010Prop44ColorRGB
 90
      255
102
RTVSPost2010PropOp44
 70
     1
102
RTVSPost2010Prop45
280
     0
102
RTVSPost2010PropOp45
 70
     1
102
RTVSPost2010Prop46
 90
       50
102
RTVSPost2010PropOp46
 70
     1
102
RTVSPost2010Prop47
 90
       50
102
RTVSPost2010PropOp47
 70
     1
102
RTVSPost2010Prop48
 90
       50
102
RTVSPost2010PropOp48
 70
     1
102
RTVSPost2010Prop49
280
     0
102
RTVSPost2010PropOp49
 70
     1
102
RTVSPost2010Prop50
 90
       50
102
RTVSPost2010PropOp50
 70
     1
102
RTVSPost2010Prop51ColorIndex
 90
      256
102
RTVSPost2010Prop51ColorRGB
 90
-16777216
102
RTVSPost2010PropOp51
 70
     0
102
RTVSPost2010Prop52
140
1.0
102
RTVSPost2010PropOp52
 70
     0
102
RTVSPost2010Prop53
 90
        2
102
RTVSPost2010PropOp53
 70
     1
102
RTVSPost2010Prop54
  1
strokes_ogs.tif
102
RTVSPost2010PropOp54
 70
     1
102
RTVSPost2010Prop55
280
     0
102
RTVSPost2010PropOp55
 70
     1
102
RTVSPost2010Prop56
140
1.0
102
RTVSPost2010PropOp56
 70
     1
102
RTVSPost2010Prop57
140
1.0
102
RTVSPost2010PropOp57
 70
     1
  0
XRECORD
  5
57B9
102
{ACAD_REACTORS
330
57B8
102
}
330
57B8
100
AcDbXrecord
280
     1
102
RTVSPost2010Prop28
280
     0
102
RTVSPost2010PropOp28
 70
     1
102
RTVSPost2010Prop29
280
     1
102
RTVSPost2010PropOp29
 70
     1
102
RTVSPost2010Prop30
280
     1
102
RTVSPost2010PropOp30
 70
     1
102
RTVSPost2010Prop31
280
     0
102
RTVSPost2010PropOp31
 70
     1
102
RTVSPost2010Prop32
280
     0
102
RTVSPost2010PropOp32
 70
     1
102
RTVSPost2010Prop33
280
     0
102
RTVSPost2010PropOp33
 70
     1
102
RTVSPost2010Prop34
280
     0
102
RTVSPost2010PropOp34
 70
     1
102
RTVSPost2010Prop35
280
     0
102
RTVSPost2010PropOp35
 70
     1
102
RTVSPost2010Prop36
280
     0
102
RTVSPost2010PropOp36
 70
     1
102
RTVSPost2010Prop37
 90
       50
102
RTVSPost2010PropOp37
 70
     1
102
RTVSPost2010Prop38
140
0.0
102
RTVSPost2010PropOp38
 70
     1
102
RTVSPost2010Prop39
140
1.0
102
RTVSPost2010PropOp39
 70
     1
102
RTVSPost2010Prop40
 90
        0
102
RTVSPost2010PropOp40
 70
     1
102
RTVSPost2010Prop41ColorIndex
 90
       18
102
RTVSPost2010Prop41ColorRGB
 90
        0
102
RTVSPost2010PropOp41
 70
     1
102
RTVSPost2010Prop42
 90
       50
102
RTVSPost2010PropOp42
 70
     1
102
RTVSPost2010Prop43
 90
        3
102
RTVSPost2010PropOp43
 70
     1
102
RTVSPost2010Prop44ColorIndex
 90
        5
102
RTVSPost2010Prop44ColorRGB
 90
      255
102
RTVSPost2010PropOp44
 70
     1
102
RTVSPost2010Prop45
280
     0
102
RTVSPost2010PropOp45
 70
     1
102
RTVSPost2010Prop46
 90
       50
102
RTVSPost2010PropOp46
 70
     1
102
RTVSPost2010Prop47
 90
       50
102
RTVSPost2010PropOp47
 70
     1
102
RTVSPost2010Prop48
 90
       50
102
RTVSPost2010PropOp48
 70
     1
102
RTVSPost2010Prop49
280
     0
102
RTVSPost2010PropOp49
 70
     1
102
RTVSPost2010Prop50
 90
       50
102
RTVSPost2010PropOp50
 70
     1
102
RTVSPost2010Prop51ColorIndex
 90
      256
102
RTVSPost2010Prop51ColorRGB
 90
-16777216
102
RTVSPost2010PropOp51
 70
     0
102
RTVSPost2010Prop52
140
1.0
102
RTVSPost2010PropOp52
 70
     0
102
RTVSPost2010Prop53
 90
        2
102
RTVSPost2010PropOp53
 70
     1
102
RTVSPost2010Prop54
  1
strokes_ogs.tif
102
RTVSPost2010PropOp54
 70
     1
102
RTVSPost2010Prop55
280
     0
102
RTVSPost2010PropOp55
 70
     1
102
RTVSPost2010Prop56
140
1.0
102
RTVSPost2010PropOp56
 70
     1
102
RTVSPost2010Prop57
140
1.0
102
RTVSPost2010PropOp57
 70
     1
  0
XRECORD
  5
57B3
102
{ACAD_REACTORS
330
57B2
102
}
330
57B2
100
AcDbXrecord
280
     1
102
RTVSPost2010Prop28
280
     0
102
RTVSPost2010PropOp28
 70
     1
102
RTVSPost2010Prop29
280
     1
102
RTVSPost2010PropOp29
 70
     1
102
RTVSPost2010Prop30
280
     1
102
RTVSPost2010PropOp30
 70
     1
102
RTVSPost2010Prop31
280
     0
102
RTVSPost2010PropOp31
 70
     1
102
RTVSPost2010Prop32
280
     0
102
RTVSPost2010PropOp32
 70
     1
102
RTVSPost2010Prop33
280
     0
102
RTVSPost2010PropOp33
 70
     1
102
RTVSPost2010Prop34
280
     0
102
RTVSPost2010PropOp34
 70
     1
102
RTVSPost2010Prop35
280
     0
102
RTVSPost2010PropOp35
 70
     1
102
RTVSPost2010Prop36
280
     0
102
RTVSPost2010PropOp36
 70
     1
102
RTVSPost2010Prop37
 90
       50
102
RTVSPost2010PropOp37
 70
     1
102
RTVSPost2010Prop38
140
0.0
102
RTVSPost2010PropOp38
 70
     1
102
RTVSPost2010Prop39
140
1.0
102
RTVSPost2010PropOp39
 70
     1
102
RTVSPost2010Prop40
 90
        0
102
RTVSPost2010PropOp40
 70
     1
102
RTVSPost2010Prop41ColorIndex
 90
       18
102
RTVSPost2010Prop41ColorRGB
 90
        0
102
RTVSPost2010PropOp41
 70
     1
102
RTVSPost2010Prop42
 90
       50
102
RTVSPost2010PropOp42
 70
     1
102
RTVSPost2010Prop43
 90
        3
102
RTVSPost2010PropOp43
 70
     1
102
RTVSPost2010Prop44ColorIndex
 90
        5
102
RTVSPost2010Prop44ColorRGB
 90
      255
102
RTVSPost2010PropOp44
 70
     1
102
RTVSPost2010Prop45
280
     0
102
RTVSPost2010PropOp45
 70
     1
102
RTVSPost2010Prop46
 90
       50
102
RTVSPost2010PropOp46
 70
     1
102
RTVSPost2010Prop47
 90
       50
102
RTVSPost2010PropOp47
 70
     1
102
RTVSPost2010Prop48
 90
       50
102
RTVSPost2010PropOp48
 70
     1
102
RTVSPost2010Prop49
280
     0
102
RTVSPost2010PropOp49
 70
     1
102
RTVSPost2010Prop50
 90
       50
102
RTVSPost2010PropOp50
 70
     1
102
RTVSPost2010Prop51ColorIndex
 90
      256
102
RTVSPost2010Prop51ColorRGB
 90
-16777216
102
RTVSPost2010PropOp51
 70
     0
102
RTVSPost2010Prop52
140
1.0
102
RTVSPost2010PropOp52
 70
     0
102
RTVSPost2010Prop53
 90
        2
102
RTVSPost2010PropOp53
 70
     1
102
RTVSPost2010Prop54
  1
strokes_ogs.tif
102
RTVSPost2010PropOp54
 70
     1
102
RTVSPost2010Prop55
280
     0
102
RTVSPost2010PropOp55
 70
     1
102
RTVSPost2010Prop56
140
1.0
102
RTVSPost2010PropOp56
 70
     1
102
RTVSPost2010Prop57
140
1.0
102
RTVSPost2010PropOp57
 70
     1
  0
XRECORD
  5
57BB
102
{ACAD_REACTORS
330
57BA
102
}
330
57BA
100
AcDbXrecord
280
     1
102
RTVSPost2010Prop28
280
     0
102
RTVSPost2010PropOp28
 70
     1
102
RTVSPost2010Prop29
280
     1
102
RTVSPost2010PropOp29
 70
     1
102
RTVSPost2010Prop30
280
     1
102
RTVSPost2010PropOp30
 70
     1
102
RTVSPost2010Prop31
280
     0
102
RTVSPost2010PropOp31
 70
     1
102
RTVSPost2010Prop32
280
     0
102
RTVSPost2010PropOp32
 70
     1
102
RTVSPost2010Prop33
280
     0
102
RTVSPost2010PropOp33
 70
     1
102
RTVSPost2010Prop34
280
     0
102
RTVSPost2010PropOp34
 70
     1
102
RTVSPost2010Prop35
280
     0
102
RTVSPost2010PropOp35
 70
     1
102
RTVSPost2010Prop36
280
     0
102
RTVSPost2010PropOp36
 70
     1
102
RTVSPost2010Prop37
 90
       50
102
RTVSPost2010PropOp37
 70
     1
102
RTVSPost2010Prop38
140
0.0
102
RTVSPost2010PropOp38
 70
     1
102
RTVSPost2010Prop39
140
1.0
102
RTVSPost2010PropOp39
 70
     1
102
RTVSPost2010Prop40
 90
        0
102
RTVSPost2010PropOp40
 70
     1
102
RTVSPost2010Prop41ColorIndex
 90
       18
102
RTVSPost2010Prop41ColorRGB
 90
        0
102
RTVSPost2010PropOp41
 70
     1
102
RTVSPost2010Prop42
 90
       50
102
RTVSPost2010PropOp42
 70
     1
102
RTVSPost2010Prop43
 90
        3
102
RTVSPost2010PropOp43
 70
     1
102
RTVSPost2010Prop44ColorIndex
 90
        5
102
RTVSPost2010Prop44ColorRGB
 90
      255
102
RTVSPost2010PropOp44
 70
     1
102
RTVSPost2010Prop45
280
     0
102
RTVSPost2010PropOp45
 70
     1
102
RTVSPost2010Prop46
 90
       50
102
RTVSPost2010PropOp46
 70
     1
102
RTVSPost2010Prop47
 90
       50
102
RTVSPost2010PropOp47
 70
     1
102
RTVSPost2010Prop48
 90
       50
102
RTVSPost2010PropOp48
 70
     1
102
RTVSPost2010Prop49
280
     0
102
RTVSPost2010PropOp49
 70
     1
102
RTVSPost2010Prop50
 90
       50
102
RTVSPost2010PropOp50
 70
     1
102
RTVSPost2010Prop51ColorIndex
 90
      256
102
RTVSPost2010Prop51ColorRGB
 90
-16777216
102
RTVSPost2010PropOp51
 70
     0
102
RTVSPost2010Prop52
140
1.0
102
RTVSPost2010PropOp52
 70
     0
102
RTVSPost2010Prop53
 90
        2
102
RTVSPost2010PropOp53
 70
     1
102
RTVSPost2010Prop54
  1
strokes_ogs.tif
102
RTVSPost2010PropOp54
 70
     1
102
RTVSPost2010Prop55
280
     0
102
RTVSPost2010PropOp55
 70
     1
102
RTVSPost2010Prop56
140
1.0
102
RTVSPost2010PropOp56
 70
     1
102
RTVSPost2010Prop57
140
1.0
102
RTVSPost2010PropOp57
 70
     1
  0
XRECORD
  5
57AB
102
{ACAD_REACTORS
330
57AA
102
}
330
57AA
100
AcDbXrecord
280
     1
102
RTVSPost2010Prop28
280
     0
102
RTVSPost2010PropOp28
 70
     1
102
RTVSPost2010Prop29
280
     1
102
RTVSPost2010PropOp29
 70
     1
102
RTVSPost2010Prop30
280
     1
102
RTVSPost2010PropOp30
 70
     1
102
RTVSPost2010Prop31
280
     0
102
RTVSPost2010PropOp31
 70
     1
102
RTVSPost2010Prop32
280
     0
102
RTVSPost2010PropOp32
 70
     1
102
RTVSPost2010Prop33
280
     0
102
RTVSPost2010PropOp33
 70
     1
102
RTVSPost2010Prop34
280
     0
102
RTVSPost2010PropOp34
 70
     1
102
RTVSPost2010Prop35
280
     0
102
RTVSPost2010PropOp35
 70
     1
102
RTVSPost2010Prop36
280
     0
102
RTVSPost2010PropOp36
 70
     1
102
RTVSPost2010Prop37
 90
       50
102
RTVSPost2010PropOp37
 70
     1
102
RTVSPost2010Prop38
140
0.0
102
RTVSPost2010PropOp38
 70
     1
102
RTVSPost2010Prop39
140
1.0
102
RTVSPost2010PropOp39
 70
     1
102
RTVSPost2010Prop40
 90
        0
102
RTVSPost2010PropOp40
 70
     1
102
RTVSPost2010Prop41ColorIndex
 90
       18
102
RTVSPost2010Prop41ColorRGB
 90
        0
102
RTVSPost2010PropOp41
 70
     1
102
RTVSPost2010Prop42
 90
       50
102
RTVSPost2010PropOp42
 70
     1
102
RTVSPost2010Prop43
 90
        3
102
RTVSPost2010PropOp43
 70
     1
102
RTVSPost2010Prop44ColorIndex
 90
        5
102
RTVSPost2010Prop44ColorRGB
 90
      255
102
RTVSPost2010PropOp44
 70
     1
102
RTVSPost2010Prop45
280
     0
102
RTVSPost2010PropOp45
 70
     1
102
RTVSPost2010Prop46
 90
       50
102
RTVSPost2010PropOp46
 70
     1
102
RTVSPost2010Prop47
 90
       50
102
RTVSPost2010PropOp47
 70
     1
102
RTVSPost2010Prop48
 90
       50
102
RTVSPost2010PropOp48
 70
     1
102
RTVSPost2010Prop49
280
     0
102
RTVSPost2010PropOp49
 70
     1
102
RTVSPost2010Prop50
 90
       50
102
RTVSPost2010PropOp50
 70
     1
102
RTVSPost2010Prop51ColorIndex
 90
      256
102
RTVSPost2010Prop51ColorRGB
 90
-16777216
102
RTVSPost2010PropOp51
 70
     0
102
RTVSPost2010Prop52
140
1.0
102
RTVSPost2010PropOp52
 70
     0
102
RTVSPost2010Prop53
 90
        2
102
RTVSPost2010PropOp53
 70
     1
102
RTVSPost2010Prop54
  1
strokes_ogs.tif
102
RTVSPost2010PropOp54
 70
     1
102
RTVSPost2010Prop55
280
     0
102
RTVSPost2010PropOp55
 70
     1
102
RTVSPost2010Prop56
140
1.0
102
RTVSPost2010PropOp56
 70
     1
102
RTVSPost2010Prop57
140
1.0
102
RTVSPost2010PropOp57
 70
     1
  0
XRECORD
  5
57C7
102
{ACAD_REACTORS
330
57C6
102
}
330
57C6
100
AcDbXrecord
280
     1
102
RTVSPost2010Prop28
280
     0
102
RTVSPost2010PropOp28
 70
     1
102
RTVSPost2010Prop29
280
     1
102
RTVSPost2010PropOp29
 70
     1
102
RTVSPost2010Prop30
280
     1
102
RTVSPost2010PropOp30
 70
     1
102
RTVSPost2010Prop31
280
     0
102
RTVSPost2010PropOp31
 70
     1
102
RTVSPost2010Prop32
280
     0
102
RTVSPost2010PropOp32
 70
     1
102
RTVSPost2010Prop33
280
     0
102
RTVSPost2010PropOp33
 70
     1
102
RTVSPost2010Prop34
280
     0
102
RTVSPost2010PropOp34
 70
     1
102
RTVSPost2010Prop35
280
     0
102
RTVSPost2010PropOp35
 70
     1
102
RTVSPost2010Prop36
280
     0
102
RTVSPost2010PropOp36
 70
     1
102
RTVSPost2010Prop37
 90
       50
102
RTVSPost2010PropOp37
 70
     1
102
RTVSPost2010Prop38
140
0.0
102
RTVSPost2010PropOp38
 70
     1
102
RTVSPost2010Prop39
140
1.0
102
RTVSPost2010PropOp39
 70
     1
102
RTVSPost2010Prop40
 90
        0
102
RTVSPost2010PropOp40
 70
     1
102
RTVSPost2010Prop41ColorIndex
 90
       18
102
RTVSPost2010Prop41ColorRGB
 90
        0
102
RTVSPost2010PropOp41
 70
     1
102
RTVSPost2010Prop42
 90
       50
102
RTVSPost2010PropOp42
 70
     1
102
RTVSPost2010Prop43
 90
        3
102
RTVSPost2010PropOp43
 70
     1
102
RTVSPost2010Prop44ColorIndex
 90
        5
102
RTVSPost2010Prop44ColorRGB
 90
      255
102
RTVSPost2010PropOp44
 70
     1
102
RTVSPost2010Prop45
280
     0
102
RTVSPost2010PropOp45
 70
     1
102
RTVSPost2010Prop46
 90
       50
102
RTVSPost2010PropOp46
 70
     1
102
RTVSPost2010Prop47
 90
       50
102
RTVSPost2010PropOp47
 70
     1
102
RTVSPost2010Prop48
 90
       50
102
RTVSPost2010PropOp48
 70
     1
102
RTVSPost2010Prop49
280
     0
102
RTVSPost2010PropOp49
 70
     1
102
RTVSPost2010Prop50
 90
       50
102
RTVSPost2010PropOp50
 70
     1
102
RTVSPost2010Prop51ColorIndex
 90
      256
102
RTVSPost2010Prop51ColorRGB
 90
-16777216
102
RTVSPost2010PropOp51
 70
     0
102
RTVSPost2010Prop52
140
1.0
102
RTVSPost2010PropOp52
 70
     0
102
RTVSPost2010Prop53
 90
        2
102
RTVSPost2010PropOp53
 70
     1
102
RTVSPost2010Prop54
  1
strokes_ogs.tif
102
RTVSPost2010PropOp54
 70
     1
102
RTVSPost2010Prop55
280
     0
102
RTVSPost2010PropOp55
 70
     1
102
RTVSPost2010Prop56
140
1.0
102
RTVSPost2010PropOp56
 70
     1
102
RTVSPost2010Prop57
140
1.0
102
RTVSPost2010PropOp57
 70
     1
  0
XRECORD
  5
57C5
102
{ACAD_REACTORS
330
57C4
102
}
330
57C4
100
AcDbXrecord
280
     1
102
RTVSPost2010Prop28
280
     0
102
RTVSPost2010PropOp28
 70
     1
102
RTVSPost2010Prop29
280
     1
102
RTVSPost2010PropOp29
 70
     1
102
RTVSPost2010Prop30
280
     1
102
RTVSPost2010PropOp30
 70
     1
102
RTVSPost2010Prop31
280
     0
102
RTVSPost2010PropOp31
 70
     1
102
RTVSPost2010Prop32
280
     0
102
RTVSPost2010PropOp32
 70
     1
102
RTVSPost2010Prop33
280
     0
102
RTVSPost2010PropOp33
 70
     1
102
RTVSPost2010Prop34
280
     0
102
RTVSPost2010PropOp34
 70
     1
102
RTVSPost2010Prop35
280
     0
102
RTVSPost2010PropOp35
 70
     1
102
RTVSPost2010Prop36
280
     0
102
RTVSPost2010PropOp36
 70
     1
102
RTVSPost2010Prop37
 90
       50
102
RTVSPost2010PropOp37
 70
     1
102
RTVSPost2010Prop38
140
0.0
102
RTVSPost2010PropOp38
 70
     1
102
RTVSPost2010Prop39
140
1.0
102
RTVSPost2010PropOp39
 70
     1
102
RTVSPost2010Prop40
 90
        0
102
RTVSPost2010PropOp40
 70
     1
102
RTVSPost2010Prop41ColorIndex
 90
       18
102
RTVSPost2010Prop41ColorRGB
 90
        0
102
RTVSPost2010PropOp41
 70
     1
102
RTVSPost2010Prop42
 90
       50
102
RTVSPost2010PropOp42
 70
     1
102
RTVSPost2010Prop43
 90
        3
102
RTVSPost2010PropOp43
 70
     1
102
RTVSPost2010Prop44ColorIndex
 90
        5
102
RTVSPost2010Prop44ColorRGB
 90
      255
102
RTVSPost2010PropOp44
 70
     1
102
RTVSPost2010Prop45
280
     0
102
RTVSPost2010PropOp45
 70
     1
102
RTVSPost2010Prop46
 90
       50
102
RTVSPost2010PropOp46
 70
     1
102
RTVSPost2010Prop47
 90
       50
102
RTVSPost2010PropOp47
 70
     1
102
RTVSPost2010Prop48
 90
       50
102
RTVSPost2010PropOp48
 70
     1
102
RTVSPost2010Prop49
280
     0
102
RTVSPost2010PropOp49
 70
     1
102
RTVSPost2010Prop50
 90
       50
102
RTVSPost2010PropOp50
 70
     1
102
RTVSPost2010Prop51ColorIndex
 90
      256
102
RTVSPost2010Prop51ColorRGB
 90
-16777216
102
RTVSPost2010PropOp51
 70
     0
102
RTVSPost2010Prop52
140
1.0
102
RTVSPost2010PropOp52
 70
     0
102
RTVSPost2010Prop53
 90
        2
102
RTVSPost2010PropOp53
 70
     1
102
RTVSPost2010Prop54
  1
strokes_ogs.tif
102
RTVSPost2010PropOp54
 70
     1
102
RTVSPost2010Prop55
280
     0
102
RTVSPost2010PropOp55
 70
     1
102
RTVSPost2010Prop56
140
1.0
102
RTVSPost2010PropOp56
 70
     1
102
RTVSPost2010Prop57
140
1.0
102
RTVSPost2010PropOp57
 70
     1
  0
XRECORD
  5
57BF
102
{ACAD_REACTORS
330
57BE
102
}
330
57BE
100
AcDbXrecord
280
     1
102
RTVSPost2010Prop28
280
     0
102
RTVSPost2010PropOp28
 70
     1
102
RTVSPost2010Prop29
280
     1
102
RTVSPost2010PropOp29
 70
     1
102
RTVSPost2010Prop30
280
     1
102
RTVSPost2010PropOp30
 70
     1
102
RTVSPost2010Prop31
280
     0
102
RTVSPost2010PropOp31
 70
     1
102
RTVSPost2010Prop32
280
     0
102
RTVSPost2010PropOp32
 70
     1
102
RTVSPost2010Prop33
280
     0
102
RTVSPost2010PropOp33
 70
     1
102
RTVSPost2010Prop34
280
     0
102
RTVSPost2010PropOp34
 70
     1
102
RTVSPost2010Prop35
280
     0
102
RTVSPost2010PropOp35
 70
     1
102
RTVSPost2010Prop36
280
     0
102
RTVSPost2010PropOp36
 70
     1
102
RTVSPost2010Prop37
 90
       50
102
RTVSPost2010PropOp37
 70
     1
102
RTVSPost2010Prop38
140
0.0
102
RTVSPost2010PropOp38
 70
     1
102
RTVSPost2010Prop39
140
1.0
102
RTVSPost2010PropOp39
 70
     1
102
RTVSPost2010Prop40
 90
        0
102
RTVSPost2010PropOp40
 70
     1
102
RTVSPost2010Prop41ColorIndex
 90
       18
102
RTVSPost2010Prop41ColorRGB
 90
        0
102
RTVSPost2010PropOp41
 70
     1
102
RTVSPost2010Prop42
 90
       50
102
RTVSPost2010PropOp42
 70
     1
102
RTVSPost2010Prop43
 90
        3
102
RTVSPost2010PropOp43
 70
     1
102
RTVSPost2010Prop44ColorIndex
 90
        5
102
RTVSPost2010Prop44ColorRGB
 90
      255
102
RTVSPost2010PropOp44
 70
     1
102
RTVSPost2010Prop45
280
     0
102
RTVSPost2010PropOp45
 70
     1
102
RTVSPost2010Prop46
 90
       50
102
RTVSPost2010PropOp46
 70
     1
102
RTVSPost2010Prop47
 90
       50
102
RTVSPost2010PropOp47
 70
     1
102
RTVSPost2010Prop48
 90
       50
102
RTVSPost2010PropOp48
 70
     1
102
RTVSPost2010Prop49
280
     0
102
RTVSPost2010PropOp49
 70
     1
102
RTVSPost2010Prop50
 90
       50
102
RTVSPost2010PropOp50
 70
     1
102
RTVSPost2010Prop51ColorIndex
 90
      256
102
RTVSPost2010Prop51ColorRGB
 90
-16777216
102
RTVSPost2010PropOp51
 70
     0
102
RTVSPost2010Prop52
140
1.0
102
RTVSPost2010PropOp52
 70
     0
102
RTVSPost2010Prop53
 90
        2
102
RTVSPost2010PropOp53
 70
     1
102
RTVSPost2010Prop54
  1
strokes_ogs.tif
102
RTVSPost2010PropOp54
 70
     1
102
RTVSPost2010Prop55
280
     0
102
RTVSPost2010PropOp55
 70
     1
102
RTVSPost2010Prop56
140
1.0
102
RTVSPost2010PropOp56
 70
     1
102
RTVSPost2010Prop57
140
1.0
102
RTVSPost2010PropOp57
 70
     1
  0
XRECORD
  5
57C1
102
{ACAD_REACTORS
330
57C0
102
}
330
57C0
100
AcDbXrecord
280
     1
102
RTVSPost2010Prop28
280
     0
102
RTVSPost2010PropOp28
 70
     1
102
RTVSPost2010Prop29
280
     1
102
RTVSPost2010PropOp29
 70
     1
102
RTVSPost2010Prop30
280
     1
102
RTVSPost2010PropOp30
 70
     1
102
RTVSPost2010Prop31
280
     0
102
RTVSPost2010PropOp31
 70
     1
102
RTVSPost2010Prop32
280
     0
102
RTVSPost2010PropOp32
 70
     1
102
RTVSPost2010Prop33
280
     0
102
RTVSPost2010PropOp33
 70
     1
102
RTVSPost2010Prop34
280
     0
102
RTVSPost2010PropOp34
 70
     1
102
RTVSPost2010Prop35
280
     0
102
RTVSPost2010PropOp35
 70
     1
102
RTVSPost2010Prop36
280
     0
102
RTVSPost2010PropOp36
 70
     1
102
RTVSPost2010Prop37
 90
       50
102
RTVSPost2010PropOp37
 70
     1
102
RTVSPost2010Prop38
140
0.0
102
RTVSPost2010PropOp38
 70
     1
102
RTVSPost2010Prop39
140
1.0
102
RTVSPost2010PropOp39
 70
     1
102
RTVSPost2010Prop40
 90
        0
102
RTVSPost2010PropOp40
 70
     1
102
RTVSPost2010Prop41ColorIndex
 90
       18
102
RTVSPost2010Prop41ColorRGB
 90
        0
102
RTVSPost2010PropOp41
 70
     1
102
RTVSPost2010Prop42
 90
       50
102
RTVSPost2010PropOp42
 70
     1
102
RTVSPost2010Prop43
 90
        3
102
RTVSPost2010PropOp43
 70
     1
102
RTVSPost2010Prop44ColorIndex
 90
        5
102
RTVSPost2010Prop44ColorRGB
 90
      255
102
RTVSPost2010PropOp44
 70
     1
102
RTVSPost2010Prop45
280
     0
102
RTVSPost2010PropOp45
 70
     1
102
RTVSPost2010Prop46
 90
       50
102
RTVSPost2010PropOp46
 70
     1
102
RTVSPost2010Prop47
 90
       50
102
RTVSPost2010PropOp47
 70
     1
102
RTVSPost2010Prop48
 90
       50
102
RTVSPost2010PropOp48
 70
     1
102
RTVSPost2010Prop49
280
     0
102
RTVSPost2010PropOp49
 70
     1
102
RTVSPost2010Prop50
 90
       50
102
RTVSPost2010PropOp50
 70
     1
102
RTVSPost2010Prop51ColorIndex
 90
      256
102
RTVSPost2010Prop51ColorRGB
 90
-16777216
102
RTVSPost2010PropOp51
 70
     0
102
RTVSPost2010Prop52
140
1.0
102
RTVSPost2010PropOp52
 70
     0
102
RTVSPost2010Prop53
 90
        2
102
RTVSPost2010PropOp53
 70
     1
102
RTVSPost2010Prop54
  1
strokes_ogs.tif
102
RTVSPost2010PropOp54
 70
     1
102
RTVSPost2010Prop55
280
     0
102
RTVSPost2010PropOp55
 70
     1
102
RTVSPost2010Prop56
140
1.0
102
RTVSPost2010PropOp56
 70
     1
102
RTVSPost2010Prop57
140
1.0
102
RTVSPost2010PropOp57
 70
     1
  0
XRECORD
  5
57B1
102
{ACAD_REACTORS
330
57B0
102
}
330
57B0
100
AcDbXrecord
280
     1
102
RTVSPost2010Prop28
280
     0
102
RTVSPost2010PropOp28
 70
     1
102
RTVSPost2010Prop29
280
     1
102
RTVSPost2010PropOp29
 70
     1
102
RTVSPost2010Prop30
280
     1
102
RTVSPost2010PropOp30
 70
     1
102
RTVSPost2010Prop31
280
     0
102
RTVSPost2010PropOp31
 70
     1
102
RTVSPost2010Prop32
280
     0
102
RTVSPost2010PropOp32
 70
     1
102
RTVSPost2010Prop33
280
     0
102
RTVSPost2010PropOp33
 70
     1
102
RTVSPost2010Prop34
280
     0
102
RTVSPost2010PropOp34
 70
     1
102
RTVSPost2010Prop35
280
     0
102
RTVSPost2010PropOp35
 70
     1
102
RTVSPost2010Prop36
280
     0
102
RTVSPost2010PropOp36
 70
     1
102
RTVSPost2010Prop37
 90
       50
102
RTVSPost2010PropOp37
 70
     1
102
RTVSPost2010Prop38
140
0.0
102
RTVSPost2010PropOp38
 70
     1
102
RTVSPost2010Prop39
140
1.0
102
RTVSPost2010PropOp39
 70
     1
102
RTVSPost2010Prop40
 90
        0
102
RTVSPost2010PropOp40
 70
     1
102
RTVSPost2010Prop41ColorIndex
 90
       18
102
RTVSPost2010Prop41ColorRGB
 90
        0
102
RTVSPost2010PropOp41
 70
     1
102
RTVSPost2010Prop42
 90
       50
102
RTVSPost2010PropOp42
 70
     1
102
RTVSPost2010Prop43
 90
        3
102
RTVSPost2010PropOp43
 70
     1
102
RTVSPost2010Prop44ColorIndex
 90
        5
102
RTVSPost2010Prop44ColorRGB
 90
      255
102
RTVSPost2010PropOp44
 70
     1
102
RTVSPost2010Prop45
280
     0
102
RTVSPost2010PropOp45
 70
     1
102
RTVSPost2010Prop46
 90
       50
102
RTVSPost2010PropOp46
 70
     1
102
RTVSPost2010Prop47
 90
       50
102
RTVSPost2010PropOp47
 70
     1
102
RTVSPost2010Prop48
 90
       50
102
RTVSPost2010PropOp48
 70
     1
102
RTVSPost2010Prop49
280
     0
102
RTVSPost2010PropOp49
 70
     1
102
RTVSPost2010Prop50
 90
       50
102
RTVSPost2010PropOp50
 70
     1
102
RTVSPost2010Prop51ColorIndex
 90
      256
102
RTVSPost2010Prop51ColorRGB
 90
-16777216
102
RTVSPost2010PropOp51
 70
     0
102
RTVSPost2010Prop52
140
1.0
102
RTVSPost2010PropOp52
 70
     0
102
RTVSPost2010Prop53
 90
        2
102
RTVSPost2010PropOp53
 70
     1
102
RTVSPost2010Prop54
  1
strokes_ogs.tif
102
RTVSPost2010PropOp54
 70
     1
102
RTVSPost2010Prop55
280
     0
102
RTVSPost2010PropOp55
 70
     1
102
RTVSPost2010Prop56
140
1.0
102
RTVSPost2010PropOp56
 70
     1
102
RTVSPost2010Prop57
140
1.0
102
RTVSPost2010PropOp57
 70
     1
  0
XRECORD
  5
57A5
102
{ACAD_REACTORS
330
57A4
102
}
330
57A4
100
AcDbXrecord
280
     1
102
RTVSPost2010Prop28
280
     0
102
RTVSPost2010PropOp28
 70
     1
102
RTVSPost2010Prop29
280
     1
102
RTVSPost2010PropOp29
 70
     1
102
RTVSPost2010Prop30
280
     1
102
RTVSPost2010PropOp30
 70
     1
102
RTVSPost2010Prop31
280
     0
102
RTVSPost2010PropOp31
 70
     1
102
RTVSPost2010Prop32
280
     0
102
RTVSPost2010PropOp32
 70
     1
102
RTVSPost2010Prop33
280
     0
102
RTVSPost2010PropOp33
 70
     1
102
RTVSPost2010Prop34
280
     0
102
RTVSPost2010PropOp34
 70
     1
102
RTVSPost2010Prop35
280
     0
102
RTVSPost2010PropOp35
 70
     1
102
RTVSPost2010Prop36
280
     0
102
RTVSPost2010PropOp36
 70
     1
102
RTVSPost2010Prop37
 90
       50
102
RTVSPost2010PropOp37
 70
     1
102
RTVSPost2010Prop38
140
0.0
102
RTVSPost2010PropOp38
 70
     1
102
RTVSPost2010Prop39
140
1.0
102
RTVSPost2010PropOp39
 70
     1
102
RTVSPost2010Prop40
 90
        0
102
RTVSPost2010PropOp40
 70
     1
102
RTVSPost2010Prop41ColorIndex
 90
       18
102
RTVSPost2010Prop41ColorRGB
 90
        0
102
RTVSPost2010PropOp41
 70
     1
102
RTVSPost2010Prop42
 90
       50
102
RTVSPost2010PropOp42
 70
     1
102
RTVSPost2010Prop43
 90
        3
102
RTVSPost2010PropOp43
 70
     1
102
RTVSPost2010Prop44ColorIndex
 90
        5
102
RTVSPost2010Prop44ColorRGB
 90
      255
102
RTVSPost2010PropOp44
 70
     1
102
RTVSPost2010Prop45
280
     0
102
RTVSPost2010PropOp45
 70
     1
102
RTVSPost2010Prop46
 90
       50
102
RTVSPost2010PropOp46
 70
     1
102
RTVSPost2010Prop47
 90
       50
102
RTVSPost2010PropOp47
 70
     1
102
RTVSPost2010Prop48
 90
       50
102
RTVSPost2010PropOp48
 70
     1
102
RTVSPost2010Prop49
280
     0
102
RTVSPost2010PropOp49
 70
     1
102
RTVSPost2010Prop50
 90
       50
102
RTVSPost2010PropOp50
 70
     1
102
RTVSPost2010Prop51ColorIndex
 90
      256
102
RTVSPost2010Prop51ColorRGB
 90
-16777216
102
RTVSPost2010PropOp51
 70
     0
102
RTVSPost2010Prop52
140
1.0
102
RTVSPost2010PropOp52
 70
     0
102
RTVSPost2010Prop53
 90
        2
102
RTVSPost2010PropOp53
 70
     1
102
RTVSPost2010Prop54
  1
strokes_ogs.tif
102
RTVSPost2010PropOp54
 70
     1
102
RTVSPost2010Prop55
280
     0
102
RTVSPost2010PropOp55
 70
     1
102
RTVSPost2010Prop56
140
1.0
102
RTVSPost2010PropOp56
 70
     1
102
RTVSPost2010Prop57
140
1.0
102
RTVSPost2010PropOp57
 70
     1
  0
XRECORD
  5
57C3
102
{ACAD_REACTORS
330
57C2
102
}
330
57C2
100
AcDbXrecord
280
     1
102
RTVSPost2010Prop28
280
     0
102
RTVSPost2010PropOp28
 70
     1
102
RTVSPost2010Prop29
280
     1
102
RTVSPost2010PropOp29
 70
     1
102
RTVSPost2010Prop30
280
     1
102
RTVSPost2010PropOp30
 70
     1
102
RTVSPost2010Prop31
280
     0
102
RTVSPost2010PropOp31
 70
     1
102
RTVSPost2010Prop32
280
     0
102
RTVSPost2010PropOp32
 70
     1
102
RTVSPost2010Prop33
280
     0
102
RTVSPost2010PropOp33
 70
     1
102
RTVSPost2010Prop34
280
     0
102
RTVSPost2010PropOp34
 70
     1
102
RTVSPost2010Prop35
280
     0
102
RTVSPost2010PropOp35
 70
     1
102
RTVSPost2010Prop36
280
     0
102
RTVSPost2010PropOp36
 70
     1
102
RTVSPost2010Prop37
 90
       50
102
RTVSPost2010PropOp37
 70
     1
102
RTVSPost2010Prop38
140
0.0
102
RTVSPost2010PropOp38
 70
     1
102
RTVSPost2010Prop39
140
1.0
102
RTVSPost2010PropOp39
 70
     1
102
RTVSPost2010Prop40
 90
        0
102
RTVSPost2010PropOp40
 70
     1
102
RTVSPost2010Prop41ColorIndex
 90
       18
102
RTVSPost2010Prop41ColorRGB
 90
        0
102
RTVSPost2010PropOp41
 70
     1
102
RTVSPost2010Prop42
 90
       50
102
RTVSPost2010PropOp42
 70
     1
102
RTVSPost2010Prop43
 90
        3
102
RTVSPost2010PropOp43
 70
     1
102
RTVSPost2010Prop44ColorIndex
 90
        5
102
RTVSPost2010Prop44ColorRGB
 90
      255
102
RTVSPost2010PropOp44
 70
     1
102
RTVSPost2010Prop45
280
     0
102
RTVSPost2010PropOp45
 70
     1
102
RTVSPost2010Prop46
 90
       50
102
RTVSPost2010PropOp46
 70
     1
102
RTVSPost2010Prop47
 90
       50
102
RTVSPost2010PropOp47
 70
     1
102
RTVSPost2010Prop48
 90
       50
102
RTVSPost2010PropOp48
 70
     1
102
RTVSPost2010Prop49
280
     0
102
RTVSPost2010PropOp49
 70
     1
102
RTVSPost2010Prop50
 90
       50
102
RTVSPost2010PropOp50
 70
     1
102
RTVSPost2010Prop51ColorIndex
 90
      256
102
RTVSPost2010Prop51ColorRGB
 90
-16777216
102
RTVSPost2010PropOp51
 70
     0
102
RTVSPost2010Prop52
140
1.0
102
RTVSPost2010PropOp52
 70
     0
102
RTVSPost2010Prop53
 90
        2
102
RTVSPost2010PropOp53
 70
     1
102
RTVSPost2010Prop54
  1
strokes_ogs.tif
102
RTVSPost2010PropOp54
 70
     1
102
RTVSPost2010Prop55
280
     0
102
RTVSPost2010PropOp55
 70
     1
102
RTVSPost2010Prop56
140
1.0
102
RTVSPost2010PropOp56
 70
     1
102
RTVSPost2010Prop57
140
1.0
102
RTVSPost2010PropOp57
 70
     1
  0
ENDSEC
  0
EOF
