  0
SECTION
  2
HEADER
  9
$ACADVER
  1
AC1015
  9
$ACADMAINTVER
 70
    20
  9
$DWGCODEPAGE
  3
ANSI_932
  9
$INSBASE
 10
0.0
 20
0.0
 30
0.0
  9
$EXTMIN
 10
0.0
 20
0.0
 30
0.0
  9
$EXTMAX
 10
840.9999999999998
 20
594.0
 30
0.0
  9
$LIMMIN
 10
0.0
 20
0.0
  9
$LIMMAX
 10
420.0
 20
297.0
  9
$ORTHOMODE
 70
     1
  9
$REGENMODE
 70
     1
  9
$FILLMODE
 70
     1
  9
$QTEXTMODE
 70
     0
  9
$MIRRTEXT
 70
     0
  9
$LTSCALE
 40
0.3
  9
$ATTMODE
 70
     1
  9
$TEXTSIZE
 40
5.0
  9
$TRACEWID
 40
1.0
  9
$TEXTSTYLE
  7
文字
  9
$CLAYER
  8
01_仮想線
  9
$CELTYPE
  6
ByLayer
  9
$CECOLOR
 62
   256
  9
$CELTSCALE
 40
1.0
  9
$DISPSILH
 70
     0
  9
$DIMSCALE
 40
1.0
  9
$DIMASZ
 40
7.0
  9
$DIMEXO
 40
1.5
  9
$DIMDLI
 40
10.0
  9
$DIMRND
 40
0.0
  9
$DIMDLE
 40
0.0
  9
$DIMEXE
 40
0.0
  9
$DIMTP
 40
0.0
  9
$DIMTM
 40
0.0
  9
$DIMTXT
 40
5.0
  9
$DIMCEN
 40
0.0
  9
$DIMTSZ
 40
0.0
  9
$DIMTOL
 70
     0
  9
$DIMLIM
 70
     0
  9
$DIMTIH
 70
     0
  9
$DIMTOH
 70
     0
  9
$DIMSE1
 70
     0
  9
$DIMSE2
 70
     0
  9
$DIMTAD
 70
     1
  9
$DIMZIN
 70
     8
  9
$DIMBLK
  1
DotSmall
  9
$DIMASO
 70
     1
  9
$DIMSHO
 70
     1
  9
$DIMPOST
  1

  9
$DIMAPOST
  1

  9
$DIMALT
 70
     0
  9
$DIMALTD
 70
     3
  9
$DIMALTF
 40
0.03937007874016
  9
$DIMLFAC
 40
1.0
  9
$DIMTOFL
 70
     1
  9
$DIMTVP
 40
0.0
  9
$DIMTIX
 70
     1
  9
$DIMSOXD
 70
     0
  9
$DIMSAH
 70
     0
  9
$DIMBLK1
  1

  9
$DIMBLK2
  1

  9
$DIMSTYLE
  2
寸法(1-1)
  9
$DIMCLRD
 70
   256
  9
$DIMCLRE
 70
   256
  9
$DIMCLRT
 70
   256
  9
$DIMTFAC
 40
1.0
  9
$DIMGAP
 40
1.0
  9
$DIMJUST
 70
     0
  9
$DIMSD1
 70
     0
  9
$DIMSD2
 70
     0
  9
$DIMTOLJ
 70
     0
  9
$DIMTZIN
 70
     8
  9
$DIMALTZ
 70
     0
  9
$DIMALTTZ
 70
     0
  9
$DIMUPT
 70
     0
  9
$DIMDEC
 70
     2
  9
$DIMTDEC
 70
     2
  9
$DIMALTU
 70
     2
  9
$DIMALTTD
 70
     3
  9
$DIMTXSTY
  7
文字
  9
$DIMAUNIT
 70
     0
  9
$DIMADEC
 70
     0
  9
$DIMALTRND
 40
0.0
  9
$DIMAZIN
 70
     0
  9
$DIMDSEP
 70
    46
  9
$DIMATFIT
 70
     3
  9
$DIMFRAC
 70
     0
  9
$DIMLDRBLK
  1
None
  9
$DIMLUNIT
 70
     2
  9
$DIMLWD
 70
    -1
  9
$DIMLWE
 70
    -1
  9
$DIMTMOVE
 70
     1
  9
$LUNITS
 70
     2
  9
$LUPREC
 70
     4
  9
$SKETCHINC
 40
1.0
  9
$FILLETRAD
 40
2.299999999999999
  9
$AUNITS
 70
     0
  9
$AUPREC
 70
     0
  9
$MENU
  1
.
  9
$ELEVATION
 40
0.0
  9
$PELEVATION
 40
0.0
  9
$THICKNESS
 40
0.0
  9
$LIMCHECK
 70
     0
  9
$CHAMFERA
 40
0.0
  9
$CHAMFERB
 40
0.0
  9
$CHAMFERC
 40
0.0
  9
$CHAMFERD
 40
0.0
  9
$SKPOLY
 70
     0
  9
$TDCREATE
 40
2458517.519039352
  9
$TDUCREATE
 40
2458517.144039352
  9
$TDUPDATE
 40
2459150.683009259
  9
$TDUUPDATE
 40
2459150.308009260
  9
$TDINDWG
 40
0.4970601852
  9
$TDUSRTIMER
 40
0.4970601852
  9
$USRTIMER
 70
     1
  9
$ANGBASE
 50
0.0
  9
$ANGDIR
 70
     0
  9
$PDMODE
 70
     0
  9
$PDSIZE
 40
0.0
  9
$PLINEWID
 40
0.0
  9
$SPLFRAME
 70
     0
  9
$SPLINETYPE
 70
     6
  9
$SPLINESEGS
 70
     8
  9
$HANDSEED
  5
442D
  9
$SURFTAB1
 70
     6
  9
$SURFTAB2
 70
     6
  9
$SURFTYPE
 70
     6
  9
$SURFU
 70
     6
  9
$SURFV
 70
     6
  9
$UCSBASE
  2

  9
$UCSNAME
  2

  9
$UCSORG
 10
0.0
 20
0.0
 30
0.0
  9
$UCSXDIR
 10
1.0
 20
0.0
 30
0.0
  9
$UCSYDIR
 10
0.0
 20
1.0
 30
0.0
  9
$UCSORTHOREF
  2

  9
$UCSORTHOVIEW
 70
     0
  9
$UCSORGTOP
 10
0.0
 20
0.0
 30
0.0
  9
$UCSORGBOTTOM
 10
0.0
 20
0.0
 30
0.0
  9
$UCSORGLEFT
 10
0.0
 20
0.0
 30
0.0
  9
$UCSORGRIGHT
 10
0.0
 20
0.0
 30
0.0
  9
$UCSORGFRONT
 10
0.0
 20
0.0
 30
0.0
  9
$UCSORGBACK
 10
0.0
 20
0.0
 30
0.0
  9
$PUCSBASE
  2

  9
$PUCSNAME
  2

  9
$PUCSORG
 10
0.0
 20
0.0
 30
0.0
  9
$PUCSXDIR
 10
1.0
 20
0.0
 30
0.0
  9
$PUCSYDIR
 10
0.0
 20
1.0
 30
0.0
  9
$PUCSORTHOREF
  2

  9
$PUCSORTHOVIEW
 70
     0
  9
$PUCSORGTOP
 10
0.0
 20
0.0
 30
0.0
  9
$PUCSORGBOTTOM
 10
0.0
 20
0.0
 30
0.0
  9
$PUCSORGLEFT
 10
0.0
 20
0.0
 30
0.0
  9
$PUCSORGRIGHT
 10
0.0
 20
0.0
 30
0.0
  9
$PUCSORGFRONT
 10
0.0
 20
0.0
 30
0.0
  9
$PUCSORGBACK
 10
0.0
 20
0.0
 30
0.0
  9
$USERI1
 70
     0
  9
$USERI2
 70
     0
  9
$USERI3
 70
     0
  9
$USERI4
 70
     0
  9
$USERI5
 70
     0
  9
$USERR1
 40
0.0
  9
$USERR2
 40
0.0
  9
$USERR3
 40
0.0
  9
$USERR4
 40
0.0
  9
$USERR5
 40
0.0
  9
$WORLDVIEW
 70
     1
  9
$SHADEDGE
 70
     3
  9
$SHADEDIF
 70
    70
  9
$TILEMODE
 70
     1
  9
$MAXACTVP
 70
    64
  9
$PINSBASE
 10
0.0
 20
0.0
 30
0.0
  9
$PLIMCHECK
 70
     0
  9
$PEXTMIN
 10
0.0
 20
0.0
 30
0.0
  9
$PEXTMAX
 10
0.0
 20
0.0
 30
0.0
  9
$PLIMMIN
 10
0.0
 20
0.0
  9
$PLIMMAX
 10
12.0
 20
9.0
  9
$UNITMODE
 70
     0
  9
$VISRETAIN
 70
     1
  9
$PLINEGEN
 70
     0
  9
$PSLTSCALE
 70
     1
  9
$TREEDEPTH
 70
  3020
  9
$CMLSTYLE
  2
Standard
  9
$CMLJUST
 70
     0
  9
$CMLSCALE
 40
20.0
  9
$PROXYGRAPHICS
 70
     1
  9
$MEASUREMENT
 70
     1
  9
$CELWEIGHT
370
    -1
  9
$ENDCAPS
280
     0
  9
$JOINSTYLE
280
     0
  9
$LWDISPLAY
290
     0
  9
$INSUNITS
 70
     4
  9
$HYPERLINKBASE
  1

  9
$STYLESHEET
  1
monochrome.ctb
  9
$XEDIT
290
     1
  9
$CEPSNTYPE
380
     0
  9
$PSTYLEMODE
290
     1
  9
$FINGERPRINTGUID
  2
{36065406-405B-9E42-9A5B-834788FB4A87}
  9
$VERSIONGUID
  2
{01CDE3D4-272C-394A-AF96-80F1DDE9EAF9}
  9
$EXTNAMES
290
     1
  9
$PSVPSCALE
 40
0.0
  9
$OLESTARTUP
290
     0
  0
ENDSEC
  0
SECTION
  2
CLASSES
  0
CLASS
  1
ACDBDICTIONARYWDFLT
  2
AcDbDictionaryWithDefault
  3
ObjectDBX Classes
 90
        0
280
     0
281
     0
  0
CLASS
  1
ACDBPLACEHOLDER
  2
AcDbPlaceHolder
  3
ObjectDBX Classes
 90
        0
280
     0
281
     0
  0
CLASS
  1
LAYOUT
  2
AcDbLayout
  3
ObjectDBX Classes
 90
        0
280
     0
281
     0
  0
CLASS
  1
DICTIONARYVAR
  2
AcDbDictionaryVar
  3
ObjectDBX Classes
 90
        0
280
     0
281
     0
  0
CLASS
  1
TABLESTYLE
  2
AcDbTableStyle
  3
ObjectDBX Classes
 90
     4095
280
     0
281
     0
  0
CLASS
  1
MATERIAL
  2
AcDbMaterial
  3
ObjectDBX Classes
 90
     1153
280
     0
281
     0
  0
CLASS
  1
VISUALSTYLE
  2
AcDbVisualStyle
  3
ObjectDBX Classes
 90
     4095
280
     0
281
     0
  0
CLASS
  1
SCALE
  2
AcDbScale
  3
ObjectDBX Classes
 90
     1153
280
     0
281
     0
  0
CLASS
  1
MLEADERSTYLE
  2
AcDbMLeaderStyle
  3
ACDB_MLEADERSTYLE_CLASS
 90
     4095
280
     0
281
     0
  0
CLASS
  1
CELLSTYLEMAP
  2
AcDbCellStyleMap
  3
ObjectDBX Classes
 90
     1152
280
     0
281
     0
  0
CLASS
  1
EXACXREFPANELOBJECT
  2
ExAcXREFPanelObject
  3
EXAC_ESW
 90
    33793
280
     0
281
     0
  0
CLASS
  1
NPOCOLLECTION
  2
AcDbImpNonPersistentObjectsCollection
  3
ObjectDBX Classes
 90
    33921
280
     0
281
     0
  0
CLASS
  1
LAYER_INDEX
  2
AcDbLayerIndex
  3
ObjectDBX Classes
 90
    32768
280
     0
281
     0
  0
CLASS
  1
SPATIAL_INDEX
  2
AcDbSpatialIndex
  3
ObjectDBX Classes
 90
    32768
280
     0
281
     0
  0
CLASS
  1
IDBUFFER
  2
AcDbIdBuffer
  3
ObjectDBX Classes
 90
    32768
280
     0
281
     0
  0
CLASS
  1
ACDBSECTIONVIEWSTYLE
  2
AcDbSectionViewStyle
  3
ObjectDBX Classes
 90
     1025
280
     0
281
     0
  0
CLASS
  1
ACDBDETAILVIEWSTYLE
  2
AcDbDetailViewStyle
  3
ObjectDBX Classes
 90
     1025
280
     0
281
     0
  0
CLASS
  1
MULTILEADER
  2
AcDbMLeader
  3
ACDB_MLEADER_CLASS
 90
    33793
280
     0
281
     1
  0
CLASS
  1
SORTENTSTABLE
  2
AcDbSortentsTable
  3
ObjectDBX Classes
 90
        0
280
     0
281
     0
  0
CLASS
  1
PLOTSETTINGS
  2
AcDbPlotSettings
  3
ObjectDBX Classes
 90
        0
280
     0
281
     0
  0
CLASS
  1
DIMASSOC
  2
AcDbDimAssoc
  3
"AcDbDimAssoc|Product Desc:     AcDim ARX App For Dimension|Company:          Autodesk, Inc.|WEB Address:      www.autodesk.com"
 90
        0
280
     0
281
     0
  0
ENDSEC
  0
SECTION
  2
TABLES
  0
TABLE
  2
VPORT
  5
8
102
{ACAD_XDICTIONARY
360
1C0D
102
}
330
0
100
AcDbSymbolTable
 70
     1
  0
VPORT
  5
EA
330
8
100
AcDbSymbolTableRecord
100
AcDbViewportTableRecord
  2
*Active
 70
     0
 10
0.0
 20
0.0
 11
1.0
 21
1.0
 12
420.5000171345451
 22
307.633648844191
 13
0.0
 23
0.0
 14
10.0
 24
10.0
 15
10.0
 25
10.0
 16
0.0
 26
0.0
 36
1.0
 17
0.0
 27
0.0
 37
0.0
 40
598.4517170571287
 41
2.351715686274509
 42
50.0
 43
0.0
 44
0.0
 50
0.0
 51
0.0
 71
     0
 72
  1000
 73
     1
 74
     3
 75
     0
 76
     0
 77
     0
 78
     0
281
     0
 65
     1
110
0.0
120
0.0
130
0.0
111
1.0
121
0.0
131
0.0
112
0.0
122
1.0
132
0.0
 79
     0
146
0.0
1001
ACAD_NAV_VCDISPLAY
1070
     3
  0
ENDTAB
  0
TABLE
  2
LTYPE
  5
5
330
0
100
AcDbSymbolTable
 70
     4
  0
LTYPE
  5
14
330
5
100
AcDbSymbolTableRecord
100
AcDbLinetypeTableRecord
  2
ByBlock
 70
     0
  3

 72
    65
 73
     0
 40
0.0
  0
LTYPE
  5
15
330
5
100
AcDbSymbolTableRecord
100
AcDbLinetypeTableRecord
  2
ByLayer
 70
     0
  3

 72
    65
 73
     0
 40
0.0
  0
LTYPE
  5
16
330
5
100
AcDbSymbolTableRecord
100
AcDbLinetypeTableRecord
  2
Continuous
 70
     0
  3
Solid line
 72
    65
 73
     0
 40
0.0
  0
LTYPE
  5
289
330
5
100
AcDbSymbolTableRecord
100
AcDbLinetypeTableRecord
  2
HIDDEN
 70
     0
  3
Hidden __ __ __ __ __ __ __ __ __ __ __ __ __ _
 72
    65
 73
     2
 40
9.524999999999998
 49
6.349999999999999
 74
     0
 49
-3.174999999999999
 74
     0
  0
LTYPE
  5
28B
330
5
100
AcDbSymbolTableRecord
100
AcDbLinetypeTableRecord
  2
CENTER
 70
     0
  3
Center ____ _ ____ _ ____ _ ____ _ ____ _ ____
 72
    65
 73
     4
 40
50.8
 49
31.75
 74
     0
 49
-6.349999999999999
 74
     0
 49
6.349999999999999
 74
     0
 49
-6.349999999999999
 74
     0
  0
LTYPE
  5
28D
330
5
100
AcDbSymbolTableRecord
100
AcDbLinetypeTableRecord
  2
PHANTOM
 70
     0
  3
Phantom ______  __  __  ______  __  __  ______
 72
    65
 73
     6
 40
63.5
 49
31.75
 74
     0
 49
-6.349999999999999
 74
     0
 49
6.349999999999999
 74
     0
 49
-6.349999999999999
 74
     0
 49
6.349999999999999
 74
     0
 49
-6.349999999999999
 74
     0
  0
ENDTAB
  0
TABLE
  2
LAYER
  5
2
102
{ACAD_XDICTIONARY
360
1FF
102
}
330
0
100
AcDbSymbolTable
 70
    22
  0
LAYER
  5
10
102
{ACAD_XDICTIONARY
360
13C
102
}
330
2
100
AcDbSymbolTableRecord
100
AcDbLayerTableRecord
  2
0
 70
     0
 62
     7
  6
Continuous
370
    -3
390
F
  0
LAYER
  5
281
330
2
100
AcDbSymbolTableRecord
100
AcDbLayerTableRecord
  2
01_仮想線
 70
     0
 62
   251
  6
Continuous
290
     0
370
    13
390
F
1001
AcAecLayerStandard
1000

1000

1001
AcCmTransparency
1071
        0
  0
LAYER
  5
284
330
2
100
AcDbSymbolTableRecord
100
AcDbLayerTableRecord
  2
02_図枠
 70
     0
 62
     7
  6
Continuous
370
    13
390
F
1001
AcAecLayerStandard
1000

1000

1001
AcCmTransparency
1071
        0
  0
LAYER
  5
285
330
2
100
AcDbSymbolTableRecord
100
AcDbLayerTableRecord
  2
03_枠(実線)
 70
     0
 62
     3
  6
Continuous
370
    13
390
F
1001
AcAecLayerStandard
1000

1000

1001
AcCmTransparency
1071
        0
  0
LAYER
  5
286
330
2
100
AcDbSymbolTableRecord
100
AcDbLayerTableRecord
  2
04_枠(破線)
 70
     0
 62
     3
  6
HIDDEN
370
    13
390
F
1001
AcAecLayerStandard
1000

1000

1001
AcCmTransparency
1071
        0
  0
LAYER
  5
28A
330
2
100
AcDbSymbolTableRecord
100
AcDbLayerTableRecord
  2
05_枠(一点鎖線)
 70
     0
 62
     3
  6
CENTER
370
    13
390
F
1001
AcAecLayerStandard
1000

1000

1001
AcCmTransparency
1071
        0
  0
LAYER
  5
28C
330
2
100
AcDbSymbolTableRecord
100
AcDbLayerTableRecord
  2
06_枠(二点鎖線)
 70
     0
 62
     3
  6
PHANTOM
370
    13
390
F
1001
AcAecLayerStandard
1000

1000

1001
AcCmTransparency
1071
        0
  0
LAYER
  5
28E
330
2
100
AcDbSymbolTableRecord
100
AcDbLayerTableRecord
  2
07_扉(実線)
 70
     0
 62
     5
  6
Continuous
370
    13
390
F
1001
AcAecLayerStandard
1000

1000

1001
AcCmTransparency
1071
        0
  0
LAYER
  5
28F
330
2
100
AcDbSymbolTableRecord
100
AcDbLayerTableRecord
  2
08_扉(破線)
 70
     0
 62
     5
  6
HIDDEN
370
    13
390
F
1001
AcAecLayerStandard
1000

1000

1001
AcCmTransparency
1071
        0
  0
LAYER
  5
290
330
2
100
AcDbSymbolTableRecord
100
AcDbLayerTableRecord
  2
09_扉(一点鎖線)
 70
     0
 62
     5
  6
CENTER
370
    13
390
F
1001
AcAecLayerStandard
1000

1000

1001
AcCmTransparency
1071
        0
  0
LAYER
  5
291
330
2
100
AcDbSymbolTableRecord
100
AcDbLayerTableRecord
  2
10_扉(二点鎖線)
 70
     0
 62
     5
  6
PHANTOM
370
    13
390
F
1001
AcAecLayerStandard
1000

1000

1001
AcCmTransparency
1071
        0
  0
LAYER
  5
292
330
2
100
AcDbSymbolTableRecord
100
AcDbLayerTableRecord
  2
11_金物(実線)
 70
     0
 62
     2
  6
Continuous
370
    13
390
F
1001
AcAecLayerStandard
1000

1000

1001
AcCmTransparency
1071
        0
  0
LAYER
  5
293
330
2
100
AcDbSymbolTableRecord
100
AcDbLayerTableRecord
  2
12_金物(破線)
 70
     0
 62
     2
  6
HIDDEN
370
    13
390
F
1001
AcAecLayerStandard
1000

1000

1001
AcCmTransparency
1071
        0
  0
LAYER
  5
294
330
2
100
AcDbSymbolTableRecord
100
AcDbLayerTableRecord
  2
13_金物(一点鎖線)
 70
     0
 62
     2
  6
CENTER
370
    13
390
F
1001
AcAecLayerStandard
1000

1000

1001
AcCmTransparency
1071
        0
  0
LAYER
  5
295
330
2
100
AcDbSymbolTableRecord
100
AcDbLayerTableRecord
  2
14_金物(二点鎖線)
 70
     0
 62
     2
  6
PHANTOM
370
    13
390
F
1001
AcAecLayerStandard
1000

1000

1001
AcCmTransparency
1071
        0
  0
LAYER
  5
296
330
2
100
AcDbSymbolTableRecord
100
AcDbLayerTableRecord
  2
15_納まり(実線)
 70
     0
 62
     4
  6
Continuous
370
    13
390
F
1001
AcAecLayerStandard
1000

1000

1001
AcCmTransparency
1071
        0
  0
LAYER
  5
297
330
2
100
AcDbSymbolTableRecord
100
AcDbLayerTableRecord
  2
16_納まり(破線)
 70
     0
 62
     4
  6
HIDDEN
370
    13
390
F
1001
AcAecLayerStandard
1000

1000

1001
AcCmTransparency
1071
        0
  0
LAYER
  5
298
330
2
100
AcDbSymbolTableRecord
100
AcDbLayerTableRecord
  2
17_納まり(一点鎖線)
 70
     0
 62
     4
  6
CENTER
370
    13
390
F
1001
AcAecLayerStandard
1000

1000

1001
AcCmTransparency
1071
        0
  0
LAYER
  5
299
330
2
100
AcDbSymbolTableRecord
100
AcDbLayerTableRecord
  2
18_納まり(二点鎖線)
 70
     0
 62
     4
  6
PHANTOM
370
    13
390
F
1001
AcAecLayerStandard
1000

1000

1001
AcCmTransparency
1071
        0
  0
LAYER
  5
29A
330
2
100
AcDbSymbolTableRecord
100
AcDbLayerTableRecord
  2
19_寸法線・引出線
 70
     0
 62
     1
  6
Continuous
370
    13
390
F
1001
AcAecLayerStandard
1000

1000

1001
AcCmTransparency
1071
        0
  0
LAYER
  5
29B
330
2
100
AcDbSymbolTableRecord
100
AcDbLayerTableRecord
  2
20_文字
 70
     0
 62
     6
  6
Continuous
370
    13
390
F
1001
AcAecLayerStandard
1000

1000

1001
AcCmTransparency
1071
        0
  0
LAYER
  5
2BE
330
2
100
AcDbSymbolTableRecord
100
AcDbLayerTableRecord
  2
Defpoints
 70
     0
 62
     7
  6
Continuous
290
     0
370
    -3
390
F
  0
ENDTAB
  0
TABLE
  2
STYLE
  5
3
330
0
100
AcDbSymbolTable
 70
     4
  0
STYLE
  5
11
330
3
100
AcDbSymbolTableRecord
100
AcDbTextStyleTableRecord
  2
Standard
 70
     0
 40
0.0
 41
1.0
 50
0.0
 71
     0
 42
2.5
  3
arial.ttf
  4

1001
ACAD
1000
Arial
1071
       34
  0
STYLE
  5
132
330
3
100
AcDbSymbolTableRecord
100
AcDbTextStyleTableRecord
  2
Annotative
 70
     0
 40
0.0
 41
1.0
 50
0.0
 71
     0
 42
2.5
  3
arial.ttf
  4

1001
AcadAnnotative
1000
AnnotativeData
1002
{
1070
     1
1070
     1
1002
}
1001
ACAD
1000
Arial
1071
       34
  0
STYLE
  5
288
330
3
100
AcDbSymbolTableRecord
100
AcDbTextStyleTableRecord
  2

 70
     1
 40
0.0
 41
1.0
 50
0.0
 71
     0
 42
2.5
  3
ltypeshp.shx
  4

  0
STYLE
  5
29D
330
3
100
AcDbSymbolTableRecord
100
AcDbTextStyleTableRecord
  2
文字
 70
     0
 40
0.0
 41
0.7
 50
0.0
 71
     0
 42
5.0
  3
romans.shx
  4
extfont2.shx
  0
ENDTAB
  0
TABLE
  2
VIEW
  5
6
330
0
100
AcDbSymbolTable
 70
     0
  0
ENDTAB
  0
TABLE
  2
UCS
  5
7
330
0
100
AcDbSymbolTable
 70
     0
  0
ENDTAB
  0
TABLE
  2
APPID
  5
9
330
0
100
AcDbSymbolTable
 70
    19
  0
APPID
  5
12
330
9
100
AcDbSymbolTableRecord
100
AcDbRegAppTableRecord
  2
ACAD
 70
     0
  0
APPID
  5
9E
330
9
100
AcDbSymbolTableRecord
100
AcDbRegAppTableRecord
  2
ACAD_PSEXT
 70
     0
  0
APPID
  5
133
330
9
100
AcDbSymbolTableRecord
100
AcDbRegAppTableRecord
  2
AcadAnnoPO
 70
     0
  0
APPID
  5
134
330
9
100
AcDbSymbolTableRecord
100
AcDbRegAppTableRecord
  2
AcadAnnotative
 70
     0
  0
APPID
  5
135
330
9
100
AcDbSymbolTableRecord
100
AcDbRegAppTableRecord
  2
ACAD_DSTYLE_DIMJAG
 70
     0
  0
APPID
  5
136
330
9
100
AcDbSymbolTableRecord
100
AcDbRegAppTableRecord
  2
ACAD_DSTYLE_DIMTALN
 70
     0
  0
APPID
  5
165
330
9
100
AcDbSymbolTableRecord
100
AcDbRegAppTableRecord
  2
ACAD_MLEADERVER
 70
     0
  0
APPID
  5
217
330
9
100
AcDbSymbolTableRecord
100
AcDbRegAppTableRecord
  2
ACAD_NAV_VCDISPLAY
 70
     0
  0
APPID
  5
282
330
9
100
AcDbSymbolTableRecord
100
AcDbRegAppTableRecord
  2
AcAecLayerStandard
 70
     0
  0
APPID
  5
283
330
9
100
AcDbSymbolTableRecord
100
AcDbRegAppTableRecord
  2
AcCmTransparency
 70
     0
  0
APPID
  5
2A2
330
9
100
AcDbSymbolTableRecord
100
AcDbRegAppTableRecord
  2
ACAD_DSTYLE_DIMBREAK
 70
     0
  0
APPID
  5
2DD
330
9
100
AcDbSymbolTableRecord
100
AcDbRegAppTableRecord
  2
AcadAnnoMonitorAlertIconDisabled
 70
     0
  0
APPID
  5
2DE
330
9
100
AcDbSymbolTableRecord
100
AcDbRegAppTableRecord
  2
ACAD_EXEMPT_FROM_CAD_STANDARDS
 70
     0
  0
APPID
  5
886
330
9
100
AcDbSymbolTableRecord
100
AcDbRegAppTableRecord
  2
GradientColor1ACI
 70
     0
  0
APPID
  5
887
330
9
100
AcDbSymbolTableRecord
100
AcDbRegAppTableRecord
  2
GradientColor2ACI
 70
     0
  0
APPID
  5
1669
330
9
100
AcDbSymbolTableRecord
100
AcDbRegAppTableRecord
  2
ACAD_DSTYLE_DIMRADIAL_EXTENSION
 70
     0
  0
APPID
  5
1C4C
330
9
100
AcDbSymbolTableRecord
100
AcDbRegAppTableRecord
  2
ACAD_DSTYLE_DIM_LINETYPE
 70
     0
  0
APPID
  5
1C4D
330
9
100
AcDbSymbolTableRecord
100
AcDbRegAppTableRecord
  2
ACAD_DSTYLE_DIM_EXT1_LINETYPE
 70
     0
  0
APPID
  5
1C4E
330
9
100
AcDbSymbolTableRecord
100
AcDbRegAppTableRecord
  2
ACAD_DSTYLE_DIM_EXT2_LINETYPE
 70
     0
  0
ENDTAB
  0
TABLE
  2
DIMSTYLE
  5
A
330
0
100
AcDbSymbolTable
 70
     7
100
AcDbDimStyleTable
 71
     5
340
2BC
340
125C
340
544
340
5B6
340
1B0
  0
DIMSTYLE
105
1B0
330
A
100
AcDbSymbolTableRecord
100
AcDbDimStyleTableRecord
  2
Standard
 70
     0
340
11
  0
DIMSTYLE
105
137
330
A
100
AcDbSymbolTableRecord
100
AcDbDimStyleTableRecord
  2
Annotative
 70
     0
 40
0.0
 41
2.5
 42
0.625
 43
3.75
 44
1.25
 73
     0
 74
     0
 77
     1
 78
     8
140
2.5
141
2.5
143
0.03937007874016
147
0.625
171
     3
172
     1
271
     2
272
     2
274
     3
278
    44
283
     0
284
     8
340
11
1001
AcadAnnotative
1000
AnnotativeData
1002
{
1070
     1
1070
     1
1002
}
1001
ACAD_DSTYLE_DIMJAG
1070
   388
1040
1.5
1001
ACAD_DSTYLE_DIMTALN
1070
   392
1070
     0
  0
DIMSTYLE
105
27
330
A
100
AcDbSymbolTableRecord
100
AcDbDimStyleTableRecord
  2
ISO-25
 70
     0
 41
2.5
 42
0.625
 43
3.75
 44
1.25
 73
     0
 74
     0
 77
     1
 78
     8
140
2.5
141
2.5
143
0.03937007874016
147
0.625
171
     3
172
     1
271
     2
272
     2
274
     3
278
    44
283
     0
284
     8
340
11
  0
DIMSTYLE
105
2BC
102
{ACAD_REACTORS
330
3F05
330
3F06
330
3F07
330
3F08
330
3F0D
330
3F1C
330
3F1D
330
3F1E
330
3F1F
330
3F20
330
3F21
330
3F22
330
3F23
330
3F24
330
3F25
330
3F26
330
3F27
330
3F28
330
3F29
330
3F2A
330
3F2B
330
3F2C
330
3F2D
330
3F2E
330
3F2F
330
3F30
330
3F31
330
3F32
330
3F33
330
3F34
330
3F35
330
3F36
330
3F37
330
3F38
330
3F39
330
3F3A
330
3F3B
330
3F3C
330
3F3D
330
3F3E
330
3F3F
330
3F40
330
3F41
330
3F42
330
3F43
330
3F44
102
}
330
A
100
AcDbSymbolTableRecord
100
AcDbDimStyleTableRecord
  2
寸法(1-1)
 70
     0
 41
7.0
 42
1.5
 43
10.0
 44
0.0
 73
     0
 74
     0
 77
     1
 78
     8
140
5.0
141
0.0
143
0.03937007874016
147
1.0
171
     3
172
     1
174
     1
176
   256
177
   256
178
   256
271
     2
272
     2
274
     3
279
     1
283
     0
284
     8
340
29D
341
2AD
342
2A3
371
    -1
372
    -1
1001
ACAD_DSTYLE_DIMBREAK
1070
   391
1040
0.0
1001
ACAD_DSTYLE_DIMJAG
1070
   388
1040
1.5
1001
ACAD_DSTYLE_DIMTALN
1070
   392
1070
     0
1001
ACAD_DSTYLE_DIM_LINETYPE
1070
   380
1005
15
1001
ACAD_DSTYLE_DIM_EXT1_LINETYPE
1070
   381
1005
15
1001
ACAD_DSTYLE_DIM_EXT2_LINETYPE
1070
   382
1005
15
  0
DIMSTYLE
105
544
330
A
100
AcDbSymbolTableRecord
100
AcDbDimStyleTableRecord
  2
WH寸法(1-1)
 70
     0
 41
10.0
 42
1.5
 43
10.0
 44
0.0
 73
     0
 74
     0
 77
     1
 78
     8
140
5.0
141
0.0
143
0.03937007874016
147
1.0
171
     3
172
     1
174
     1
176
   256
177
   256
178
   256
271
     2
272
     2
274
     3
279
     1
283
     0
284
     8
340
29D
341
2AD
371
    -1
372
    -1
1001
ACAD_DSTYLE_DIMBREAK
1070
   391
1040
0.0
1001
ACAD_DSTYLE_DIMJAG
1070
   388
1040
1.5
1001
ACAD_DSTYLE_DIMTALN
1070
   392
1070
     0
1001
ACAD_DSTYLE_DIM_LINETYPE
1070
   380
1005
15
1001
ACAD_DSTYLE_DIM_EXT1_LINETYPE
1070
   381
1005
15
1001
ACAD_DSTYLE_DIM_EXT2_LINETYPE
1070
   382
1005
15
  0
DIMSTYLE
105
5B6
330
A
100
AcDbSymbolTableRecord
100
AcDbDimStyleTableRecord
  2
寸法(1-10)
 70
     0
 40
10.0
 41
7.0
 42
1.5
 43
10.0
 44
0.0
 73
     0
 74
     0
 77
     1
 78
     8
140
5.0
141
0.0
143
0.03937007874016
147
1.0
171
     3
172
     1
174
     1
176
   256
177
   256
178
   256
271
     2
272
     2
274
     3
279
     1
283
     0
284
     8
340
29D
341
2AD
342
2A3
371
    -1
372
    -1
1001
ACAD_DSTYLE_DIMBREAK
1070
   391
1040
0.0
1001
ACAD_DSTYLE_DIMJAG
1070
   388
1040
1.5
1001
ACAD_DSTYLE_DIMTALN
1070
   392
1070
     0
1001
ACAD_DSTYLE_DIM_LINETYPE
1070
   380
1005
15
1001
ACAD_DSTYLE_DIM_EXT1_LINETYPE
1070
   381
1005
15
1001
ACAD_DSTYLE_DIM_EXT2_LINETYPE
1070
   382
1005
15
  0
DIMSTYLE
105
125C
330
A
100
AcDbSymbolTableRecord
100
AcDbDimStyleTableRecord
  2
寸法A3(1-1)
 70
     0
 41
5.0
 42
1.5
 43
10.0
 44
0.0
 73
     0
 74
     0
 77
     1
 78
     8
140
3.5
141
0.0
143
0.03937007874016
147
1.0
171
     3
172
     1
174
     1
176
   256
177
   256
178
   256
271
     2
272
     2
274
     3
279
     1
283
     0
284
     8
340
29D
341
2AD
342
2A3
371
    -1
372
    -1
1001
ACAD_DSTYLE_DIMBREAK
1070
   391
1040
0.0
1001
ACAD_DSTYLE_DIMJAG
1070
   388
1040
1.5
1001
ACAD_DSTYLE_DIMTALN
1070
   392
1070
     0
1001
ACAD_DSTYLE_DIM_LINETYPE
1070
   380
1005
15
1001
ACAD_DSTYLE_DIM_EXT1_LINETYPE
1070
   381
1005
15
1001
ACAD_DSTYLE_DIM_EXT2_LINETYPE
1070
   382
1005
15
  0
ENDTAB
  0
TABLE
  2
BLOCK_RECORD
  5
1
330
0
100
AcDbSymbolTable
 70
    53
  0
BLOCK_RECORD
  5
1F
102
{ACAD_XDICTIONARY
360
1CE
102
}
330
1
100
AcDbSymbolTableRecord
100
AcDbBlockTableRecord
  2
*Model_Space
340
22
  0
BLOCK_RECORD
  5
D2
330
1
100
AcDbSymbolTableRecord
100
AcDbBlockTableRecord
  2
*Paper_Space
340
D3
  0
BLOCK_RECORD
  5
D6
330
1
100
AcDbSymbolTableRecord
100
AcDbBlockTableRecord
  2
*Paper_Space0
340
D7
  0
BLOCK_RECORD
  5
2A3
330
1
100
AcDbSymbolTableRecord
100
AcDbBlockTableRecord
  2
_DotSmall
340
0
102
{BLKREFS
331
41A5
331
41A6
331
41AE
331
41AF
331
41B7
331
41B8
331
41C0
331
41C1
331
41C9
331
41CA
331
41D2
331
41D3
331
41DB
331
41DC
331
41E4
331
41E5
331
41ED
331
41EE
331
41F6
331
41F7
331
41FF
331
4200
331
4208
331
4209
331
4163
331
4164
331
416C
331
416D
331
4175
331
4176
331
4181
331
4182
331
418A
331
418B
331
4193
331
4194
331
421A
331
421B
331
4223
331
4224
331
422C
331
422D
331
4235
331
4236
331
423E
331
423F
331
4247
331
4248
331
4250
331
4251
331
4259
331
425A
331
4262
331
4263
331
426B
331
426C
331
4274
331
4275
331
427D
331
427E
331
4286
331
4287
331
428F
331
4290
331
4298
331
4299
331
42A1
331
42A2
331
42AA
331
42AB
331
42B3
331
42B4
331
42BC
331
42BD
331
42C5
331
42C6
331
42CE
331
42CF
331
42D7
331
42D8
331
42E0
331
42E1
331
42E8
331
42E9
331
42F1
331
42F2
331
42FA
331
42FB
331
4322
331
4323
331
432C
331
432D
102
}
  0
BLOCK_RECORD
  5
2A7
330
1
100
AcDbSymbolTableRecord
100
AcDbBlockTableRecord
  2
_ClosedBlank
340
0
  0
BLOCK_RECORD
  5
2AD
330
1
100
AcDbSymbolTableRecord
100
AcDbBlockTableRecord
  2
_None
340
0
  0
BLOCK_RECORD
  5
2B0
330
1
100
AcDbSymbolTableRecord
100
AcDbBlockTableRecord
  2
_BoxBlank
340
0
  0
BLOCK_RECORD
  5
2B8
330
1
100
AcDbSymbolTableRecord
100
AcDbBlockTableRecord
  2
_ArchTick
340
0
  0
BLOCK_RECORD
  5
33E
330
1
100
AcDbSymbolTableRecord
100
AcDbBlockTableRecord
  2
_Open30
340
0
  0
BLOCK_RECORD
  5
3F45
330
1
100
AcDbSymbolTableRecord
100
AcDbBlockTableRecord
  2
*D7
340
0
  0
BLOCK_RECORD
  5
3F51
330
1
100
AcDbSymbolTableRecord
100
AcDbBlockTableRecord
  2
*D8
340
0
  0
BLOCK_RECORD
  5
3F5D
330
1
100
AcDbSymbolTableRecord
100
AcDbBlockTableRecord
  2
*D9
340
0
  0
BLOCK_RECORD
  5
3F69
330
1
100
AcDbSymbolTableRecord
100
AcDbBlockTableRecord
  2
*D10
340
0
  0
BLOCK_RECORD
  5
3F75
330
1
100
AcDbSymbolTableRecord
100
AcDbBlockTableRecord
  2
*D11
340
0
  0
BLOCK_RECORD
  5
3F81
330
1
100
AcDbSymbolTableRecord
100
AcDbBlockTableRecord
  2
*D12
340
0
  0
BLOCK_RECORD
  5
3F8D
330
1
100
AcDbSymbolTableRecord
100
AcDbBlockTableRecord
  2
*D13
340
0
  0
BLOCK_RECORD
  5
3F99
330
1
100
AcDbSymbolTableRecord
100
AcDbBlockTableRecord
  2
*D14
340
0
  0
BLOCK_RECORD
  5
3FA5
330
1
100
AcDbSymbolTableRecord
100
AcDbBlockTableRecord
  2
*D15
340
0
  0
BLOCK_RECORD
  5
3FB1
330
1
100
AcDbSymbolTableRecord
100
AcDbBlockTableRecord
  2
*D16
340
0
  0
BLOCK_RECORD
  5
3FBD
330
1
100
AcDbSymbolTableRecord
100
AcDbBlockTableRecord
  2
*D17
340
0
  0
BLOCK_RECORD
  5
3FC9
330
1
100
AcDbSymbolTableRecord
100
AcDbBlockTableRecord
  2
*D18
340
0
  0
BLOCK_RECORD
  5
3FD5
330
1
100
AcDbSymbolTableRecord
100
AcDbBlockTableRecord
  2
*D19
340
0
  0
BLOCK_RECORD
  5
3FE1
330
1
100
AcDbSymbolTableRecord
100
AcDbBlockTableRecord
  2
*D20
340
0
  0
BLOCK_RECORD
  5
3FED
330
1
100
AcDbSymbolTableRecord
100
AcDbBlockTableRecord
  2
*D21
340
0
  0
BLOCK_RECORD
  5
3FF9
330
1
100
AcDbSymbolTableRecord
100
AcDbBlockTableRecord
  2
*D22
340
0
  0
BLOCK_RECORD
  5
4005
330
1
100
AcDbSymbolTableRecord
100
AcDbBlockTableRecord
  2
*D23
340
0
  0
BLOCK_RECORD
  5
4011
330
1
100
AcDbSymbolTableRecord
100
AcDbBlockTableRecord
  2
*D24
340
0
  0
BLOCK_RECORD
  5
401D
330
1
100
AcDbSymbolTableRecord
100
AcDbBlockTableRecord
  2
*D25
340
0
  0
BLOCK_RECORD
  5
4029
330
1
100
AcDbSymbolTableRecord
100
AcDbBlockTableRecord
  2
*D26
340
0
  0
BLOCK_RECORD
  5
4035
330
1
100
AcDbSymbolTableRecord
100
AcDbBlockTableRecord
  2
*D27
340
0
  0
BLOCK_RECORD
  5
4041
330
1
100
AcDbSymbolTableRecord
100
AcDbBlockTableRecord
  2
*D28
340
0
  0
BLOCK_RECORD
  5
404D
330
1
100
AcDbSymbolTableRecord
100
AcDbBlockTableRecord
  2
*D29
340
0
  0
BLOCK_RECORD
  5
4059
330
1
100
AcDbSymbolTableRecord
100
AcDbBlockTableRecord
  2
*D30
340
0
  0
BLOCK_RECORD
  5
4065
330
1
100
AcDbSymbolTableRecord
100
AcDbBlockTableRecord
  2
*D31
340
0
  0
BLOCK_RECORD
  5
4071
330
1
100
AcDbSymbolTableRecord
100
AcDbBlockTableRecord
  2
*D32
340
0
  0
BLOCK_RECORD
  5
407D
330
1
100
AcDbSymbolTableRecord
100
AcDbBlockTableRecord
  2
*D33
340
0
  0
BLOCK_RECORD
  5
4089
330
1
100
AcDbSymbolTableRecord
100
AcDbBlockTableRecord
  2
*D34
340
0
  0
BLOCK_RECORD
  5
4095
330
1
100
AcDbSymbolTableRecord
100
AcDbBlockTableRecord
  2
*D35
340
0
  0
BLOCK_RECORD
  5
40A1
330
1
100
AcDbSymbolTableRecord
100
AcDbBlockTableRecord
  2
*D36
340
0
  0
BLOCK_RECORD
  5
40AD
330
1
100
AcDbSymbolTableRecord
100
AcDbBlockTableRecord
  2
*D37
340
0
  0
BLOCK_RECORD
  5
40B9
330
1
100
AcDbSymbolTableRecord
100
AcDbBlockTableRecord
  2
*D38
340
0
  0
BLOCK_RECORD
  5
40C5
330
1
100
AcDbSymbolTableRecord
100
AcDbBlockTableRecord
  2
*D39
340
0
  0
BLOCK_RECORD
  5
40D1
330
1
100
AcDbSymbolTableRecord
100
AcDbBlockTableRecord
  2
*D40
340
0
  0
BLOCK_RECORD
  5
40DD
330
1
100
AcDbSymbolTableRecord
100
AcDbBlockTableRecord
  2
*D41
340
0
  0
BLOCK_RECORD
  5
40E9
330
1
100
AcDbSymbolTableRecord
100
AcDbBlockTableRecord
  2
*D42
340
0
  0
BLOCK_RECORD
  5
40F5
330
1
100
AcDbSymbolTableRecord
100
AcDbBlockTableRecord
  2
*D43
340
0
  0
BLOCK_RECORD
  5
4101
330
1
100
AcDbSymbolTableRecord
100
AcDbBlockTableRecord
  2
*D44
340
0
  0
BLOCK_RECORD
  5
410D
330
1
100
AcDbSymbolTableRecord
100
AcDbBlockTableRecord
  2
*D45
340
0
  0
BLOCK_RECORD
  5
4119
330
1
100
AcDbSymbolTableRecord
100
AcDbBlockTableRecord
  2
*D46
340
0
  0
BLOCK_RECORD
  5
4125
330
1
100
AcDbSymbolTableRecord
100
AcDbBlockTableRecord
  2
*D47
340
0
  0
BLOCK_RECORD
  5
4131
330
1
100
AcDbSymbolTableRecord
100
AcDbBlockTableRecord
  2
*D48
340
0
  0
BLOCK_RECORD
  5
413D
330
1
100
AcDbSymbolTableRecord
100
AcDbBlockTableRecord
  2
*D49
340
0
  0
BLOCK_RECORD
  5
4148
330
1
100
AcDbSymbolTableRecord
100
AcDbBlockTableRecord
  2
*D50
340
0
  0
BLOCK_RECORD
  5
4154
330
1
100
AcDbSymbolTableRecord
100
AcDbBlockTableRecord
  2
*D51
340
0
  0
BLOCK_RECORD
  5
417B
330
1
100
AcDbSymbolTableRecord
100
AcDbBlockTableRecord
  2
*D52
340
0
  0
ENDTAB
  0
ENDSEC
  0
SECTION
  2
BLOCKS
  0
BLOCK
  5
20
330
1F
100
AcDbEntity
  8
0
100
AcDbBlockBegin
  2
*Model_Space
 70
     0
 10
0.0
 20
0.0
 30
0.0
  3
*Model_Space
  1

  0
ENDBLK
  5
21
330
1F
100
AcDbEntity
  8
0
100
AcDbBlockEnd
  0
BLOCK
  5
D4
330
D2
100
AcDbEntity
 67
     1
  8
0
100
AcDbBlockBegin
  2
*Paper_Space
 70
     0
 10
0.0
 20
0.0
 30
0.0
  3
*Paper_Space
  1

  0
ENDBLK
  5
D5
330
D2
100
AcDbEntity
 67
     1
  8
0
100
AcDbBlockEnd
  0
BLOCK
  5
D8
330
D6
100
AcDbEntity
 67
     1
  8
0
100
AcDbBlockBegin
  2
*Paper_Space0
 70
     0
 10
0.0
 20
0.0
 30
0.0
  3
*Paper_Space0
  1

  0
ENDBLK
  5
D9
330
D6
100
AcDbEntity
 67
     1
  8
0
100
AcDbBlockEnd
  0
BLOCK
  5
2A5
330
2A3
100
AcDbEntity
  8
0
100
AcDbBlockBegin
  2
_DotSmall
 70
     0
 10
0.0
 20
0.0
 30
0.0
  3
_DotSmall
  1

  0
LWPOLYLINE
  5
2A4
330
2A3
100
AcDbEntity
  8
0
  6
ByBlock
 62
     0
100
AcDbPolyline
 90
        2
 70
     1
 43
0.5
 10
-0.0625
 20
0.0
 42
1.0
 10
0.0625
 20
0.0
 42
1.0
  0
ENDBLK
  5
2A6
330
2A3
100
AcDbEntity
  8
0
100
AcDbBlockEnd
  0
BLOCK
  5
2AB
330
2A7
100
AcDbEntity
  8
0
100
AcDbBlockBegin
  2
_ClosedBlank
 70
     0
 10
0.0
 20
0.0
 30
0.0
  3
_ClosedBlank
  1

  0
LINE
  5
2A8
330
2A7
100
AcDbEntity
  8
0
  6
ByBlock
 62
     0
370
    -2
100
AcDbLine
 10
-1.0
 20
0.1666666666666666
 30
0.0
 11
0.0
 21
0.0
 31
0.0
  0
LINE
  5
2A9
330
2A7
100
AcDbEntity
  8
0
  6
ByBlock
 62
     0
370
    -2
100
AcDbLine
 10
0.0
 20
0.0
 30
0.0
 11
-1.0
 21
-0.1666666666666666
 31
0.0
  0
LINE
  5
2AA
330
2A7
100
AcDbEntity
  8
0
  6
ByBlock
 62
     0
370
    -2
100
AcDbLine
 10
-1.0
 20
0.1666666666666666
 30
0.0
 11
-1.0
 21
-0.1666666666666666
 31
0.0
  0
ENDBLK
  5
2AC
330
2A7
100
AcDbEntity
  8
0
100
AcDbBlockEnd
  0
BLOCK
  5
2AE
330
2AD
100
AcDbEntity
  8
0
100
AcDbBlockBegin
  2
_None
 70
     0
 10
0.0
 20
0.0
 30
0.0
  3
_None
  1

  0
ENDBLK
  5
2AF
330
2AD
100
AcDbEntity
  8
0
100
AcDbBlockEnd
  0
BLOCK
  5
2B6
330
2B0
100
AcDbEntity
  8
0
100
AcDbBlockBegin
  2
_BoxBlank
 70
     0
 10
0.0
 20
0.0
 30
0.0
  3
_BoxBlank
  1

  0
LINE
  5
2B1
330
2B0
100
AcDbEntity
  8
0
  6
ByBlock
 62
     0
370
    -2
100
AcDbLine
 10
-0.5
 20
-0.5
 30
0.0
 11
0.5
 21
-0.5
 31
0.0
  0
LINE
  5
2B2
330
2B0
100
AcDbEntity
  8
0
  6
ByBlock
 62
     0
370
    -2
100
AcDbLine
 10
0.5
 20
-0.5
 30
0.0
 11
0.5
 21
0.5
 31
0.0
  0
LINE
  5
2B3
330
2B0
100
AcDbEntity
  8
0
  6
ByBlock
 62
     0
370
    -2
100
AcDbLine
 10
0.5
 20
0.5
 30
0.0
 11
-0.5
 21
0.5
 31
0.0
  0
LINE
  5
2B4
330
2B0
100
AcDbEntity
  8
0
  6
ByBlock
 62
     0
370
    -2
100
AcDbLine
 10
-0.5
 20
0.5
 30
0.0
 11
-0.5
 21
-0.5
 31
0.0
  0
LINE
  5
2B5
330
2B0
100
AcDbEntity
  8
0
  6
ByBlock
 62
     0
370
    -2
100
AcDbLine
 10
-0.5
 20
0.0
 30
0.0
 11
-1.0
 21
0.0
 31
0.0
  0
ENDBLK
  5
2B7
330
2B0
100
AcDbEntity
  8
0
100
AcDbBlockEnd
  0
BLOCK
  5
2BA
330
2B8
100
AcDbEntity
  8
0
100
AcDbBlockBegin
  2
_ArchTick
 70
     0
 10
0.0
 20
0.0
 30
0.0
  3
_ArchTick
  1

  0
LWPOLYLINE
  5
2B9
330
2B8
100
AcDbEntity
  8
0
  6
ByBlock
 62
     0
100
AcDbPolyline
 90
        2
 70
     0
 43
0.15
 10
-0.5
 20
-0.5
 10
0.5
 20
0.5
  0
ENDBLK
  5
2BB
330
2B8
100
AcDbEntity
  8
0
100
AcDbBlockEnd
  0
BLOCK
  5
342
330
33E
100
AcDbEntity
  8
0
100
AcDbBlockBegin
  2
_Open30
 70
     0
 10
0.0
 20
0.0
 30
0.0
  3
_Open30
  1

  0
LINE
  5
33F
330
33E
100
AcDbEntity
  8
0
  6
ByBlock
 62
     0
370
    -2
100
AcDbLine
 10
-1.0
 20
0.26794919
 30
0.0
 11
0.0
 21
0.0
 31
0.0
  0
LINE
  5
340
330
33E
100
AcDbEntity
  8
0
  6
ByBlock
 62
     0
370
    -2
100
AcDbLine
 10
0.0
 20
0.0
 30
0.0
 11
-1.0
 21
-0.26794919
 31
0.0
  0
LINE
  5
341
330
33E
100
AcDbEntity
  8
0
  6
ByBlock
 62
     0
370
    -2
100
AcDbLine
 10
0.0
 20
0.0
 30
0.0
 11
-1.0
 21
0.0
 31
0.0
  0
ENDBLK
  5
343
330
33E
100
AcDbEntity
  8
0
100
AcDbBlockEnd
  0
BLOCK
  5
3F46
330
3F45
100
AcDbEntity
  8
0
100
AcDbBlockBegin
  2
*D7
 70
     1
 10
0.0
 20
0.0
 30
0.0
  3
*D7
  1

  0
LINE
  5
4160
330
3F45
100
AcDbEntity
  8
19_寸法線・引出線
100
AcDbLine
 10
455.0000000000001
 20
336.0
 30
0.0
 11
455.0000000000001
 21
404.4999999999999
 31
0.0
  0
LINE
  5
4161
330
3F45
100
AcDbEntity
  8
19_寸法線・引出線
100
AcDbLine
 10
460.0
 20
336.0
 30
0.0
 11
460.0
 21
404.4999999999999
 31
0.0
  0
LINE
  5
4162
330
3F45
100
AcDbEntity
  8
19_寸法線・引出線
100
AcDbLine
 10
455.0000000000001
 20
404.4999999999999
 30
0.0
 11
460.0
 21
404.4999999999999
 31
0.0
  0
INSERT
  5
4163
330
3F45
100
AcDbEntity
  8
19_寸法線・引出線
100
AcDbBlockReference
  2
_DotSmall
 10
455.0000000000001
 20
404.4999999999999
 30
0.0
 41
7.0
 42
7.0
 43
7.0
 50
180.0
  0
INSERT
  5
4164
330
3F45
100
AcDbEntity
  8
19_寸法線・引出線
100
AcDbBlockReference
  2
_DotSmall
 10
460.0
 20
404.4999999999999
 30
0.0
 41
7.0
 42
7.0
 43
7.0
  0
MTEXT
  5
4165
330
3F45
100
AcDbEntity
  8
19_寸法線・引出線
100
AcDbMText
 10
457.5000000000001
 20
408.0
 30
0.0
 40
5.0
 41
0.0
 71
     5
 72
     1
  1
5
  7
文字
 73
     1
 44
1.0
1001
ACAD
1000
MTEXTBEGIN
1070
    73
1070
     1
1070
    44
1040
1.0
1070
    74
1070
     0
1000
MTEXTEND
  0
POINT
  5
4166
330
3F45
100
AcDbEntity
  8
Defpoints
 62
     0
100
AcDbPoint
 10
455.0000000000001
 20
334.5
 30
0.0
  0
POINT
  5
4167
330
3F45
100
AcDbEntity
  8
Defpoints
 62
     0
100
AcDbPoint
 10
460.0
 20
334.5
 30
0.0
  0
POINT
  5
4168
330
3F45
100
AcDbEntity
  8
Defpoints
 62
     0
100
AcDbPoint
 10
460.0
 20
404.4999999999999
 30
0.0
  0
ENDBLK
  5
3F47
330
3F45
100
AcDbEntity
  8
0
100
AcDbBlockEnd
  0
BLOCK
  5
3F52
330
3F51
100
AcDbEntity
  8
0
100
AcDbBlockBegin
  2
*D8
 70
     1
 10
0.0
 20
0.0
 30
0.0
  3
*D8
  1

  0
LINE
  5
4169
330
3F51
100
AcDbEntity
  8
19_寸法線・引出線
100
AcDbLine
 10
460.0
 20
336.0
 30
0.0
 11
460.0
 21
404.4999999999999
 31
0.0
  0
LINE
  5
416A
330
3F51
100
AcDbEntity
  8
19_寸法線・引出線
100
AcDbLine
 10
709.9999999999998
 20
336.0
 30
0.0
 11
709.9999999999998
 21
404.4999999999999
 31
0.0
  0
LINE
  5
416B
330
3F51
100
AcDbEntity
  8
19_寸法線・引出線
100
AcDbLine
 10
460.0
 20
404.4999999999999
 30
0.0
 11
709.9999999999998
 21
404.4999999999999
 31
0.0
  0
INSERT
  5
416C
330
3F51
100
AcDbEntity
  8
19_寸法線・引出線
100
AcDbBlockReference
  2
_DotSmall
 10
460.0
 20
404.4999999999999
 30
0.0
 41
7.0
 42
7.0
 43
7.0
 50
180.0
  0
INSERT
  5
416D
330
3F51
100
AcDbEntity
  8
19_寸法線・引出線
100
AcDbBlockReference
  2
_DotSmall
 10
709.9999999999998
 20
404.4999999999999
 30
0.0
 41
7.0
 42
7.0
 43
7.0
  0
MTEXT
  5
416E
330
3F51
100
AcDbEntity
  8
19_寸法線・引出線
100
AcDbMText
 10
585.0
 20
408.0
 30
0.0
 40
5.0
 41
0.0
 71
     5
 72
     1
  1
GW
  7
文字
 73
     1
 44
1.0
1001
ACAD
1000
MTEXTBEGIN
1070
    73
1070
     1
1070
    44
1040
1.0
1070
    74
1070
     0
1000
MTEXTEND
  0
POINT
  5
416F
330
3F51
100
AcDbEntity
  8
Defpoints
 62
     0
100
AcDbPoint
 10
460.0
 20
334.5
 30
0.0
  0
POINT
  5
4170
330
3F51
100
AcDbEntity
  8
Defpoints
 62
     0
100
AcDbPoint
 10
709.9999999999998
 20
334.5
 30
0.0
  0
POINT
  5
4171
330
3F51
100
AcDbEntity
  8
Defpoints
 62
     0
100
AcDbPoint
 10
709.9999999999998
 20
404.4999999999999
 30
0.0
  0
ENDBLK
  5
3F53
330
3F51
100
AcDbEntity
  8
0
100
AcDbBlockEnd
  0
BLOCK
  5
3F5E
330
3F5D
100
AcDbEntity
  8
0
100
AcDbBlockBegin
  2
*D9
 70
     1
 10
0.0
 20
0.0
 30
0.0
  3
*D9
  1

  0
LINE
  5
4172
330
3F5D
100
AcDbEntity
  8
19_寸法線・引出線
100
AcDbLine
 10
709.9999999999998
 20
336.0
 30
0.0
 11
709.9999999999998
 21
404.4999999999999
 31
0.0
  0
LINE
  5
4173
330
3F5D
100
AcDbEntity
  8
19_寸法線・引出線
100
AcDbLine
 10
714.9999999999998
 20
336.0
 30
0.0
 11
714.9999999999998
 21
404.4999999999999
 31
0.0
  0
LINE
  5
4174
330
3F5D
100
AcDbEntity
  8
19_寸法線・引出線
100
AcDbLine
 10
709.9999999999998
 20
404.4999999999999
 30
0.0
 11
714.9999999999998
 21
404.4999999999999
 31
0.0
  0
INSERT
  5
4175
330
3F5D
100
AcDbEntity
  8
19_寸法線・引出線
100
AcDbBlockReference
  2
_DotSmall
 10
709.9999999999998
 20
404.4999999999999
 30
0.0
 41
7.0
 42
7.0
 43
7.0
 50
180.0
  0
INSERT
  5
4176
330
3F5D
100
AcDbEntity
  8
19_寸法線・引出線
100
AcDbBlockReference
  2
_DotSmall
 10
714.9999999999998
 20
404.4999999999999
 30
0.0
 41
7.0
 42
7.0
 43
7.0
  0
MTEXT
  5
4177
330
3F5D
100
AcDbEntity
  8
19_寸法線・引出線
100
AcDbMText
 10
712.4999999999999
 20
408.0
 30
0.0
 40
5.0
 41
0.0
 71
     5
 72
     1
  1
5
  7
文字
 73
     1
 44
1.0
1001
ACAD
1000
MTEXTBEGIN
1070
    73
1070
     1
1070
    44
1040
1.0
1070
    74
1070
     0
1000
MTEXTEND
  0
POINT
  5
4178
330
3F5D
100
AcDbEntity
  8
Defpoints
 62
     0
100
AcDbPoint
 10
709.9999999999998
 20
334.5
 30
0.0
  0
POINT
  5
4179
330
3F5D
100
AcDbEntity
  8
Defpoints
 62
     0
100
AcDbPoint
 10
714.9999999999998
 20
334.5
 30
0.0
  0
POINT
  5
417A
330
3F5D
100
AcDbEntity
  8
Defpoints
 62
     0
100
AcDbPoint
 10
714.9999999999998
 20
404.4999999999999
 30
0.0
  0
ENDBLK
  5
3F5F
330
3F5D
100
AcDbEntity
  8
0
100
AcDbBlockEnd
  0
BLOCK
  5
3F6A
330
3F69
100
AcDbEntity
  8
0
100
AcDbBlockBegin
  2
*D10
 70
     1
 10
0.0
 20
0.0
 30
0.0
  3
*D10
  1

  0
LINE
  5
4187
330
3F69
100
AcDbEntity
  8
19_寸法線・引出線
100
AcDbLine
 10
154.9999999999999
 20
313.0000000000001
 30
0.0
 11
154.9999999999999
 21
314.5
 31
0.0
  0
LINE
  5
4188
330
3F69
100
AcDbEntity
  8
19_寸法線・引出線
100
AcDbLine
 10
194.9999999999999
 20
313.0000000000001
 30
0.0
 11
194.9999999999999
 21
314.5
 31
0.0
  0
LINE
  5
4189
330
3F69
100
AcDbEntity
  8
19_寸法線・引出線
100
AcDbLine
 10
154.9999999999999
 20
314.5
 30
0.0
 11
194.9999999999999
 21
314.5
 31
0.0
  0
INSERT
  5
418A
330
3F69
100
AcDbEntity
  8
19_寸法線・引出線
100
AcDbBlockReference
  2
_DotSmall
 10
154.9999999999999
 20
314.5
 30
0.0
 41
7.0
 42
7.0
 43
7.0
 50
180.0
  0
INSERT
  5
418B
330
3F69
100
AcDbEntity
  8
19_寸法線・引出線
100
AcDbBlockReference
  2
_DotSmall
 10
194.9999999999999
 20
314.5
 30
0.0
 41
7.0
 42
7.0
 43
7.0
  0
MTEXT
  5
418C
330
3F69
100
AcDbEntity
  8
19_寸法線・引出線
100
AcDbMText
 10
174.9999999999999
 20
318.0
 30
0.0
 40
5.0
 41
0.0
 71
     5
 72
     1
  1
40
  7
文字
 73
     1
 44
1.0
1001
ACAD
1000
MTEXTBEGIN
1070
    73
1070
     1
1070
    44
1040
1.0
1070
    74
1070
     0
1000
MTEXTEND
  0
POINT
  5
418D
330
3F69
100
AcDbEntity
  8
Defpoints
 62
     0
100
AcDbPoint
 10
154.9999999999999
 20
314.5000000000001
 30
0.0
  0
POINT
  5
418E
330
3F69
100
AcDbEntity
  8
Defpoints
 62
     0
100
AcDbPoint
 10
194.9999999999999
 20
314.5000000000001
 30
0.0
  0
POINT
  5
418F
330
3F69
100
AcDbEntity
  8
Defpoints
 62
     0
100
AcDbPoint
 10
194.9999999999999
 20
314.5
 30
0.0
  0
ENDBLK
  5
3F6B
330
3F69
100
AcDbEntity
  8
0
100
AcDbBlockEnd
  0
BLOCK
  5
3F76
330
3F75
100
AcDbEntity
  8
0
100
AcDbBlockBegin
  2
*D11
 70
     1
 10
0.0
 20
0.0
 30
0.0
  3
*D11
  1

  0
LINE
  5
4190
330
3F75
100
AcDbEntity
  8
19_寸法線・引出線
100
AcDbLine
 10
196.5
 20
477.0000000000001
 30
0.0
 11
265.0000000000009
 21
477.0000000000001
 31
0.0
  0
LINE
  5
4191
330
3F75
100
AcDbEntity
  8
19_寸法線・引出線
100
AcDbLine
 10
196.5
 20
151.9999999999999
 30
0.0
 11
265.000000000001
 21
151.9999999999999
 31
0.0
  0
LINE
  5
4192
330
3F75
100
AcDbEntity
  8
19_寸法線・引出線
100
AcDbLine
 10
265.0000000000009
 20
477.0000000000001
 30
0.0
 11
265.000000000001
 21
151.9999999999999
 31
0.0
  0
INSERT
  5
4193
330
3F75
100
AcDbEntity
  8
19_寸法線・引出線
100
AcDbBlockReference
  2
_DotSmall
 10
265.0000000000009
 20
477.0000000000001
 30
0.0
 41
7.0
 42
7.0
 43
7.0
 50
90.0
  0
INSERT
  5
4194
330
3F75
100
AcDbEntity
  8
19_寸法線・引出線
100
AcDbBlockReference
  2
_DotSmall
 10
265.000000000001
 20
151.9999999999999
 30
0.0
 41
7.0
 42
7.0
 43
7.0
 50
270.0
  0
MTEXT
  5
4195
330
3F75
100
AcDbEntity
  8
19_寸法線・引出線
100
AcDbMText
 10
261.5000000000009
 20
314.4999999999999
 30
0.0
 40
5.0
 41
0.0
 71
     5
 72
     1
  1
GH
  7
文字
 11
0.0000000000000001
 21
1.0
 31
0.0
 73
     1
 44
1.0
1001
ACAD
1000
MTEXTBEGIN
1070
    73
1070
     1
1070
    44
1040
1.0
1070
    74
1070
     0
1000
MTEXTEND
  0
POINT
  5
4196
330
3F75
100
AcDbEntity
  8
Defpoints
 62
     0
100
AcDbPoint
 10
195.0
 20
477.0000000000001
 30
0.0
  0
POINT
  5
4197
330
3F75
100
AcDbEntity
  8
Defpoints
 62
     0
100
AcDbPoint
 10
195.0
 20
151.9999999999999
 30
0.0
  0
POINT
  5
4198
330
3F75
100
AcDbEntity
  8
Defpoints
 62
     0
100
AcDbPoint
 10
265.000000000001
 20
151.9999999999999
 30
0.0
  0
ENDBLK
  5
3F77
330
3F75
100
AcDbEntity
  8
0
100
AcDbBlockEnd
  0
BLOCK
  5
3F82
330
3F81
100
AcDbEntity
  8
0
100
AcDbBlockBegin
  2
*D12
 70
     1
 10
0.0
 20
0.0
 30
0.0
  3
*D12
  1

  0
LINE
  5
431F
330
3F81
100
AcDbEntity
  8
19_寸法線・引出線
100
AcDbLine
 10
196.5
 20
477.0000000000001
 30
0.0
 11
255.0000000000009
 21
477.0000000000001
 31
0.0
  0
LINE
  5
4320
330
3F81
100
AcDbEntity
  8
19_寸法線・引出線
100
AcDbLine
 10
196.5
 20
452.0000000000001
 30
0.0
 11
255.0000000000009
 21
452.0000000000001
 31
0.0
  0
LINE
  5
4321
330
3F81
100
AcDbEntity
  8
19_寸法線・引出線
100
AcDbLine
 10
255.0000000000009
 20
477.0000000000001
 30
0.0
 11
255.0000000000009
 21
452.0000000000001
 31
0.0
  0
INSERT
  5
4322
330
3F81
100
AcDbEntity
  8
19_寸法線・引出線
100
AcDbBlockReference
  2
_DotSmall
 10
255.0000000000009
 20
477.0000000000001
 30
0.0
 41
7.0
 42
7.0
 43
7.0
 50
90.0
  0
INSERT
  5
4323
330
3F81
100
AcDbEntity
  8
19_寸法線・引出線
100
AcDbBlockReference
  2
_DotSmall
 10
255.0000000000009
 20
452.0000000000001
 30
0.0
 41
7.0
 42
7.0
 43
7.0
 50
270.0
  0
MTEXT
  5
4324
330
3F81
100
AcDbEntity
  8
19_寸法線・引出線
100
AcDbMText
 10
251.5000000000009
 20
464.4999999999999
 30
0.0
 40
5.0
 41
0.0
 71
     5
 72
     1
  1
25（28）
  7
文字
 11
0.0000000000000001
 21
1.0
 31
0.0
 73
     1
 44
1.0
1001
ACAD
1000
MTEXTBEGIN
1070
    73
1070
     1
1070
    44
1040
1.0
1070
    74
1070
     0
1000
MTEXTEND
  0
POINT
  5
4325
330
3F81
100
AcDbEntity
  8
Defpoints
 62
     0
100
AcDbPoint
 10
195.0
 20
477.0000000000001
 30
0.0
  0
POINT
  5
4326
330
3F81
100
AcDbEntity
  8
Defpoints
 62
     0
100
AcDbPoint
 10
195.0
 20
452.0000000000001
 30
0.0
  0
POINT
  5
4327
330
3F81
100
AcDbEntity
  8
Defpoints
 62
     0
100
AcDbPoint
 10
255.0000000000009
 20
452.0000000000001
 30
0.0
  0
ENDBLK
  5
3F83
330
3F81
100
AcDbEntity
  8
0
100
AcDbBlockEnd
  0
BLOCK
  5
3F8E
330
3F8D
100
AcDbEntity
  8
0
100
AcDbBlockBegin
  2
*D13
 70
     1
 10
0.0
 20
0.0
 30
0.0
  3
*D13
  1

  0
LINE
  5
41A2
330
3F8D
100
AcDbEntity
  8
19_寸法線・引出線
100
AcDbLine
 10
196.5
 20
452.0000000000001
 30
0.0
 11
255.0000000000009
 21
452.0000000000001
 31
0.0
  0
LINE
  5
41A3
330
3F8D
100
AcDbEntity
  8
19_寸法線・引出線
100
AcDbLine
 10
196.5
 20
427.0000000000001
 30
0.0
 11
255.0000000000009
 21
427.0000000000001
 31
0.0
  0
LINE
  5
41A4
330
3F8D
100
AcDbEntity
  8
19_寸法線・引出線
100
AcDbLine
 10
255.0000000000009
 20
452.0000000000001
 30
0.0
 11
255.0000000000009
 21
427.0000000000001
 31
0.0
  0
INSERT
  5
41A5
330
3F8D
100
AcDbEntity
  8
19_寸法線・引出線
100
AcDbBlockReference
  2
_DotSmall
 10
255.0000000000009
 20
452.0000000000001
 30
0.0
 41
7.0
 42
7.0
 43
7.0
 50
90.0
  0
INSERT
  5
41A6
330
3F8D
100
AcDbEntity
  8
19_寸法線・引出線
100
AcDbBlockReference
  2
_DotSmall
 10
255.0000000000009
 20
427.0000000000001
 30
0.0
 41
7.0
 42
7.0
 43
7.0
 50
270.0
  0
MTEXT
  5
41A7
330
3F8D
100
AcDbEntity
  8
19_寸法線・引出線
100
AcDbMText
 10
251.5000000000009
 20
439.4999999999999
 30
0.0
 40
5.0
 41
0.0
 71
     5
 72
     1
  1
25
  7
文字
 11
0.0000000000000001
 21
1.0
 31
0.0
 73
     1
 44
1.0
1001
ACAD
1000
MTEXTBEGIN
1070
    73
1070
     1
1070
    44
1040
1.0
1070
    74
1070
     0
1000
MTEXTEND
  0
POINT
  5
41A8
330
3F8D
100
AcDbEntity
  8
Defpoints
 62
     0
100
AcDbPoint
 10
195.0
 20
452.0000000000001
 30
0.0
  0
POINT
  5
41A9
330
3F8D
100
AcDbEntity
  8
Defpoints
 62
     0
100
AcDbPoint
 10
195.0
 20
427.0000000000001
 30
0.0
  0
POINT
  5
41AA
330
3F8D
100
AcDbEntity
  8
Defpoints
 62
     0
100
AcDbPoint
 10
255.0000000000009
 20
427.0000000000001
 30
0.0
  0
ENDBLK
  5
3F8F
330
3F8D
100
AcDbEntity
  8
0
100
AcDbBlockEnd
  0
BLOCK
  5
3F9A
330
3F99
100
AcDbEntity
  8
0
100
AcDbBlockBegin
  2
*D14
 70
     1
 10
0.0
 20
0.0
 30
0.0
  3
*D14
  1

  0
LINE
  5
41AB
330
3F99
100
AcDbEntity
  8
19_寸法線・引出線
100
AcDbLine
 10
196.5
 20
427.0000000000001
 30
0.0
 11
255.0000000000011
 21
427.0000000000001
 31
0.0
  0
LINE
  5
41AC
330
3F99
100
AcDbEntity
  8
19_寸法線・引出線
100
AcDbLine
 10
196.5
 20
402.0000000000001
 30
0.0
 11
255.0000000000011
 21
402.0000000000001
 31
0.0
  0
LINE
  5
41AD
330
3F99
100
AcDbEntity
  8
19_寸法線・引出線
100
AcDbLine
 10
255.0000000000011
 20
427.0000000000001
 30
0.0
 11
255.0000000000011
 21
402.0000000000001
 31
0.0
  0
INSERT
  5
41AE
330
3F99
100
AcDbEntity
  8
19_寸法線・引出線
100
AcDbBlockReference
  2
_DotSmall
 10
255.0000000000011
 20
427.0000000000001
 30
0.0
 41
7.0
 42
7.0
 43
7.0
 50
90.0
  0
INSERT
  5
41AF
330
3F99
100
AcDbEntity
  8
19_寸法線・引出線
100
AcDbBlockReference
  2
_DotSmall
 10
255.0000000000011
 20
402.0000000000001
 30
0.0
 41
7.0
 42
7.0
 43
7.0
 50
270.0
  0
MTEXT
  5
41B0
330
3F99
100
AcDbEntity
  8
19_寸法線・引出線
100
AcDbMText
 10
251.5000000000012
 20
414.4999999999999
 30
0.0
 40
5.0
 41
0.0
 71
     5
 72
     1
  1
25
  7
文字
 11
0.0000000000000001
 21
1.0
 31
0.0
 73
     1
 44
1.0
1001
ACAD
1000
MTEXTBEGIN
1070
    73
1070
     1
1070
    44
1040
1.0
1070
    74
1070
     0
1000
MTEXTEND
  0
POINT
  5
41B1
330
3F99
100
AcDbEntity
  8
Defpoints
 62
     0
100
AcDbPoint
 10
195.0
 20
427.0000000000001
 30
0.0
  0
POINT
  5
41B2
330
3F99
100
AcDbEntity
  8
Defpoints
 62
     0
100
AcDbPoint
 10
195.0
 20
402.0000000000001
 30
0.0
  0
POINT
  5
41B3
330
3F99
100
AcDbEntity
  8
Defpoints
 62
     0
100
AcDbPoint
 10
255.0000000000011
 20
402.0000000000001
 30
0.0
  0
ENDBLK
  5
3F9B
330
3F99
100
AcDbEntity
  8
0
100
AcDbBlockEnd
  0
BLOCK
  5
3FA6
330
3FA5
100
AcDbEntity
  8
0
100
AcDbBlockBegin
  2
*D15
 70
     1
 10
0.0
 20
0.0
 30
0.0
  3
*D15
  1

  0
LINE
  5
41B4
330
3FA5
100
AcDbEntity
  8
19_寸法線・引出線
100
AcDbLine
 10
196.5
 20
402.0000000000001
 30
0.0
 11
255.0000000000014
 21
402.0000000000001
 31
0.0
  0
LINE
  5
41B5
330
3FA5
100
AcDbEntity
  8
19_寸法線・引出線
100
AcDbLine
 10
196.5
 20
377.0
 30
0.0
 11
255.0000000000014
 21
377.0
 31
0.0
  0
LINE
  5
41B6
330
3FA5
100
AcDbEntity
  8
19_寸法線・引出線
100
AcDbLine
 10
255.0000000000014
 20
402.0000000000001
 30
0.0
 11
255.0000000000014
 21
377.0
 31
0.0
  0
INSERT
  5
41B7
330
3FA5
100
AcDbEntity
  8
19_寸法線・引出線
100
AcDbBlockReference
  2
_DotSmall
 10
255.0000000000014
 20
402.0000000000001
 30
0.0
 41
7.0
 42
7.0
 43
7.0
 50
90.0
  0
INSERT
  5
41B8
330
3FA5
100
AcDbEntity
  8
19_寸法線・引出線
100
AcDbBlockReference
  2
_DotSmall
 10
255.0000000000014
 20
377.0
 30
0.0
 41
7.0
 42
7.0
 43
7.0
 50
270.0
  0
MTEXT
  5
41B9
330
3FA5
100
AcDbEntity
  8
19_寸法線・引出線
100
AcDbMText
 10
251.5000000000014
 20
389.4999999999999
 30
0.0
 40
5.0
 41
0.0
 71
     5
 72
     1
  1
25
  7
文字
 11
0.0000000000000001
 21
1.0
 31
0.0
 73
     1
 44
1.0
1001
ACAD
1000
MTEXTBEGIN
1070
    73
1070
     1
1070
    44
1040
1.0
1070
    74
1070
     0
1000
MTEXTEND
  0
POINT
  5
41BA
330
3FA5
100
AcDbEntity
  8
Defpoints
 62
     0
100
AcDbPoint
 10
195.0
 20
402.0000000000001
 30
0.0
  0
POINT
  5
41BB
330
3FA5
100
AcDbEntity
  8
Defpoints
 62
     0
100
AcDbPoint
 10
195.0
 20
377.0
 30
0.0
  0
POINT
  5
41BC
330
3FA5
100
AcDbEntity
  8
Defpoints
 62
     0
100
AcDbPoint
 10
255.0000000000014
 20
377.0
 30
0.0
  0
ENDBLK
  5
3FA7
330
3FA5
100
AcDbEntity
  8
0
100
AcDbBlockEnd
  0
BLOCK
  5
3FB2
330
3FB1
100
AcDbEntity
  8
0
100
AcDbBlockBegin
  2
*D16
 70
     1
 10
0.0
 20
0.0
 30
0.0
  3
*D16
  1

  0
LINE
  5
41BD
330
3FB1
100
AcDbEntity
  8
19_寸法線・引出線
100
AcDbLine
 10
196.5
 20
377.0
 30
0.0
 11
255.0000000000016
 21
377.0
 31
0.0
  0
LINE
  5
41BE
330
3FB1
100
AcDbEntity
  8
19_寸法線・引出線
100
AcDbLine
 10
196.5
 20
352.0
 30
0.0
 11
255.0000000000016
 21
352.0
 31
0.0
  0
LINE
  5
41BF
330
3FB1
100
AcDbEntity
  8
19_寸法線・引出線
100
AcDbLine
 10
255.0000000000016
 20
377.0
 30
0.0
 11
255.0000000000016
 21
352.0
 31
0.0
  0
INSERT
  5
41C0
330
3FB1
100
AcDbEntity
  8
19_寸法線・引出線
100
AcDbBlockReference
  2
_DotSmall
 10
255.0000000000016
 20
377.0
 30
0.0
 41
7.0
 42
7.0
 43
7.0
 50
90.0
  0
INSERT
  5
41C1
330
3FB1
100
AcDbEntity
  8
19_寸法線・引出線
100
AcDbBlockReference
  2
_DotSmall
 10
255.0000000000016
 20
352.0
 30
0.0
 41
7.0
 42
7.0
 43
7.0
 50
270.0
  0
MTEXT
  5
41C2
330
3FB1
100
AcDbEntity
  8
19_寸法線・引出線
100
AcDbMText
 10
251.5000000000016
 20
364.4999999999999
 30
0.0
 40
5.0
 41
0.0
 71
     5
 72
     1
  1
25
  7
文字
 11
0.0000000000000001
 21
1.0
 31
0.0
 73
     1
 44
1.0
1001
ACAD
1000
MTEXTBEGIN
1070
    73
1070
     1
1070
    44
1040
1.0
1070
    74
1070
     0
1000
MTEXTEND
  0
POINT
  5
41C3
330
3FB1
100
AcDbEntity
  8
Defpoints
 62
     0
100
AcDbPoint
 10
195.0
 20
377.0
 30
0.0
  0
POINT
  5
41C4
330
3FB1
100
AcDbEntity
  8
Defpoints
 62
     0
100
AcDbPoint
 10
195.0
 20
352.0
 30
0.0
  0
POINT
  5
41C5
330
3FB1
100
AcDbEntity
  8
Defpoints
 62
     0
100
AcDbPoint
 10
255.0000000000016
 20
352.0
 30
0.0
  0
ENDBLK
  5
3FB3
330
3FB1
100
AcDbEntity
  8
0
100
AcDbBlockEnd
  0
BLOCK
  5
3FBE
330
3FBD
100
AcDbEntity
  8
0
100
AcDbBlockBegin
  2
*D17
 70
     1
 10
0.0
 20
0.0
 30
0.0
  3
*D17
  1

  0
LINE
  5
41C6
330
3FBD
100
AcDbEntity
  8
19_寸法線・引出線
100
AcDbLine
 10
196.5
 20
352.0
 30
0.0
 11
255.0000000000018
 21
352.0
 31
0.0
  0
LINE
  5
41C7
330
3FBD
100
AcDbEntity
  8
19_寸法線・引出線
100
AcDbLine
 10
196.5
 20
327.0
 30
0.0
 11
255.0000000000018
 21
327.0
 31
0.0
  0
LINE
  5
41C8
330
3FBD
100
AcDbEntity
  8
19_寸法線・引出線
100
AcDbLine
 10
255.0000000000018
 20
352.0
 30
0.0
 11
255.0000000000018
 21
327.0
 31
0.0
  0
INSERT
  5
41C9
330
3FBD
100
AcDbEntity
  8
19_寸法線・引出線
100
AcDbBlockReference
  2
_DotSmall
 10
255.0000000000018
 20
352.0
 30
0.0
 41
7.0
 42
7.0
 43
7.0
 50
90.0
  0
INSERT
  5
41CA
330
3FBD
100
AcDbEntity
  8
19_寸法線・引出線
100
AcDbBlockReference
  2
_DotSmall
 10
255.0000000000018
 20
327.0
 30
0.0
 41
7.0
 42
7.0
 43
7.0
 50
270.0
  0
MTEXT
  5
41CB
330
3FBD
100
AcDbEntity
  8
19_寸法線・引出線
100
AcDbMText
 10
251.5000000000018
 20
339.4999999999999
 30
0.0
 40
5.0
 41
0.0
 71
     5
 72
     1
  1
25
  7
文字
 11
0.0000000000000001
 21
1.0
 31
0.0
 73
     1
 44
1.0
1001
ACAD
1000
MTEXTBEGIN
1070
    73
1070
     1
1070
    44
1040
1.0
1070
    74
1070
     0
1000
MTEXTEND
  0
POINT
  5
41CC
330
3FBD
100
AcDbEntity
  8
Defpoints
 62
     0
100
AcDbPoint
 10
195.0
 20
352.0
 30
0.0
  0
POINT
  5
41CD
330
3FBD
100
AcDbEntity
  8
Defpoints
 62
     0
100
AcDbPoint
 10
195.0
 20
327.0
 30
0.0
  0
POINT
  5
41CE
330
3FBD
100
AcDbEntity
  8
Defpoints
 62
     0
100
AcDbPoint
 10
255.0000000000018
 20
327.0
 30
0.0
  0
ENDBLK
  5
3FBF
330
3FBD
100
AcDbEntity
  8
0
100
AcDbBlockEnd
  0
BLOCK
  5
3FCA
330
3FC9
100
AcDbEntity
  8
0
100
AcDbBlockBegin
  2
*D18
 70
     1
 10
0.0
 20
0.0
 30
0.0
  3
*D18
  1

  0
LINE
  5
41CF
330
3FC9
100
AcDbEntity
  8
19_寸法線・引出線
100
AcDbLine
 10
196.5
 20
327.0
 30
0.0
 11
255.0000000000025
 21
327.0
 31
0.0
  0
LINE
  5
41D0
330
3FC9
100
AcDbEntity
  8
19_寸法線・引出線
100
AcDbLine
 10
196.5
 20
302.0
 30
0.0
 11
255.0000000000025
 21
302.0
 31
0.0
  0
LINE
  5
41D1
330
3FC9
100
AcDbEntity
  8
19_寸法線・引出線
100
AcDbLine
 10
255.0000000000025
 20
327.0
 30
0.0
 11
255.0000000000025
 21
302.0
 31
0.0
  0
INSERT
  5
41D2
330
3FC9
100
AcDbEntity
  8
19_寸法線・引出線
100
AcDbBlockReference
  2
_DotSmall
 10
255.0000000000025
 20
327.0
 30
0.0
 41
7.0
 42
7.0
 43
7.0
 50
90.0
  0
INSERT
  5
41D3
330
3FC9
100
AcDbEntity
  8
19_寸法線・引出線
100
AcDbBlockReference
  2
_DotSmall
 10
255.0000000000025
 20
302.0
 30
0.0
 41
7.0
 42
7.0
 43
7.0
 50
270.0
  0
MTEXT
  5
41D4
330
3FC9
100
AcDbEntity
  8
19_寸法線・引出線
100
AcDbMText
 10
251.5000000000025
 20
314.4999999999999
 30
0.0
 40
5.0
 41
0.0
 71
     5
 72
     1
  1
ピッチ25
  7
文字
 11
0.0000000000000001
 21
1.0
 31
0.0
 73
     1
 44
1.0
1001
ACAD
1000
MTEXTBEGIN
1070
    73
1070
     1
1070
    44
1040
1.0
1070
    74
1070
     0
1000
MTEXTEND
  0
POINT
  5
41D5
330
3FC9
100
AcDbEntity
  8
Defpoints
 62
     0
100
AcDbPoint
 10
195.0
 20
327.0
 30
0.0
  0
POINT
  5
41D6
330
3FC9
100
AcDbEntity
  8
Defpoints
 62
     0
100
AcDbPoint
 10
195.0
 20
302.0
 30
0.0
  0
POINT
  5
41D7
330
3FC9
100
AcDbEntity
  8
Defpoints
 62
     0
100
AcDbPoint
 10
255.0000000000025
 20
302.0
 30
0.0
  0
ENDBLK
  5
3FCB
330
3FC9
100
AcDbEntity
  8
0
100
AcDbBlockEnd
  0
BLOCK
  5
3FD6
330
3FD5
100
AcDbEntity
  8
0
100
AcDbBlockBegin
  2
*D19
 70
     1
 10
0.0
 20
0.0
 30
0.0
  3
*D19
  1

  0
LINE
  5
41D8
330
3FD5
100
AcDbEntity
  8
19_寸法線・引出線
100
AcDbLine
 10
196.5
 20
302.0
 30
0.0
 11
255.0000000000023
 21
302.0
 31
0.0
  0
LINE
  5
41D9
330
3FD5
100
AcDbEntity
  8
19_寸法線・引出線
100
AcDbLine
 10
196.5
 20
277.0
 30
0.0
 11
255.0000000000023
 21
277.0
 31
0.0
  0
LINE
  5
41DA
330
3FD5
100
AcDbEntity
  8
19_寸法線・引出線
100
AcDbLine
 10
255.0000000000023
 20
302.0
 30
0.0
 11
255.0000000000023
 21
277.0
 31
0.0
  0
INSERT
  5
41DB
330
3FD5
100
AcDbEntity
  8
19_寸法線・引出線
100
AcDbBlockReference
  2
_DotSmall
 10
255.0000000000023
 20
302.0
 30
0.0
 41
7.0
 42
7.0
 43
7.0
 50
90.0
  0
INSERT
  5
41DC
330
3FD5
100
AcDbEntity
  8
19_寸法線・引出線
100
AcDbBlockReference
  2
_DotSmall
 10
255.0000000000023
 20
277.0
 30
0.0
 41
7.0
 42
7.0
 43
7.0
 50
270.0
  0
MTEXT
  5
41DD
330
3FD5
100
AcDbEntity
  8
19_寸法線・引出線
100
AcDbMText
 10
251.5000000000023
 20
289.4999999999999
 30
0.0
 40
5.0
 41
0.0
 71
     5
 72
     1
  1
25
  7
文字
 11
0.0000000000000001
 21
1.0
 31
0.0
 73
     1
 44
1.0
1001
ACAD
1000
MTEXTBEGIN
1070
    73
1070
     1
1070
    44
1040
1.0
1070
    74
1070
     0
1000
MTEXTEND
  0
POINT
  5
41DE
330
3FD5
100
AcDbEntity
  8
Defpoints
 62
     0
100
AcDbPoint
 10
195.0
 20
302.0
 30
0.0
  0
POINT
  5
41DF
330
3FD5
100
AcDbEntity
  8
Defpoints
 62
     0
100
AcDbPoint
 10
195.0
 20
277.0
 30
0.0
  0
POINT
  5
41E0
330
3FD5
100
AcDbEntity
  8
Defpoints
 62
     0
100
AcDbPoint
 10
255.0000000000023
 20
277.0
 30
0.0
  0
ENDBLK
  5
3FD7
330
3FD5
100
AcDbEntity
  8
0
100
AcDbBlockEnd
  0
BLOCK
  5
3FE2
330
3FE1
100
AcDbEntity
  8
0
100
AcDbBlockBegin
  2
*D20
 70
     1
 10
0.0
 20
0.0
 30
0.0
  3
*D20
  1

  0
LINE
  5
41E1
330
3FE1
100
AcDbEntity
  8
19_寸法線・引出線
100
AcDbLine
 10
196.5
 20
277.0
 30
0.0
 11
255.0000000000025
 21
277.0
 31
0.0
  0
LINE
  5
41E2
330
3FE1
100
AcDbEntity
  8
19_寸法線・引出線
100
AcDbLine
 10
196.5
 20
252.0
 30
0.0
 11
255.0000000000025
 21
252.0
 31
0.0
  0
LINE
  5
41E3
330
3FE1
100
AcDbEntity
  8
19_寸法線・引出線
100
AcDbLine
 10
255.0000000000025
 20
277.0
 30
0.0
 11
255.0000000000025
 21
252.0
 31
0.0
  0
INSERT
  5
41E4
330
3FE1
100
AcDbEntity
  8
19_寸法線・引出線
100
AcDbBlockReference
  2
_DotSmall
 10
255.0000000000025
 20
277.0
 30
0.0
 41
7.0
 42
7.0
 43
7.0
 50
90.0
  0
INSERT
  5
41E5
330
3FE1
100
AcDbEntity
  8
19_寸法線・引出線
100
AcDbBlockReference
  2
_DotSmall
 10
255.0000000000025
 20
252.0
 30
0.0
 41
7.0
 42
7.0
 43
7.0
 50
270.0
  0
MTEXT
  5
41E6
330
3FE1
100
AcDbEntity
  8
19_寸法線・引出線
100
AcDbMText
 10
251.5000000000025
 20
264.4999999999999
 30
0.0
 40
5.0
 41
0.0
 71
     5
 72
     1
  1
25
  7
文字
 11
0.0000000000000001
 21
1.0
 31
0.0
 73
     1
 44
1.0
1001
ACAD
1000
MTEXTBEGIN
1070
    73
1070
     1
1070
    44
1040
1.0
1070
    74
1070
     0
1000
MTEXTEND
  0
POINT
  5
41E7
330
3FE1
100
AcDbEntity
  8
Defpoints
 62
     0
100
AcDbPoint
 10
195.0
 20
277.0
 30
0.0
  0
POINT
  5
41E8
330
3FE1
100
AcDbEntity
  8
Defpoints
 62
     0
100
AcDbPoint
 10
195.0
 20
252.0
 30
0.0
  0
POINT
  5
41E9
330
3FE1
100
AcDbEntity
  8
Defpoints
 62
     0
100
AcDbPoint
 10
255.0000000000025
 20
252.0
 30
0.0
  0
ENDBLK
  5
3FE3
330
3FE1
100
AcDbEntity
  8
0
100
AcDbBlockEnd
  0
BLOCK
  5
3FEE
330
3FED
100
AcDbEntity
  8
0
100
AcDbBlockBegin
  2
*D21
 70
     1
 10
0.0
 20
0.0
 30
0.0
  3
*D21
  1

  0
LINE
  5
41EA
330
3FED
100
AcDbEntity
  8
19_寸法線・引出線
100
AcDbLine
 10
196.5
 20
252.0
 30
0.0
 11
255.0000000000027
 21
252.0
 31
0.0
  0
LINE
  5
41EB
330
3FED
100
AcDbEntity
  8
19_寸法線・引出線
100
AcDbLine
 10
196.5
 20
227.0
 30
0.0
 11
255.0000000000027
 21
227.0
 31
0.0
  0
LINE
  5
41EC
330
3FED
100
AcDbEntity
  8
19_寸法線・引出線
100
AcDbLine
 10
255.0000000000027
 20
252.0
 30
0.0
 11
255.0000000000027
 21
227.0
 31
0.0
  0
INSERT
  5
41ED
330
3FED
100
AcDbEntity
  8
19_寸法線・引出線
100
AcDbBlockReference
  2
_DotSmall
 10
255.0000000000027
 20
252.0
 30
0.0
 41
7.0
 42
7.0
 43
7.0
 50
90.0
  0
INSERT
  5
41EE
330
3FED
100
AcDbEntity
  8
19_寸法線・引出線
100
AcDbBlockReference
  2
_DotSmall
 10
255.0000000000027
 20
227.0
 30
0.0
 41
7.0
 42
7.0
 43
7.0
 50
270.0
  0
MTEXT
  5
41EF
330
3FED
100
AcDbEntity
  8
19_寸法線・引出線
100
AcDbMText
 10
251.5000000000028
 20
239.4999999999999
 30
0.0
 40
5.0
 41
0.0
 71
     5
 72
     1
  1
25
  7
文字
 11
0.0000000000000001
 21
1.0
 31
0.0
 73
     1
 44
1.0
1001
ACAD
1000
MTEXTBEGIN
1070
    73
1070
     1
1070
    44
1040
1.0
1070
    74
1070
     0
1000
MTEXTEND
  0
POINT
  5
41F0
330
3FED
100
AcDbEntity
  8
Defpoints
 62
     0
100
AcDbPoint
 10
195.0
 20
252.0
 30
0.0
  0
POINT
  5
41F1
330
3FED
100
AcDbEntity
  8
Defpoints
 62
     0
100
AcDbPoint
 10
195.0
 20
227.0
 30
0.0
  0
POINT
  5
41F2
330
3FED
100
AcDbEntity
  8
Defpoints
 62
     0
100
AcDbPoint
 10
255.0000000000027
 20
227.0
 30
0.0
  0
ENDBLK
  5
3FEF
330
3FED
100
AcDbEntity
  8
0
100
AcDbBlockEnd
  0
BLOCK
  5
3FFA
330
3FF9
100
AcDbEntity
  8
0
100
AcDbBlockBegin
  2
*D22
 70
     1
 10
0.0
 20
0.0
 30
0.0
  3
*D22
  1

  0
LINE
  5
41F3
330
3FF9
100
AcDbEntity
  8
19_寸法線・引出線
100
AcDbLine
 10
196.5
 20
227.0
 30
0.0
 11
255.000000000003
 21
227.0
 31
0.0
  0
LINE
  5
41F4
330
3FF9
100
AcDbEntity
  8
19_寸法線・引出線
100
AcDbLine
 10
196.5
 20
202.0
 30
0.0
 11
255.000000000003
 21
202.0
 31
0.0
  0
LINE
  5
41F5
330
3FF9
100
AcDbEntity
  8
19_寸法線・引出線
100
AcDbLine
 10
255.000000000003
 20
227.0
 30
0.0
 11
255.000000000003
 21
202.0
 31
0.0
  0
INSERT
  5
41F6
330
3FF9
100
AcDbEntity
  8
19_寸法線・引出線
100
AcDbBlockReference
  2
_DotSmall
 10
255.000000000003
 20
227.0
 30
0.0
 41
7.0
 42
7.0
 43
7.0
 50
90.0
  0
INSERT
  5
41F7
330
3FF9
100
AcDbEntity
  8
19_寸法線・引出線
100
AcDbBlockReference
  2
_DotSmall
 10
255.000000000003
 20
202.0
 30
0.0
 41
7.0
 42
7.0
 43
7.0
 50
270.0
  0
MTEXT
  5
41F8
330
3FF9
100
AcDbEntity
  8
19_寸法線・引出線
100
AcDbMText
 10
251.5000000000029
 20
214.4999999999999
 30
0.0
 40
5.0
 41
0.0
 71
     5
 72
     1
  1
25
  7
文字
 11
0.0000000000000001
 21
1.0
 31
0.0
 73
     1
 44
1.0
1001
ACAD
1000
MTEXTBEGIN
1070
    73
1070
     1
1070
    44
1040
1.0
1070
    74
1070
     0
1000
MTEXTEND
  0
POINT
  5
41F9
330
3FF9
100
AcDbEntity
  8
Defpoints
 62
     0
100
AcDbPoint
 10
195.0
 20
227.0
 30
0.0
  0
POINT
  5
41FA
330
3FF9
100
AcDbEntity
  8
Defpoints
 62
     0
100
AcDbPoint
 10
195.0
 20
202.0
 30
0.0
  0
POINT
  5
41FB
330
3FF9
100
AcDbEntity
  8
Defpoints
 62
     0
100
AcDbPoint
 10
255.000000000003
 20
202.0
 30
0.0
  0
ENDBLK
  5
3FFB
330
3FF9
100
AcDbEntity
  8
0
100
AcDbBlockEnd
  0
BLOCK
  5
4006
330
4005
100
AcDbEntity
  8
0
100
AcDbBlockBegin
  2
*D23
 70
     1
 10
0.0
 20
0.0
 30
0.0
  3
*D23
  1

  0
LINE
  5
41FC
330
4005
100
AcDbEntity
  8
19_寸法線・引出線
100
AcDbLine
 10
196.5
 20
202.0
 30
0.0
 11
255.0000000000032
 21
202.0
 31
0.0
  0
LINE
  5
41FD
330
4005
100
AcDbEntity
  8
19_寸法線・引出線
100
AcDbLine
 10
196.5
 20
176.9999999999999
 30
0.0
 11
255.0000000000032
 21
176.9999999999999
 31
0.0
  0
LINE
  5
41FE
330
4005
100
AcDbEntity
  8
19_寸法線・引出線
100
AcDbLine
 10
255.0000000000032
 20
202.0
 30
0.0
 11
255.0000000000032
 21
176.9999999999999
 31
0.0
  0
INSERT
  5
41FF
330
4005
100
AcDbEntity
  8
19_寸法線・引出線
100
AcDbBlockReference
  2
_DotSmall
 10
255.0000000000032
 20
202.0
 30
0.0
 41
7.0
 42
7.0
 43
7.0
 50
90.0
  0
INSERT
  5
4200
330
4005
100
AcDbEntity
  8
19_寸法線・引出線
100
AcDbBlockReference
  2
_DotSmall
 10
255.0000000000032
 20
176.9999999999999
 30
0.0
 41
7.0
 42
7.0
 43
7.0
 50
270.0
  0
MTEXT
  5
4201
330
4005
100
AcDbEntity
  8
19_寸法線・引出線
100
AcDbMText
 10
251.5000000000032
 20
189.4999999999998
 30
0.0
 40
5.0
 41
0.0
 71
     5
 72
     1
  1
25
  7
文字
 11
0.0000000000000001
 21
1.0
 31
0.0
 73
     1
 44
1.0
1001
ACAD
1000
MTEXTBEGIN
1070
    73
1070
     1
1070
    44
1040
1.0
1070
    74
1070
     0
1000
MTEXTEND
  0
POINT
  5
4202
330
4005
100
AcDbEntity
  8
Defpoints
 62
     0
100
AcDbPoint
 10
195.0
 20
202.0
 30
0.0
  0
POINT
  5
4203
330
4005
100
AcDbEntity
  8
Defpoints
 62
     0
100
AcDbPoint
 10
195.0
 20
176.9999999999999
 30
0.0
  0
POINT
  5
4204
330
4005
100
AcDbEntity
  8
Defpoints
 62
     0
100
AcDbPoint
 10
255.0000000000032
 20
176.9999999999999
 30
0.0
  0
ENDBLK
  5
4007
330
4005
100
AcDbEntity
  8
0
100
AcDbBlockEnd
  0
BLOCK
  5
4012
330
4011
100
AcDbEntity
  8
0
100
AcDbBlockBegin
  2
*D24
 70
     1
 10
0.0
 20
0.0
 30
0.0
  3
*D24
  1

  0
LINE
  5
4205
330
4011
100
AcDbEntity
  8
19_寸法線・引出線
100
AcDbLine
 10
196.5
 20
176.9999999999999
 30
0.0
 11
255.0000000000034
 21
176.9999999999999
 31
0.0
  0
LINE
  5
4206
330
4011
100
AcDbEntity
  8
19_寸法線・引出線
100
AcDbLine
 10
196.5
 20
151.9999999999999
 30
0.0
 11
255.0000000000034
 21
151.9999999999999
 31
0.0
  0
LINE
  5
4207
330
4011
100
AcDbEntity
  8
19_寸法線・引出線
100
AcDbLine
 10
255.0000000000034
 20
176.9999999999999
 30
0.0
 11
255.0000000000034
 21
151.9999999999999
 31
0.0
  0
INSERT
  5
4208
330
4011
100
AcDbEntity
  8
19_寸法線・引出線
100
AcDbBlockReference
  2
_DotSmall
 10
255.0000000000034
 20
176.9999999999999
 30
0.0
 41
7.0
 42
7.0
 43
7.0
 50
90.0
  0
INSERT
  5
4209
330
4011
100
AcDbEntity
  8
19_寸法線・引出線
100
AcDbBlockReference
  2
_DotSmall
 10
255.0000000000034
 20
151.9999999999999
 30
0.0
 41
7.0
 42
7.0
 43
7.0
 50
270.0
  0
MTEXT
  5
420A
330
4011
100
AcDbEntity
  8
19_寸法線・引出線
100
AcDbMText
 10
251.5000000000034
 20
164.4999999999998
 30
0.0
 40
5.0
 41
0.0
 71
     5
 72
     1
  1
25
  7
文字
 11
0.0000000000000001
 21
1.0
 31
0.0
 73
     1
 44
1.0
1001
ACAD
1000
MTEXTBEGIN
1070
    73
1070
     1
1070
    44
1040
1.0
1070
    74
1070
     0
1000
MTEXTEND
  0
POINT
  5
420B
330
4011
100
AcDbEntity
  8
Defpoints
 62
     0
100
AcDbPoint
 10
195.0
 20
176.9999999999999
 30
0.0
  0
POINT
  5
420C
330
4011
100
AcDbEntity
  8
Defpoints
 62
     0
100
AcDbPoint
 10
195.0
 20
151.9999999999999
 30
0.0
  0
POINT
  5
420D
330
4011
100
AcDbEntity
  8
Defpoints
 62
     0
100
AcDbPoint
 10
255.0000000000034
 20
151.9999999999999
 30
0.0
  0
ENDBLK
  5
4013
330
4011
100
AcDbEntity
  8
0
100
AcDbBlockEnd
  0
BLOCK
  5
401E
330
401D
100
AcDbEntity
  8
0
100
AcDbBlockBegin
  2
*D25
 70
     1
 10
0.0
 20
0.0
 30
0.0
  3
*D25
  1

  0
LINE
  5
4328
330
401D
100
AcDbEntity
  8
19_寸法線・引出線
100
AcDbLine
 10
196.5
 20
477.0000000000001
 30
0.0
 11
245.0000000000009
 21
477.0000000000001
 31
0.0
  0
LINE
  5
4329
330
401D
100
AcDbEntity
  8
19_寸法線・引出線
100
AcDbLine
 10
196.5
 20
462.0
 30
0.0
 11
245.0000000000009
 21
462.0
 31
0.0
  0
LINE
  5
432A
330
401D
100
AcDbEntity
  8
19_寸法線・引出線
100
AcDbLine
 10
245.0000000000009
 20
477.0000000000001
 30
0.0
 11
245.0000000000009
 21
462.0
 31
0.0
  0
MTEXT
  5
432B
330
401D
100
AcDbEntity
  8
19_寸法線・引出線
100
AcDbMText
 10
241.5000000000009
 20
490.0962510826811
 30
0.0
 40
5.0
 41
0.0
 71
     5
 72
     1
  1
15（18）
  7
文字
 11
0.0000000000000001
 21
1.0
 31
0.0
 73
     1
 44
1.0
1001
ACAD
1000
MTEXTBEGIN
1070
    73
1070
     1
1070
    44
1040
1.0
1070
    74
1070
     0
1000
MTEXTEND
  0
INSERT
  5
432C
330
401D
100
AcDbEntity
  8
19_寸法線・引出線
100
AcDbBlockReference
  2
_DotSmall
 10
245.0000000000009
 20
477.0000000000001
 30
0.0
 41
7.0
 42
7.0
 43
7.0
 50
90.0
  0
INSERT
  5
432D
330
401D
100
AcDbEntity
  8
19_寸法線・引出線
100
AcDbBlockReference
  2
_DotSmall
 10
245.0000000000009
 20
462.0
 30
0.0
 41
7.0
 42
7.0
 43
7.0
 50
270.0
  0
POINT
  5
432E
330
401D
100
AcDbEntity
  8
Defpoints
 62
     0
100
AcDbPoint
 10
195.0
 20
477.0000000000001
 30
0.0
  0
POINT
  5
432F
330
401D
100
AcDbEntity
  8
Defpoints
 62
     0
100
AcDbPoint
 10
195.0
 20
462.0
 30
0.0
  0
POINT
  5
4330
330
401D
100
AcDbEntity
  8
Defpoints
 62
     0
100
AcDbPoint
 10
245.0000000000009
 20
462.0
 30
0.0
  0
ENDBLK
  5
401F
330
401D
100
AcDbEntity
  8
0
100
AcDbBlockEnd
  0
BLOCK
  5
402A
330
4029
100
AcDbEntity
  8
0
100
AcDbBlockBegin
  2
*D26
 70
     1
 10
0.0
 20
0.0
 30
0.0
  3
*D26
  1

  0
LINE
  5
4217
330
4029
100
AcDbEntity
  8
19_寸法線・引出線
100
AcDbLine
 10
196.5
 20
462.0
 30
0.0
 11
245.0000000000009
 21
462.0
 31
0.0
  0
LINE
  5
4218
330
4029
100
AcDbEntity
  8
19_寸法線・引出線
100
AcDbLine
 10
196.5
 20
452.0000000000001
 30
0.0
 11
245.0000000000009
 21
452.0000000000001
 31
0.0
  0
LINE
  5
4219
330
4029
100
AcDbEntity
  8
19_寸法線・引出線
100
AcDbLine
 10
245.0000000000009
 20
462.0
 30
0.0
 11
245.0000000000009
 21
452.0000000000001
 31
0.0
  0
INSERT
  5
421A
330
4029
100
AcDbEntity
  8
19_寸法線・引出線
100
AcDbBlockReference
  2
_DotSmall
 10
245.0000000000009
 20
462.0
 30
0.0
 41
7.0
 42
7.0
 43
7.0
 50
90.0
  0
INSERT
  5
421B
330
4029
100
AcDbEntity
  8
19_寸法線・引出線
100
AcDbBlockReference
  2
_DotSmall
 10
245.0000000000009
 20
452.0000000000001
 30
0.0
 41
7.0
 42
7.0
 43
7.0
 50
270.0
  0
MTEXT
  5
421C
330
4029
100
AcDbEntity
  8
19_寸法線・引出線
100
AcDbMText
 10
241.5000000000009
 20
456.9999999999999
 30
0.0
 40
5.0
 41
0.0
 71
     5
 72
     1
  1
10
  7
文字
 11
0.0000000000000001
 21
1.0
 31
0.0
 73
     1
 44
1.0
1001
ACAD
1000
MTEXTBEGIN
1070
    73
1070
     1
1070
    44
1040
1.0
1070
    74
1070
     0
1000
MTEXTEND
  0
POINT
  5
421D
330
4029
100
AcDbEntity
  8
Defpoints
 62
     0
100
AcDbPoint
 10
195.0
 20
462.0
 30
0.0
  0
POINT
  5
421E
330
4029
100
AcDbEntity
  8
Defpoints
 62
     0
100
AcDbPoint
 10
195.0
 20
452.0000000000001
 30
0.0
  0
POINT
  5
421F
330
4029
100
AcDbEntity
  8
Defpoints
 62
     0
100
AcDbPoint
 10
245.0000000000009
 20
452.0000000000001
 30
0.0
  0
ENDBLK
  5
402B
330
4029
100
AcDbEntity
  8
0
100
AcDbBlockEnd
  0
BLOCK
  5
4036
330
4035
100
AcDbEntity
  8
0
100
AcDbBlockBegin
  2
*D27
 70
     1
 10
0.0
 20
0.0
 30
0.0
  3
*D27
  1

  0
LINE
  5
4220
330
4035
100
AcDbEntity
  8
19_寸法線・引出線
100
AcDbLine
 10
196.5
 20
452.0000000000001
 30
0.0
 11
245.0000000000011
 21
452.0000000000001
 31
0.0
  0
LINE
  5
4221
330
4035
100
AcDbEntity
  8
19_寸法線・引出線
100
AcDbLine
 10
196.5
 20
437.0
 30
0.0
 11
245.0000000000011
 21
437.0
 31
0.0
  0
LINE
  5
4222
330
4035
100
AcDbEntity
  8
19_寸法線・引出線
100
AcDbLine
 10
245.0000000000011
 20
452.0000000000001
 30
0.0
 11
245.0000000000011
 21
437.0
 31
0.0
  0
INSERT
  5
4223
330
4035
100
AcDbEntity
  8
19_寸法線・引出線
100
AcDbBlockReference
  2
_DotSmall
 10
245.0000000000011
 20
452.0000000000001
 30
0.0
 41
7.0
 42
7.0
 43
7.0
 50
90.0
  0
INSERT
  5
4224
330
4035
100
AcDbEntity
  8
19_寸法線・引出線
100
AcDbBlockReference
  2
_DotSmall
 10
245.0000000000011
 20
437.0
 30
0.0
 41
7.0
 42
7.0
 43
7.0
 50
270.0
  0
MTEXT
  5
4225
330
4035
100
AcDbEntity
  8
19_寸法線・引出線
100
AcDbMText
 10
241.5000000000012
 20
444.4999999999999
 30
0.0
 40
5.0
 41
0.0
 71
     5
 72
     1
  1
15
  7
文字
 11
0.0000000000000001
 21
1.0
 31
0.0
 73
     1
 44
1.0
1001
ACAD
1000
MTEXTBEGIN
1070
    73
1070
     1
1070
    44
1040
1.0
1070
    74
1070
     0
1000
MTEXTEND
  0
POINT
  5
4226
330
4035
100
AcDbEntity
  8
Defpoints
 62
     0
100
AcDbPoint
 10
195.0
 20
452.0000000000001
 30
0.0
  0
POINT
  5
4227
330
4035
100
AcDbEntity
  8
Defpoints
 62
     0
100
AcDbPoint
 10
195.0
 20
437.0
 30
0.0
  0
POINT
  5
4228
330
4035
100
AcDbEntity
  8
Defpoints
 62
     0
100
AcDbPoint
 10
245.0000000000011
 20
437.0
 30
0.0
  0
ENDBLK
  5
4037
330
4035
100
AcDbEntity
  8
0
100
AcDbBlockEnd
  0
BLOCK
  5
4042
330
4041
100
AcDbEntity
  8
0
100
AcDbBlockBegin
  2
*D28
 70
     1
 10
0.0
 20
0.0
 30
0.0
  3
*D28
  1

  0
LINE
  5
4229
330
4041
100
AcDbEntity
  8
19_寸法線・引出線
100
AcDbLine
 10
196.5
 20
437.0
 30
0.0
 11
245.0000000000013
 21
437.0
 31
0.0
  0
LINE
  5
422A
330
4041
100
AcDbEntity
  8
19_寸法線・引出線
100
AcDbLine
 10
196.5
 20
427.0000000000001
 30
0.0
 11
245.0000000000013
 21
427.0000000000001
 31
0.0
  0
LINE
  5
422B
330
4041
100
AcDbEntity
  8
19_寸法線・引出線
100
AcDbLine
 10
245.0000000000013
 20
437.0
 30
0.0
 11
245.0000000000013
 21
427.0000000000001
 31
0.0
  0
INSERT
  5
422C
330
4041
100
AcDbEntity
  8
19_寸法線・引出線
100
AcDbBlockReference
  2
_DotSmall
 10
245.0000000000013
 20
437.0
 30
0.0
 41
7.0
 42
7.0
 43
7.0
 50
90.0
  0
INSERT
  5
422D
330
4041
100
AcDbEntity
  8
19_寸法線・引出線
100
AcDbBlockReference
  2
_DotSmall
 10
245.0000000000013
 20
427.0000000000001
 30
0.0
 41
7.0
 42
7.0
 43
7.0
 50
270.0
  0
MTEXT
  5
422E
330
4041
100
AcDbEntity
  8
19_寸法線・引出線
100
AcDbMText
 10
241.5000000000014
 20
431.9999999999999
 30
0.0
 40
5.0
 41
0.0
 71
     5
 72
     1
  1
10
  7
文字
 11
0.0000000000000001
 21
1.0
 31
0.0
 73
     1
 44
1.0
1001
ACAD
1000
MTEXTBEGIN
1070
    73
1070
     1
1070
    44
1040
1.0
1070
    74
1070
     0
1000
MTEXTEND
  0
POINT
  5
422F
330
4041
100
AcDbEntity
  8
Defpoints
 62
     0
100
AcDbPoint
 10
195.0
 20
437.0
 30
0.0
  0
POINT
  5
4230
330
4041
100
AcDbEntity
  8
Defpoints
 62
     0
100
AcDbPoint
 10
195.0
 20
427.0000000000001
 30
0.0
  0
POINT
  5
4231
330
4041
100
AcDbEntity
  8
Defpoints
 62
     0
100
AcDbPoint
 10
245.0000000000013
 20
427.0000000000001
 30
0.0
  0
ENDBLK
  5
4043
330
4041
100
AcDbEntity
  8
0
100
AcDbBlockEnd
  0
BLOCK
  5
404E
330
404D
100
AcDbEntity
  8
0
100
AcDbBlockBegin
  2
*D29
 70
     1
 10
0.0
 20
0.0
 30
0.0
  3
*D29
  1

  0
LINE
  5
4232
330
404D
100
AcDbEntity
  8
19_寸法線・引出線
100
AcDbLine
 10
196.5
 20
427.0000000000001
 30
0.0
 11
245.0000000000016
 21
427.0000000000001
 31
0.0
  0
LINE
  5
4233
330
404D
100
AcDbEntity
  8
19_寸法線・引出線
100
AcDbLine
 10
196.5
 20
412.0
 30
0.0
 11
245.0000000000016
 21
412.0
 31
0.0
  0
LINE
  5
4234
330
404D
100
AcDbEntity
  8
19_寸法線・引出線
100
AcDbLine
 10
245.0000000000016
 20
427.0000000000001
 30
0.0
 11
245.0000000000016
 21
412.0
 31
0.0
  0
INSERT
  5
4235
330
404D
100
AcDbEntity
  8
19_寸法線・引出線
100
AcDbBlockReference
  2
_DotSmall
 10
245.0000000000016
 20
427.0000000000001
 30
0.0
 41
7.0
 42
7.0
 43
7.0
 50
90.0
  0
INSERT
  5
4236
330
404D
100
AcDbEntity
  8
19_寸法線・引出線
100
AcDbBlockReference
  2
_DotSmall
 10
245.0000000000016
 20
412.0
 30
0.0
 41
7.0
 42
7.0
 43
7.0
 50
270.0
  0
MTEXT
  5
4237
330
404D
100
AcDbEntity
  8
19_寸法線・引出線
100
AcDbMText
 10
241.5000000000016
 20
419.4999999999999
 30
0.0
 40
5.0
 41
0.0
 71
     5
 72
     1
  1
15
  7
文字
 11
0.0000000000000001
 21
1.0
 31
0.0
 73
     1
 44
1.0
1001
ACAD
1000
MTEXTBEGIN
1070
    73
1070
     1
1070
    44
1040
1.0
1070
    74
1070
     0
1000
MTEXTEND
  0
POINT
  5
4238
330
404D
100
AcDbEntity
  8
Defpoints
 62
     0
100
AcDbPoint
 10
195.0
 20
427.0000000000001
 30
0.0
  0
POINT
  5
4239
330
404D
100
AcDbEntity
  8
Defpoints
 62
     0
100
AcDbPoint
 10
195.0
 20
412.0
 30
0.0
  0
POINT
  5
423A
330
404D
100
AcDbEntity
  8
Defpoints
 62
     0
100
AcDbPoint
 10
245.0000000000016
 20
412.0
 30
0.0
  0
ENDBLK
  5
404F
330
404D
100
AcDbEntity
  8
0
100
AcDbBlockEnd
  0
BLOCK
  5
405A
330
4059
100
AcDbEntity
  8
0
100
AcDbBlockBegin
  2
*D30
 70
     1
 10
0.0
 20
0.0
 30
0.0
  3
*D30
  1

  0
LINE
  5
423B
330
4059
100
AcDbEntity
  8
19_寸法線・引出線
100
AcDbLine
 10
196.5
 20
412.0
 30
0.0
 11
245.0000000000018
 21
412.0
 31
0.0
  0
LINE
  5
423C
330
4059
100
AcDbEntity
  8
19_寸法線・引出線
100
AcDbLine
 10
196.5
 20
402.0000000000001
 30
0.0
 11
245.0000000000018
 21
402.0000000000001
 31
0.0
  0
LINE
  5
423D
330
4059
100
AcDbEntity
  8
19_寸法線・引出線
100
AcDbLine
 10
245.0000000000018
 20
412.0
 30
0.0
 11
245.0000000000018
 21
402.0000000000001
 31
0.0
  0
INSERT
  5
423E
330
4059
100
AcDbEntity
  8
19_寸法線・引出線
100
AcDbBlockReference
  2
_DotSmall
 10
245.0000000000018
 20
412.0
 30
0.0
 41
7.0
 42
7.0
 43
7.0
 50
90.0
  0
INSERT
  5
423F
330
4059
100
AcDbEntity
  8
19_寸法線・引出線
100
AcDbBlockReference
  2
_DotSmall
 10
245.0000000000018
 20
402.0000000000001
 30
0.0
 41
7.0
 42
7.0
 43
7.0
 50
270.0
  0
MTEXT
  5
4240
330
4059
100
AcDbEntity
  8
19_寸法線・引出線
100
AcDbMText
 10
241.5000000000019
 20
406.9999999999999
 30
0.0
 40
5.0
 41
0.0
 71
     5
 72
     1
  1
10
  7
文字
 11
0.0000000000000001
 21
1.0
 31
0.0
 73
     1
 44
1.0
1001
ACAD
1000
MTEXTBEGIN
1070
    73
1070
     1
1070
    44
1040
1.0
1070
    74
1070
     0
1000
MTEXTEND
  0
POINT
  5
4241
330
4059
100
AcDbEntity
  8
Defpoints
 62
     0
100
AcDbPoint
 10
195.0
 20
412.0
 30
0.0
  0
POINT
  5
4242
330
4059
100
AcDbEntity
  8
Defpoints
 62
     0
100
AcDbPoint
 10
195.0
 20
402.0000000000001
 30
0.0
  0
POINT
  5
4243
330
4059
100
AcDbEntity
  8
Defpoints
 62
     0
100
AcDbPoint
 10
245.0000000000018
 20
402.0000000000001
 30
0.0
  0
ENDBLK
  5
405B
330
4059
100
AcDbEntity
  8
0
100
AcDbBlockEnd
  0
BLOCK
  5
4066
330
4065
100
AcDbEntity
  8
0
100
AcDbBlockBegin
  2
*D31
 70
     1
 10
0.0
 20
0.0
 30
0.0
  3
*D31
  1

  0
LINE
  5
4244
330
4065
100
AcDbEntity
  8
19_寸法線・引出線
100
AcDbLine
 10
196.5
 20
402.0000000000001
 30
0.0
 11
245.000000000002
 21
402.0000000000001
 31
0.0
  0
LINE
  5
4245
330
4065
100
AcDbEntity
  8
19_寸法線・引出線
100
AcDbLine
 10
196.5
 20
387.0000000000001
 30
0.0
 11
245.000000000002
 21
387.0000000000001
 31
0.0
  0
LINE
  5
4246
330
4065
100
AcDbEntity
  8
19_寸法線・引出線
100
AcDbLine
 10
245.000000000002
 20
402.0000000000001
 30
0.0
 11
245.000000000002
 21
387.0000000000001
 31
0.0
  0
INSERT
  5
4247
330
4065
100
AcDbEntity
  8
19_寸法線・引出線
100
AcDbBlockReference
  2
_DotSmall
 10
245.000000000002
 20
402.0000000000001
 30
0.0
 41
7.0
 42
7.0
 43
7.0
 50
90.0
  0
INSERT
  5
4248
330
4065
100
AcDbEntity
  8
19_寸法線・引出線
100
AcDbBlockReference
  2
_DotSmall
 10
245.000000000002
 20
387.0000000000001
 30
0.0
 41
7.0
 42
7.0
 43
7.0
 50
270.0
  0
MTEXT
  5
4249
330
4065
100
AcDbEntity
  8
19_寸法線・引出線
100
AcDbMText
 10
241.5000000000021
 20
394.4999999999999
 30
0.0
 40
5.0
 41
0.0
 71
     5
 72
     1
  1
15
  7
文字
 11
0.0000000000000001
 21
1.0
 31
0.0
 73
     1
 44
1.0
1001
ACAD
1000
MTEXTBEGIN
1070
    73
1070
     1
1070
    44
1040
1.0
1070
    74
1070
     0
1000
MTEXTEND
  0
POINT
  5
424A
330
4065
100
AcDbEntity
  8
Defpoints
 62
     0
100
AcDbPoint
 10
195.0
 20
402.0000000000001
 30
0.0
  0
POINT
  5
424B
330
4065
100
AcDbEntity
  8
Defpoints
 62
     0
100
AcDbPoint
 10
195.0
 20
387.0000000000001
 30
0.0
  0
POINT
  5
424C
330
4065
100
AcDbEntity
  8
Defpoints
 62
     0
100
AcDbPoint
 10
245.000000000002
 20
387.0000000000001
 30
0.0
  0
ENDBLK
  5
4067
330
4065
100
AcDbEntity
  8
0
100
AcDbBlockEnd
  0
BLOCK
  5
4072
330
4071
100
AcDbEntity
  8
0
100
AcDbBlockBegin
  2
*D32
 70
     1
 10
0.0
 20
0.0
 30
0.0
  3
*D32
  1

  0
LINE
  5
424D
330
4071
100
AcDbEntity
  8
19_寸法線・引出線
100
AcDbLine
 10
196.5
 20
387.0000000000001
 30
0.0
 11
245.0000000000022
 21
387.0000000000001
 31
0.0
  0
LINE
  5
424E
330
4071
100
AcDbEntity
  8
19_寸法線・引出線
100
AcDbLine
 10
196.5
 20
377.0
 30
0.0
 11
245.0000000000022
 21
377.0
 31
0.0
  0
LINE
  5
424F
330
4071
100
AcDbEntity
  8
19_寸法線・引出線
100
AcDbLine
 10
245.0000000000022
 20
387.0000000000001
 30
0.0
 11
245.0000000000022
 21
377.0
 31
0.0
  0
INSERT
  5
4250
330
4071
100
AcDbEntity
  8
19_寸法線・引出線
100
AcDbBlockReference
  2
_DotSmall
 10
245.0000000000022
 20
387.0000000000001
 30
0.0
 41
7.0
 42
7.0
 43
7.0
 50
90.0
  0
INSERT
  5
4251
330
4071
100
AcDbEntity
  8
19_寸法線・引出線
100
AcDbBlockReference
  2
_DotSmall
 10
245.0000000000022
 20
377.0
 30
0.0
 41
7.0
 42
7.0
 43
7.0
 50
270.0
  0
MTEXT
  5
4252
330
4071
100
AcDbEntity
  8
19_寸法線・引出線
100
AcDbMText
 10
241.5000000000023
 20
381.9999999999999
 30
0.0
 40
5.0
 41
0.0
 71
     5
 72
     1
  1
10
  7
文字
 11
0.0000000000000001
 21
1.0
 31
0.0
 73
     1
 44
1.0
1001
ACAD
1000
MTEXTBEGIN
1070
    73
1070
     1
1070
    44
1040
1.0
1070
    74
1070
     0
1000
MTEXTEND
  0
POINT
  5
4253
330
4071
100
AcDbEntity
  8
Defpoints
 62
     0
100
AcDbPoint
 10
195.0
 20
387.0000000000001
 30
0.0
  0
POINT
  5
4254
330
4071
100
AcDbEntity
  8
Defpoints
 62
     0
100
AcDbPoint
 10
195.0
 20
377.0
 30
0.0
  0
POINT
  5
4255
330
4071
100
AcDbEntity
  8
Defpoints
 62
     0
100
AcDbPoint
 10
245.0000000000022
 20
377.0
 30
0.0
  0
ENDBLK
  5
4073
330
4071
100
AcDbEntity
  8
0
100
AcDbBlockEnd
  0
BLOCK
  5
407E
330
407D
100
AcDbEntity
  8
0
100
AcDbBlockBegin
  2
*D33
 70
     1
 10
0.0
 20
0.0
 30
0.0
  3
*D33
  1

  0
LINE
  5
4256
330
407D
100
AcDbEntity
  8
19_寸法線・引出線
100
AcDbLine
 10
196.5
 20
377.0
 30
0.0
 11
245.0000000000025
 21
377.0
 31
0.0
  0
LINE
  5
4257
330
407D
100
AcDbEntity
  8
19_寸法線・引出線
100
AcDbLine
 10
196.5
 20
362.0
 30
0.0
 11
245.0000000000025
 21
362.0
 31
0.0
  0
LINE
  5
4258
330
407D
100
AcDbEntity
  8
19_寸法線・引出線
100
AcDbLine
 10
245.0000000000025
 20
377.0
 30
0.0
 11
245.0000000000025
 21
362.0
 31
0.0
  0
INSERT
  5
4259
330
407D
100
AcDbEntity
  8
19_寸法線・引出線
100
AcDbBlockReference
  2
_DotSmall
 10
245.0000000000025
 20
377.0
 30
0.0
 41
7.0
 42
7.0
 43
7.0
 50
90.0
  0
INSERT
  5
425A
330
407D
100
AcDbEntity
  8
19_寸法線・引出線
100
AcDbBlockReference
  2
_DotSmall
 10
245.0000000000025
 20
362.0
 30
0.0
 41
7.0
 42
7.0
 43
7.0
 50
270.0
  0
MTEXT
  5
425B
330
407D
100
AcDbEntity
  8
19_寸法線・引出線
100
AcDbMText
 10
241.5000000000025
 20
369.4999999999999
 30
0.0
 40
5.0
 41
0.0
 71
     5
 72
     1
  1
15
  7
文字
 11
0.0000000000000001
 21
1.0
 31
0.0
 73
     1
 44
1.0
1001
ACAD
1000
MTEXTBEGIN
1070
    73
1070
     1
1070
    44
1040
1.0
1070
    74
1070
     0
1000
MTEXTEND
  0
POINT
  5
425C
330
407D
100
AcDbEntity
  8
Defpoints
 62
     0
100
AcDbPoint
 10
195.0
 20
377.0
 30
0.0
  0
POINT
  5
425D
330
407D
100
AcDbEntity
  8
Defpoints
 62
     0
100
AcDbPoint
 10
195.0
 20
362.0
 30
0.0
  0
POINT
  5
425E
330
407D
100
AcDbEntity
  8
Defpoints
 62
     0
100
AcDbPoint
 10
245.0000000000025
 20
362.0
 30
0.0
  0
ENDBLK
  5
407F
330
407D
100
AcDbEntity
  8
0
100
AcDbBlockEnd
  0
BLOCK
  5
408A
330
4089
100
AcDbEntity
  8
0
100
AcDbBlockBegin
  2
*D34
 70
     1
 10
0.0
 20
0.0
 30
0.0
  3
*D34
  1

  0
LINE
  5
425F
330
4089
100
AcDbEntity
  8
19_寸法線・引出線
100
AcDbLine
 10
196.5
 20
362.0
 30
0.0
 11
245.0000000000027
 21
362.0
 31
0.0
  0
LINE
  5
4260
330
4089
100
AcDbEntity
  8
19_寸法線・引出線
100
AcDbLine
 10
196.5
 20
352.0
 30
0.0
 11
245.0000000000027
 21
352.0
 31
0.0
  0
LINE
  5
4261
330
4089
100
AcDbEntity
  8
19_寸法線・引出線
100
AcDbLine
 10
245.0000000000027
 20
362.0
 30
0.0
 11
245.0000000000027
 21
352.0
 31
0.0
  0
INSERT
  5
4262
330
4089
100
AcDbEntity
  8
19_寸法線・引出線
100
AcDbBlockReference
  2
_DotSmall
 10
245.0000000000027
 20
362.0
 30
0.0
 41
7.0
 42
7.0
 43
7.0
 50
90.0
  0
INSERT
  5
4263
330
4089
100
AcDbEntity
  8
19_寸法線・引出線
100
AcDbBlockReference
  2
_DotSmall
 10
245.0000000000027
 20
352.0
 30
0.0
 41
7.0
 42
7.0
 43
7.0
 50
270.0
  0
MTEXT
  5
4264
330
4089
100
AcDbEntity
  8
19_寸法線・引出線
100
AcDbMText
 10
241.5000000000028
 20
356.9999999999999
 30
0.0
 40
5.0
 41
0.0
 71
     5
 72
     1
  1
10
  7
文字
 11
0.0000000000000001
 21
1.0
 31
0.0
 73
     1
 44
1.0
1001
ACAD
1000
MTEXTBEGIN
1070
    73
1070
     1
1070
    44
1040
1.0
1070
    74
1070
     0
1000
MTEXTEND
  0
POINT
  5
4265
330
4089
100
AcDbEntity
  8
Defpoints
 62
     0
100
AcDbPoint
 10
195.0
 20
362.0
 30
0.0
  0
POINT
  5
4266
330
4089
100
AcDbEntity
  8
Defpoints
 62
     0
100
AcDbPoint
 10
195.0
 20
352.0
 30
0.0
  0
POINT
  5
4267
330
4089
100
AcDbEntity
  8
Defpoints
 62
     0
100
AcDbPoint
 10
245.0000000000027
 20
352.0
 30
0.0
  0
ENDBLK
  5
408B
330
4089
100
AcDbEntity
  8
0
100
AcDbBlockEnd
  0
BLOCK
  5
4096
330
4095
100
AcDbEntity
  8
0
100
AcDbBlockBegin
  2
*D35
 70
     1
 10
0.0
 20
0.0
 30
0.0
  3
*D35
  1

  0
LINE
  5
4268
330
4095
100
AcDbEntity
  8
19_寸法線・引出線
100
AcDbLine
 10
196.5
 20
352.0
 30
0.0
 11
245.0000000000029
 21
352.0
 31
0.0
  0
LINE
  5
4269
330
4095
100
AcDbEntity
  8
19_寸法線・引出線
100
AcDbLine
 10
196.5
 20
337.0
 30
0.0
 11
245.0000000000029
 21
337.0
 31
0.0
  0
LINE
  5
426A
330
4095
100
AcDbEntity
  8
19_寸法線・引出線
100
AcDbLine
 10
245.0000000000029
 20
352.0
 30
0.0
 11
245.0000000000029
 21
337.0
 31
0.0
  0
INSERT
  5
426B
330
4095
100
AcDbEntity
  8
19_寸法線・引出線
100
AcDbBlockReference
  2
_DotSmall
 10
245.0000000000029
 20
352.0
 30
0.0
 41
7.0
 42
7.0
 43
7.0
 50
90.0
  0
INSERT
  5
426C
330
4095
100
AcDbEntity
  8
19_寸法線・引出線
100
AcDbBlockReference
  2
_DotSmall
 10
245.0000000000029
 20
337.0
 30
0.0
 41
7.0
 42
7.0
 43
7.0
 50
270.0
  0
MTEXT
  5
426D
330
4095
100
AcDbEntity
  8
19_寸法線・引出線
100
AcDbMText
 10
241.500000000003
 20
344.4999999999999
 30
0.0
 40
5.0
 41
0.0
 71
     5
 72
     1
  1
15
  7
文字
 11
0.0000000000000001
 21
1.0
 31
0.0
 73
     1
 44
1.0
1001
ACAD
1000
MTEXTBEGIN
1070
    73
1070
     1
1070
    44
1040
1.0
1070
    74
1070
     0
1000
MTEXTEND
  0
POINT
  5
426E
330
4095
100
AcDbEntity
  8
Defpoints
 62
     0
100
AcDbPoint
 10
195.0
 20
352.0
 30
0.0
  0
POINT
  5
426F
330
4095
100
AcDbEntity
  8
Defpoints
 62
     0
100
AcDbPoint
 10
195.0
 20
337.0
 30
0.0
  0
POINT
  5
4270
330
4095
100
AcDbEntity
  8
Defpoints
 62
     0
100
AcDbPoint
 10
245.0000000000029
 20
337.0
 30
0.0
  0
ENDBLK
  5
4097
330
4095
100
AcDbEntity
  8
0
100
AcDbBlockEnd
  0
BLOCK
  5
40A2
330
40A1
100
AcDbEntity
  8
0
100
AcDbBlockBegin
  2
*D36
 70
     1
 10
0.0
 20
0.0
 30
0.0
  3
*D36
  1

  0
LINE
  5
4271
330
40A1
100
AcDbEntity
  8
19_寸法線・引出線
100
AcDbLine
 10
196.5
 20
337.0
 30
0.0
 11
245.0000000000032
 21
337.0
 31
0.0
  0
LINE
  5
4272
330
40A1
100
AcDbEntity
  8
19_寸法線・引出線
100
AcDbLine
 10
196.5
 20
327.0
 30
0.0
 11
245.0000000000032
 21
327.0
 31
0.0
  0
LINE
  5
4273
330
40A1
100
AcDbEntity
  8
19_寸法線・引出線
100
AcDbLine
 10
245.0000000000032
 20
337.0
 30
0.0
 11
245.0000000000032
 21
327.0
 31
0.0
  0
INSERT
  5
4274
330
40A1
100
AcDbEntity
  8
19_寸法線・引出線
100
AcDbBlockReference
  2
_DotSmall
 10
245.0000000000032
 20
337.0
 30
0.0
 41
7.0
 42
7.0
 43
7.0
 50
90.0
  0
INSERT
  5
4275
330
40A1
100
AcDbEntity
  8
19_寸法線・引出線
100
AcDbBlockReference
  2
_DotSmall
 10
245.0000000000032
 20
327.0
 30
0.0
 41
7.0
 42
7.0
 43
7.0
 50
270.0
  0
MTEXT
  5
4276
330
40A1
100
AcDbEntity
  8
19_寸法線・引出線
100
AcDbMText
 10
241.5000000000032
 20
331.9999999999999
 30
0.0
 40
5.0
 41
0.0
 71
     5
 72
     1
  1
10
  7
文字
 11
0.0000000000000001
 21
1.0
 31
0.0
 73
     1
 44
1.0
1001
ACAD
1000
MTEXTBEGIN
1070
    73
1070
     1
1070
    44
1040
1.0
1070
    74
1070
     0
1000
MTEXTEND
  0
POINT
  5
4277
330
40A1
100
AcDbEntity
  8
Defpoints
 62
     0
100
AcDbPoint
 10
195.0
 20
337.0
 30
0.0
  0
POINT
  5
4278
330
40A1
100
AcDbEntity
  8
Defpoints
 62
     0
100
AcDbPoint
 10
195.0
 20
327.0
 30
0.0
  0
POINT
  5
4279
330
40A1
100
AcDbEntity
  8
Defpoints
 62
     0
100
AcDbPoint
 10
245.0000000000032
 20
327.0
 30
0.0
  0
ENDBLK
  5
40A3
330
40A1
100
AcDbEntity
  8
0
100
AcDbBlockEnd
  0
BLOCK
  5
40AE
330
40AD
100
AcDbEntity
  8
0
100
AcDbBlockBegin
  2
*D37
 70
     1
 10
0.0
 20
0.0
 30
0.0
  3
*D37
  1

  0
LINE
  5
427A
330
40AD
100
AcDbEntity
  8
19_寸法線・引出線
100
AcDbLine
 10
196.5
 20
327.0
 30
0.0
 11
245.0000000000034
 21
327.0
 31
0.0
  0
LINE
  5
427B
330
40AD
100
AcDbEntity
  8
19_寸法線・引出線
100
AcDbLine
 10
196.5
 20
312.0
 30
0.0
 11
245.0000000000034
 21
312.0
 31
0.0
  0
LINE
  5
427C
330
40AD
100
AcDbEntity
  8
19_寸法線・引出線
100
AcDbLine
 10
245.0000000000034
 20
327.0
 30
0.0
 11
245.0000000000034
 21
312.0
 31
0.0
  0
INSERT
  5
427D
330
40AD
100
AcDbEntity
  8
19_寸法線・引出線
100
AcDbBlockReference
  2
_DotSmall
 10
245.0000000000034
 20
327.0
 30
0.0
 41
7.0
 42
7.0
 43
7.0
 50
90.0
  0
INSERT
  5
427E
330
40AD
100
AcDbEntity
  8
19_寸法線・引出線
100
AcDbBlockReference
  2
_DotSmall
 10
245.0000000000034
 20
312.0
 30
0.0
 41
7.0
 42
7.0
 43
7.0
 50
270.0
  0
MTEXT
  5
427F
330
40AD
100
AcDbEntity
  8
19_寸法線・引出線
100
AcDbMText
 10
241.5000000000034
 20
319.4999999999999
 30
0.0
 40
5.0
 41
0.0
 71
     5
 72
     1
  1
15
  7
文字
 11
0.0000000000000001
 21
1.0
 31
0.0
 73
     1
 44
1.0
1001
ACAD
1000
MTEXTBEGIN
1070
    73
1070
     1
1070
    44
1040
1.0
1070
    74
1070
     0
1000
MTEXTEND
  0
POINT
  5
4280
330
40AD
100
AcDbEntity
  8
Defpoints
 62
     0
100
AcDbPoint
 10
195.0
 20
327.0
 30
0.0
  0
POINT
  5
4281
330
40AD
100
AcDbEntity
  8
Defpoints
 62
     0
100
AcDbPoint
 10
195.0
 20
312.0
 30
0.0
  0
POINT
  5
4282
330
40AD
100
AcDbEntity
  8
Defpoints
 62
     0
100
AcDbPoint
 10
245.0000000000034
 20
312.0
 30
0.0
  0
ENDBLK
  5
40AF
330
40AD
100
AcDbEntity
  8
0
100
AcDbBlockEnd
  0
BLOCK
  5
40BA
330
40B9
100
AcDbEntity
  8
0
100
AcDbBlockBegin
  2
*D38
 70
     1
 10
0.0
 20
0.0
 30
0.0
  3
*D38
  1

  0
LINE
  5
4283
330
40B9
100
AcDbEntity
  8
19_寸法線・引出線
100
AcDbLine
 10
196.5
 20
287.0
 30
0.0
 11
245.0000000000039
 21
287.0
 31
0.0
  0
LINE
  5
4284
330
40B9
100
AcDbEntity
  8
19_寸法線・引出線
100
AcDbLine
 10
196.5
 20
277.0
 30
0.0
 11
245.0000000000039
 21
277.0
 31
0.0
  0
LINE
  5
4285
330
40B9
100
AcDbEntity
  8
19_寸法線・引出線
100
AcDbLine
 10
245.0000000000039
 20
287.0
 30
0.0
 11
245.0000000000039
 21
277.0
 31
0.0
  0
INSERT
  5
4286
330
40B9
100
AcDbEntity
  8
19_寸法線・引出線
100
AcDbBlockReference
  2
_DotSmall
 10
245.0000000000039
 20
287.0
 30
0.0
 41
7.0
 42
7.0
 43
7.0
 50
90.0
  0
INSERT
  5
4287
330
40B9
100
AcDbEntity
  8
19_寸法線・引出線
100
AcDbBlockReference
  2
_DotSmall
 10
245.0000000000039
 20
277.0
 30
0.0
 41
7.0
 42
7.0
 43
7.0
 50
270.0
  0
MTEXT
  5
4288
330
40B9
100
AcDbEntity
  8
19_寸法線・引出線
100
AcDbMText
 10
241.5000000000039
 20
281.9999999999999
 30
0.0
 40
5.0
 41
0.0
 71
     5
 72
     1
  1
10
  7
文字
 11
0.0000000000000001
 21
1.0
 31
0.0
 73
     1
 44
1.0
1001
ACAD
1000
MTEXTBEGIN
1070
    73
1070
     1
1070
    44
1040
1.0
1070
    74
1070
     0
1000
MTEXTEND
  0
POINT
  5
4289
330
40B9
100
AcDbEntity
  8
Defpoints
 62
     0
100
AcDbPoint
 10
195.0
 20
287.0
 30
0.0
  0
POINT
  5
428A
330
40B9
100
AcDbEntity
  8
Defpoints
 62
     0
100
AcDbPoint
 10
195.0
 20
277.0
 30
0.0
  0
POINT
  5
428B
330
40B9
100
AcDbEntity
  8
Defpoints
 62
     0
100
AcDbPoint
 10
245.0000000000039
 20
277.0
 30
0.0
  0
ENDBLK
  5
40BB
330
40B9
100
AcDbEntity
  8
0
100
AcDbBlockEnd
  0
BLOCK
  5
40C6
330
40C5
100
AcDbEntity
  8
0
100
AcDbBlockBegin
  2
*D39
 70
     1
 10
0.0
 20
0.0
 30
0.0
  3
*D39
  1

  0
LINE
  5
428C
330
40C5
100
AcDbEntity
  8
19_寸法線・引出線
100
AcDbLine
 10
196.5
 20
277.0
 30
0.0
 11
245.0000000000041
 21
277.0
 31
0.0
  0
LINE
  5
428D
330
40C5
100
AcDbEntity
  8
19_寸法線・引出線
100
AcDbLine
 10
196.5
 20
262.0
 30
0.0
 11
245.0000000000041
 21
262.0
 31
0.0
  0
LINE
  5
428E
330
40C5
100
AcDbEntity
  8
19_寸法線・引出線
100
AcDbLine
 10
245.0000000000041
 20
277.0
 30
0.0
 11
245.0000000000041
 21
262.0
 31
0.0
  0
INSERT
  5
428F
330
40C5
100
AcDbEntity
  8
19_寸法線・引出線
100
AcDbBlockReference
  2
_DotSmall
 10
245.0000000000041
 20
277.0
 30
0.0
 41
7.0
 42
7.0
 43
7.0
 50
90.0
  0
INSERT
  5
4290
330
40C5
100
AcDbEntity
  8
19_寸法線・引出線
100
AcDbBlockReference
  2
_DotSmall
 10
245.0000000000041
 20
262.0
 30
0.0
 41
7.0
 42
7.0
 43
7.0
 50
270.0
  0
MTEXT
  5
4291
330
40C5
100
AcDbEntity
  8
19_寸法線・引出線
100
AcDbMText
 10
241.5000000000041
 20
269.4999999999999
 30
0.0
 40
5.0
 41
0.0
 71
     5
 72
     1
  1
15
  7
文字
 11
0.0000000000000001
 21
1.0
 31
0.0
 73
     1
 44
1.0
1001
ACAD
1000
MTEXTBEGIN
1070
    73
1070
     1
1070
    44
1040
1.0
1070
    74
1070
     0
1000
MTEXTEND
  0
POINT
  5
4292
330
40C5
100
AcDbEntity
  8
Defpoints
 62
     0
100
AcDbPoint
 10
195.0
 20
277.0
 30
0.0
  0
POINT
  5
4293
330
40C5
100
AcDbEntity
  8
Defpoints
 62
     0
100
AcDbPoint
 10
195.0
 20
262.0
 30
0.0
  0
POINT
  5
4294
330
40C5
100
AcDbEntity
  8
Defpoints
 62
     0
100
AcDbPoint
 10
245.0000000000041
 20
262.0
 30
0.0
  0
ENDBLK
  5
40C7
330
40C5
100
AcDbEntity
  8
0
100
AcDbBlockEnd
  0
BLOCK
  5
40D2
330
40D1
100
AcDbEntity
  8
0
100
AcDbBlockBegin
  2
*D40
 70
     1
 10
0.0
 20
0.0
 30
0.0
  3
*D40
  1

  0
LINE
  5
4295
330
40D1
100
AcDbEntity
  8
19_寸法線・引出線
100
AcDbLine
 10
196.5
 20
262.0
 30
0.0
 11
245.0000000000044
 21
262.0
 31
0.0
  0
LINE
  5
4296
330
40D1
100
AcDbEntity
  8
19_寸法線・引出線
100
AcDbLine
 10
196.5
 20
252.0
 30
0.0
 11
245.0000000000044
 21
252.0
 31
0.0
  0
LINE
  5
4297
330
40D1
100
AcDbEntity
  8
19_寸法線・引出線
100
AcDbLine
 10
245.0000000000044
 20
262.0
 30
0.0
 11
245.0000000000044
 21
252.0
 31
0.0
  0
INSERT
  5
4298
330
40D1
100
AcDbEntity
  8
19_寸法線・引出線
100
AcDbBlockReference
  2
_DotSmall
 10
245.0000000000044
 20
262.0
 30
0.0
 41
7.0
 42
7.0
 43
7.0
 50
90.0
  0
INSERT
  5
4299
330
40D1
100
AcDbEntity
  8
19_寸法線・引出線
100
AcDbBlockReference
  2
_DotSmall
 10
245.0000000000044
 20
252.0
 30
0.0
 41
7.0
 42
7.0
 43
7.0
 50
270.0
  0
MTEXT
  5
429A
330
40D1
100
AcDbEntity
  8
19_寸法線・引出線
100
AcDbMText
 10
241.5000000000044
 20
256.9999999999999
 30
0.0
 40
5.0
 41
0.0
 71
     5
 72
     1
  1
10
  7
文字
 11
0.0000000000000001
 21
1.0
 31
0.0
 73
     1
 44
1.0
1001
ACAD
1000
MTEXTBEGIN
1070
    73
1070
     1
1070
    44
1040
1.0
1070
    74
1070
     0
1000
MTEXTEND
  0
POINT
  5
429B
330
40D1
100
AcDbEntity
  8
Defpoints
 62
     0
100
AcDbPoint
 10
195.0
 20
262.0
 30
0.0
  0
POINT
  5
429C
330
40D1
100
AcDbEntity
  8
Defpoints
 62
     0
100
AcDbPoint
 10
195.0
 20
252.0
 30
0.0
  0
POINT
  5
429D
330
40D1
100
AcDbEntity
  8
Defpoints
 62
     0
100
AcDbPoint
 10
245.0000000000044
 20
252.0
 30
0.0
  0
ENDBLK
  5
40D3
330
40D1
100
AcDbEntity
  8
0
100
AcDbBlockEnd
  0
BLOCK
  5
40DE
330
40DD
100
AcDbEntity
  8
0
100
AcDbBlockBegin
  2
*D41
 70
     1
 10
0.0
 20
0.0
 30
0.0
  3
*D41
  1

  0
LINE
  5
429E
330
40DD
100
AcDbEntity
  8
19_寸法線・引出線
100
AcDbLine
 10
196.5
 20
252.0
 30
0.0
 11
245.0000000000045
 21
252.0
 31
0.0
  0
LINE
  5
429F
330
40DD
100
AcDbEntity
  8
19_寸法線・引出線
100
AcDbLine
 10
196.5
 20
237.0
 30
0.0
 11
245.0000000000045
 21
237.0
 31
0.0
  0
LINE
  5
42A0
330
40DD
100
AcDbEntity
  8
19_寸法線・引出線
100
AcDbLine
 10
245.0000000000045
 20
252.0
 30
0.0
 11
245.0000000000045
 21
237.0
 31
0.0
  0
INSERT
  5
42A1
330
40DD
100
AcDbEntity
  8
19_寸法線・引出線
100
AcDbBlockReference
  2
_DotSmall
 10
245.0000000000045
 20
252.0
 30
0.0
 41
7.0
 42
7.0
 43
7.0
 50
90.0
  0
INSERT
  5
42A2
330
40DD
100
AcDbEntity
  8
19_寸法線・引出線
100
AcDbBlockReference
  2
_DotSmall
 10
245.0000000000045
 20
237.0
 30
0.0
 41
7.0
 42
7.0
 43
7.0
 50
270.0
  0
MTEXT
  5
42A3
330
40DD
100
AcDbEntity
  8
19_寸法線・引出線
100
AcDbMText
 10
241.5000000000046
 20
244.4999999999998
 30
0.0
 40
5.0
 41
0.0
 71
     5
 72
     1
  1
15
  7
文字
 11
0.0000000000000001
 21
1.0
 31
0.0
 73
     1
 44
1.0
1001
ACAD
1000
MTEXTBEGIN
1070
    73
1070
     1
1070
    44
1040
1.0
1070
    74
1070
     0
1000
MTEXTEND
  0
POINT
  5
42A4
330
40DD
100
AcDbEntity
  8
Defpoints
 62
     0
100
AcDbPoint
 10
195.0
 20
252.0
 30
0.0
  0
POINT
  5
42A5
330
40DD
100
AcDbEntity
  8
Defpoints
 62
     0
100
AcDbPoint
 10
195.0
 20
237.0
 30
0.0
  0
POINT
  5
42A6
330
40DD
100
AcDbEntity
  8
Defpoints
 62
     0
100
AcDbPoint
 10
245.0000000000045
 20
237.0
 30
0.0
  0
ENDBLK
  5
40DF
330
40DD
100
AcDbEntity
  8
0
100
AcDbBlockEnd
  0
BLOCK
  5
40EA
330
40E9
100
AcDbEntity
  8
0
100
AcDbBlockBegin
  2
*D42
 70
     1
 10
0.0
 20
0.0
 30
0.0
  3
*D42
  1

  0
LINE
  5
42A7
330
40E9
100
AcDbEntity
  8
19_寸法線・引出線
100
AcDbLine
 10
196.5
 20
237.0
 30
0.0
 11
245.0000000000048
 21
237.0
 31
0.0
  0
LINE
  5
42A8
330
40E9
100
AcDbEntity
  8
19_寸法線・引出線
100
AcDbLine
 10
196.5
 20
227.0
 30
0.0
 11
245.0000000000048
 21
227.0
 31
0.0
  0
LINE
  5
42A9
330
40E9
100
AcDbEntity
  8
19_寸法線・引出線
100
AcDbLine
 10
245.0000000000048
 20
237.0
 30
0.0
 11
245.0000000000048
 21
227.0
 31
0.0
  0
INSERT
  5
42AA
330
40E9
100
AcDbEntity
  8
19_寸法線・引出線
100
AcDbBlockReference
  2
_DotSmall
 10
245.0000000000048
 20
237.0
 30
0.0
 41
7.0
 42
7.0
 43
7.0
 50
90.0
  0
INSERT
  5
42AB
330
40E9
100
AcDbEntity
  8
19_寸法線・引出線
100
AcDbBlockReference
  2
_DotSmall
 10
245.0000000000048
 20
227.0
 30
0.0
 41
7.0
 42
7.0
 43
7.0
 50
270.0
  0
MTEXT
  5
42AC
330
40E9
100
AcDbEntity
  8
19_寸法線・引出線
100
AcDbMText
 10
241.5000000000048
 20
231.9999999999998
 30
0.0
 40
5.0
 41
0.0
 71
     5
 72
     1
  1
10
  7
文字
 11
0.0000000000000001
 21
1.0
 31
0.0
 73
     1
 44
1.0
1001
ACAD
1000
MTEXTBEGIN
1070
    73
1070
     1
1070
    44
1040
1.0
1070
    74
1070
     0
1000
MTEXTEND
  0
POINT
  5
42AD
330
40E9
100
AcDbEntity
  8
Defpoints
 62
     0
100
AcDbPoint
 10
195.0
 20
237.0
 30
0.0
  0
POINT
  5
42AE
330
40E9
100
AcDbEntity
  8
Defpoints
 62
     0
100
AcDbPoint
 10
195.0
 20
227.0
 30
0.0
  0
POINT
  5
42AF
330
40E9
100
AcDbEntity
  8
Defpoints
 62
     0
100
AcDbPoint
 10
245.0000000000048
 20
227.0
 30
0.0
  0
ENDBLK
  5
40EB
330
40E9
100
AcDbEntity
  8
0
100
AcDbBlockEnd
  0
BLOCK
  5
40F6
330
40F5
100
AcDbEntity
  8
0
100
AcDbBlockBegin
  2
*D43
 70
     1
 10
0.0
 20
0.0
 30
0.0
  3
*D43
  1

  0
LINE
  5
42B0
330
40F5
100
AcDbEntity
  8
19_寸法線・引出線
100
AcDbLine
 10
196.5
 20
227.0
 30
0.0
 11
245.000000000005
 21
227.0
 31
0.0
  0
LINE
  5
42B1
330
40F5
100
AcDbEntity
  8
19_寸法線・引出線
100
AcDbLine
 10
196.5
 20
212.0
 30
0.0
 11
245.000000000005
 21
212.0
 31
0.0
  0
LINE
  5
42B2
330
40F5
100
AcDbEntity
  8
19_寸法線・引出線
100
AcDbLine
 10
245.000000000005
 20
227.0
 30
0.0
 11
245.000000000005
 21
212.0
 31
0.0
  0
INSERT
  5
42B3
330
40F5
100
AcDbEntity
  8
19_寸法線・引出線
100
AcDbBlockReference
  2
_DotSmall
 10
245.000000000005
 20
227.0
 30
0.0
 41
7.0
 42
7.0
 43
7.0
 50
90.0
  0
INSERT
  5
42B4
330
40F5
100
AcDbEntity
  8
19_寸法線・引出線
100
AcDbBlockReference
  2
_DotSmall
 10
245.000000000005
 20
212.0
 30
0.0
 41
7.0
 42
7.0
 43
7.0
 50
270.0
  0
MTEXT
  5
42B5
330
40F5
100
AcDbEntity
  8
19_寸法線・引出線
100
AcDbMText
 10
241.500000000005
 20
219.4999999999998
 30
0.0
 40
5.0
 41
0.0
 71
     5
 72
     1
  1
15
  7
文字
 11
0.0000000000000001
 21
1.0
 31
0.0
 73
     1
 44
1.0
1001
ACAD
1000
MTEXTBEGIN
1070
    73
1070
     1
1070
    44
1040
1.0
1070
    74
1070
     0
1000
MTEXTEND
  0
POINT
  5
42B6
330
40F5
100
AcDbEntity
  8
Defpoints
 62
     0
100
AcDbPoint
 10
195.0
 20
227.0
 30
0.0
  0
POINT
  5
42B7
330
40F5
100
AcDbEntity
  8
Defpoints
 62
     0
100
AcDbPoint
 10
195.0
 20
212.0
 30
0.0
  0
POINT
  5
42B8
330
40F5
100
AcDbEntity
  8
Defpoints
 62
     0
100
AcDbPoint
 10
245.000000000005
 20
212.0
 30
0.0
  0
ENDBLK
  5
40F7
330
40F5
100
AcDbEntity
  8
0
100
AcDbBlockEnd
  0
BLOCK
  5
4102
330
4101
100
AcDbEntity
  8
0
100
AcDbBlockBegin
  2
*D44
 70
     1
 10
0.0
 20
0.0
 30
0.0
  3
*D44
  1

  0
LINE
  5
42B9
330
4101
100
AcDbEntity
  8
19_寸法線・引出線
100
AcDbLine
 10
196.5
 20
212.0
 30
0.0
 11
245.0000000000052
 21
212.0
 31
0.0
  0
LINE
  5
42BA
330
4101
100
AcDbEntity
  8
19_寸法線・引出線
100
AcDbLine
 10
196.5
 20
202.0
 30
0.0
 11
245.0000000000052
 21
202.0
 31
0.0
  0
LINE
  5
42BB
330
4101
100
AcDbEntity
  8
19_寸法線・引出線
100
AcDbLine
 10
245.0000000000052
 20
212.0
 30
0.0
 11
245.0000000000052
 21
202.0
 31
0.0
  0
INSERT
  5
42BC
330
4101
100
AcDbEntity
  8
19_寸法線・引出線
100
AcDbBlockReference
  2
_DotSmall
 10
245.0000000000052
 20
212.0
 30
0.0
 41
7.0
 42
7.0
 43
7.0
 50
90.0
  0
INSERT
  5
42BD
330
4101
100
AcDbEntity
  8
19_寸法線・引出線
100
AcDbBlockReference
  2
_DotSmall
 10
245.0000000000052
 20
202.0
 30
0.0
 41
7.0
 42
7.0
 43
7.0
 50
270.0
  0
MTEXT
  5
42BE
330
4101
100
AcDbEntity
  8
19_寸法線・引出線
100
AcDbMText
 10
241.5000000000052
 20
206.9999999999998
 30
0.0
 40
5.0
 41
0.0
 71
     5
 72
     1
  1
10
  7
文字
 11
0.0000000000000001
 21
1.0
 31
0.0
 73
     1
 44
1.0
1001
ACAD
1000
MTEXTBEGIN
1070
    73
1070
     1
1070
    44
1040
1.0
1070
    74
1070
     0
1000
MTEXTEND
  0
POINT
  5
42BF
330
4101
100
AcDbEntity
  8
Defpoints
 62
     0
100
AcDbPoint
 10
195.0
 20
212.0
 30
0.0
  0
POINT
  5
42C0
330
4101
100
AcDbEntity
  8
Defpoints
 62
     0
100
AcDbPoint
 10
195.0
 20
202.0
 30
0.0
  0
POINT
  5
42C1
330
4101
100
AcDbEntity
  8
Defpoints
 62
     0
100
AcDbPoint
 10
245.0000000000052
 20
202.0
 30
0.0
  0
ENDBLK
  5
4103
330
4101
100
AcDbEntity
  8
0
100
AcDbBlockEnd
  0
BLOCK
  5
410E
330
410D
100
AcDbEntity
  8
0
100
AcDbBlockBegin
  2
*D45
 70
     1
 10
0.0
 20
0.0
 30
0.0
  3
*D45
  1

  0
LINE
  5
42C2
330
410D
100
AcDbEntity
  8
19_寸法線・引出線
100
AcDbLine
 10
196.5
 20
202.0
 30
0.0
 11
245.0000000000055
 21
202.0
 31
0.0
  0
LINE
  5
42C3
330
410D
100
AcDbEntity
  8
19_寸法線・引出線
100
AcDbLine
 10
196.5
 20
186.9999999999999
 30
0.0
 11
245.0000000000055
 21
186.9999999999999
 31
0.0
  0
LINE
  5
42C4
330
410D
100
AcDbEntity
  8
19_寸法線・引出線
100
AcDbLine
 10
245.0000000000055
 20
202.0
 30
0.0
 11
245.0000000000055
 21
186.9999999999999
 31
0.0
  0
INSERT
  5
42C5
330
410D
100
AcDbEntity
  8
19_寸法線・引出線
100
AcDbBlockReference
  2
_DotSmall
 10
245.0000000000055
 20
202.0
 30
0.0
 41
7.0
 42
7.0
 43
7.0
 50
90.0
  0
INSERT
  5
42C6
330
410D
100
AcDbEntity
  8
19_寸法線・引出線
100
AcDbBlockReference
  2
_DotSmall
 10
245.0000000000055
 20
186.9999999999999
 30
0.0
 41
7.0
 42
7.0
 43
7.0
 50
270.0
  0
MTEXT
  5
42C7
330
410D
100
AcDbEntity
  8
19_寸法線・引出線
100
AcDbMText
 10
241.5000000000055
 20
194.4999999999998
 30
0.0
 40
5.0
 41
0.0
 71
     5
 72
     1
  1
15
  7
文字
 11
0.0000000000000001
 21
1.0
 31
0.0
 73
     1
 44
1.0
1001
ACAD
1000
MTEXTBEGIN
1070
    73
1070
     1
1070
    44
1040
1.0
1070
    74
1070
     0
1000
MTEXTEND
  0
POINT
  5
42C8
330
410D
100
AcDbEntity
  8
Defpoints
 62
     0
100
AcDbPoint
 10
195.0
 20
202.0
 30
0.0
  0
POINT
  5
42C9
330
410D
100
AcDbEntity
  8
Defpoints
 62
     0
100
AcDbPoint
 10
195.0
 20
186.9999999999999
 30
0.0
  0
POINT
  5
42CA
330
410D
100
AcDbEntity
  8
Defpoints
 62
     0
100
AcDbPoint
 10
245.0000000000055
 20
186.9999999999999
 30
0.0
  0
ENDBLK
  5
410F
330
410D
100
AcDbEntity
  8
0
100
AcDbBlockEnd
  0
BLOCK
  5
411A
330
4119
100
AcDbEntity
  8
0
100
AcDbBlockBegin
  2
*D46
 70
     1
 10
0.0
 20
0.0
 30
0.0
  3
*D46
  1

  0
LINE
  5
42CB
330
4119
100
AcDbEntity
  8
19_寸法線・引出線
100
AcDbLine
 10
196.5
 20
186.9999999999999
 30
0.0
 11
245.0000000000057
 21
186.9999999999999
 31
0.0
  0
LINE
  5
42CC
330
4119
100
AcDbEntity
  8
19_寸法線・引出線
100
AcDbLine
 10
196.5
 20
176.9999999999999
 30
0.0
 11
245.0000000000057
 21
176.9999999999999
 31
0.0
  0
LINE
  5
42CD
330
4119
100
AcDbEntity
  8
19_寸法線・引出線
100
AcDbLine
 10
245.0000000000057
 20
186.9999999999999
 30
0.0
 11
245.0000000000057
 21
176.9999999999999
 31
0.0
  0
INSERT
  5
42CE
330
4119
100
AcDbEntity
  8
19_寸法線・引出線
100
AcDbBlockReference
  2
_DotSmall
 10
245.0000000000057
 20
186.9999999999999
 30
0.0
 41
7.0
 42
7.0
 43
7.0
 50
90.0
  0
INSERT
  5
42CF
330
4119
100
AcDbEntity
  8
19_寸法線・引出線
100
AcDbBlockReference
  2
_DotSmall
 10
245.0000000000057
 20
176.9999999999999
 30
0.0
 41
7.0
 42
7.0
 43
7.0
 50
270.0
  0
MTEXT
  5
42D0
330
4119
100
AcDbEntity
  8
19_寸法線・引出線
100
AcDbMText
 10
241.5000000000057
 20
181.9999999999998
 30
0.0
 40
5.0
 41
0.0
 71
     5
 72
     1
  1
10
  7
文字
 11
0.0000000000000001
 21
1.0
 31
0.0
 73
     1
 44
1.0
1001
ACAD
1000
MTEXTBEGIN
1070
    73
1070
     1
1070
    44
1040
1.0
1070
    74
1070
     0
1000
MTEXTEND
  0
POINT
  5
42D1
330
4119
100
AcDbEntity
  8
Defpoints
 62
     0
100
AcDbPoint
 10
195.0
 20
186.9999999999999
 30
0.0
  0
POINT
  5
42D2
330
4119
100
AcDbEntity
  8
Defpoints
 62
     0
100
AcDbPoint
 10
195.0
 20
176.9999999999999
 30
0.0
  0
POINT
  5
42D3
330
4119
100
AcDbEntity
  8
Defpoints
 62
     0
100
AcDbPoint
 10
245.0000000000057
 20
176.9999999999999
 30
0.0
  0
ENDBLK
  5
411B
330
4119
100
AcDbEntity
  8
0
100
AcDbBlockEnd
  0
BLOCK
  5
4126
330
4125
100
AcDbEntity
  8
0
100
AcDbBlockBegin
  2
*D47
 70
     1
 10
0.0
 20
0.0
 30
0.0
  3
*D47
  1

  0
LINE
  5
42D4
330
4125
100
AcDbEntity
  8
19_寸法線・引出線
100
AcDbLine
 10
196.5
 20
176.9999999999999
 30
0.0
 11
245.0000000000059
 21
176.9999999999999
 31
0.0
  0
LINE
  5
42D5
330
4125
100
AcDbEntity
  8
19_寸法線・引出線
100
AcDbLine
 10
196.5
 20
161.9999999999999
 30
0.0
 11
245.0000000000059
 21
161.9999999999999
 31
0.0
  0
LINE
  5
42D6
330
4125
100
AcDbEntity
  8
19_寸法線・引出線
100
AcDbLine
 10
245.0000000000059
 20
176.9999999999999
 30
0.0
 11
245.0000000000059
 21
161.9999999999999
 31
0.0
  0
INSERT
  5
42D7
330
4125
100
AcDbEntity
  8
19_寸法線・引出線
100
AcDbBlockReference
  2
_DotSmall
 10
245.0000000000059
 20
176.9999999999999
 30
0.0
 41
7.0
 42
7.0
 43
7.0
 50
90.0
  0
INSERT
  5
42D8
330
4125
100
AcDbEntity
  8
19_寸法線・引出線
100
AcDbBlockReference
  2
_DotSmall
 10
245.0000000000059
 20
161.9999999999999
 30
0.0
 41
7.0
 42
7.0
 43
7.0
 50
270.0
  0
MTEXT
  5
42D9
330
4125
100
AcDbEntity
  8
19_寸法線・引出線
100
AcDbMText
 10
241.5000000000059
 20
169.4999999999998
 30
0.0
 40
5.0
 41
0.0
 71
     5
 72
     1
  1
15
  7
文字
 11
0.0000000000000001
 21
1.0
 31
0.0
 73
     1
 44
1.0
1001
ACAD
1000
MTEXTBEGIN
1070
    73
1070
     1
1070
    44
1040
1.0
1070
    74
1070
     0
1000
MTEXTEND
  0
POINT
  5
42DA
330
4125
100
AcDbEntity
  8
Defpoints
 62
     0
100
AcDbPoint
 10
195.0
 20
176.9999999999999
 30
0.0
  0
POINT
  5
42DB
330
4125
100
AcDbEntity
  8
Defpoints
 62
     0
100
AcDbPoint
 10
195.0
 20
161.9999999999999
 30
0.0
  0
POINT
  5
42DC
330
4125
100
AcDbEntity
  8
Defpoints
 62
     0
100
AcDbPoint
 10
245.0000000000059
 20
161.9999999999999
 30
0.0
  0
ENDBLK
  5
4127
330
4125
100
AcDbEntity
  8
0
100
AcDbBlockEnd
  0
BLOCK
  5
4132
330
4131
100
AcDbEntity
  8
0
100
AcDbBlockBegin
  2
*D48
 70
     1
 10
0.0
 20
0.0
 30
0.0
  3
*D48
  1

  0
LINE
  5
42DD
330
4131
100
AcDbEntity
  8
19_寸法線・引出線
100
AcDbLine
 10
196.5
 20
161.9999999999999
 30
0.0
 11
245.0000000000062
 21
161.9999999999999
 31
0.0
  0
LINE
  5
42DE
330
4131
100
AcDbEntity
  8
19_寸法線・引出線
100
AcDbLine
 10
196.5
 20
151.9999999999999
 30
0.0
 11
245.0000000000062
 21
151.9999999999999
 31
0.0
  0
LINE
  5
42DF
330
4131
100
AcDbEntity
  8
19_寸法線・引出線
100
AcDbLine
 10
245.0000000000062
 20
161.9999999999999
 30
0.0
 11
245.0000000000062
 21
151.9999999999999
 31
0.0
  0
INSERT
  5
42E0
330
4131
100
AcDbEntity
  8
19_寸法線・引出線
100
AcDbBlockReference
  2
_DotSmall
 10
245.0000000000062
 20
161.9999999999999
 30
0.0
 41
7.0
 42
7.0
 43
7.0
 50
90.0
  0
INSERT
  5
42E1
330
4131
100
AcDbEntity
  8
19_寸法線・引出線
100
AcDbBlockReference
  2
_DotSmall
 10
245.0000000000062
 20
151.9999999999999
 30
0.0
 41
7.0
 42
7.0
 43
7.0
 50
270.0
  0
MTEXT
  5
42E2
330
4131
100
AcDbEntity
  8
19_寸法線・引出線
100
AcDbMText
 10
241.5000000000061
 20
156.9999999999998
 30
0.0
 40
5.0
 41
0.0
 71
     5
 72
     1
  1
10
  7
文字
 11
0.0000000000000001
 21
1.0
 31
0.0
 73
     1
 44
1.0
1001
ACAD
1000
MTEXTBEGIN
1070
    73
1070
     1
1070
    44
1040
1.0
1070
    74
1070
     0
1000
MTEXTEND
  0
POINT
  5
42E3
330
4131
100
AcDbEntity
  8
Defpoints
 62
     0
100
AcDbPoint
 10
195.0
 20
161.9999999999999
 30
0.0
  0
POINT
  5
42E4
330
4131
100
AcDbEntity
  8
Defpoints
 62
     0
100
AcDbPoint
 10
195.0
 20
151.9999999999999
 30
0.0
  0
POINT
  5
42E5
330
4131
100
AcDbEntity
  8
Defpoints
 62
     0
100
AcDbPoint
 10
245.0000000000062
 20
151.9999999999999
 30
0.0
  0
ENDBLK
  5
4133
330
4131
100
AcDbEntity
  8
0
100
AcDbBlockEnd
  0
BLOCK
  5
413E
330
413D
100
AcDbEntity
  8
0
100
AcDbBlockBegin
  2
*D49
 70
     1
 10
0.0
 20
0.0
 30
0.0
  3
*D49
  1

  0
LINE
  5
42E6
330
413D
100
AcDbEntity
  8
19_寸法線・引出線
100
AcDbLine
 10
165.3606601717798
 20
296.3606601717797
 30
0.0
 11
164.2999999999999
 21
295.2999999999999
 31
0.0
  0
LINE
  5
42E7
330
413D
100
AcDbEntity
  8
19_寸法線・引出線
100
AcDbLine
 10
157.5999999999999
 20
301.9999999999999
 30
0.0
 11
164.2999999999999
 21
295.2999999999999
 31
0.0
  0
INSERT
  5
42E8
330
413D
100
AcDbEntity
  8
19_寸法線・引出線
100
AcDbBlockReference
  2
_DotSmall
 10
157.5999999999999
 20
301.9999999999999
 30
0.0
 41
7.0
 42
7.0
 43
7.0
 50
135.0000000000001
  0
INSERT
  5
42E9
330
413D
100
AcDbEntity
  8
19_寸法線・引出線
100
AcDbBlockReference
  2
_DotSmall
 10
164.2999999999999
 20
295.2999999999999
 30
0.0
 41
7.0
 42
7.0
 43
7.0
 50
315.0000000000002
  0
MTEXT
  5
42EA
330
413D
100
AcDbEntity
  8
19_寸法線・引出線
100
AcDbMText
 10
163.4248737341528
 20
301.1248737341528
 30
0.0
 40
5.0
 41
0.0
 71
     5
 72
     1
  1
9.5
  7
文字
 11
0.7071067811865492
 21
-0.707106781186546
 31
0.0
 73
     1
 44
1.0
1001
ACAD
1000
MTEXTBEGIN
1070
    73
1070
     1
1070
    44
1040
1.0
1070
    74
1070
     0
1000
MTEXTEND
  0
POINT
  5
42EB
330
413D
100
AcDbEntity
  8
Defpoints
 62
     0
100
AcDbPoint
 10
157.5999999999999
 20
301.9999999999999
 30
0.0
  0
POINT
  5
42EC
330
413D
100
AcDbEntity
  8
Defpoints
 62
     0
100
AcDbPoint
 10
164.2999999999999
 20
295.2999999999999
 30
0.0
  0
POINT
  5
42ED
330
413D
100
AcDbEntity
  8
Defpoints
 62
     0
100
AcDbPoint
 10
164.2999999999999
 20
295.2999999999999
 30
0.0
  0
ENDBLK
  5
413F
330
413D
100
AcDbEntity
  8
0
100
AcDbBlockEnd
  0
BLOCK
  5
4149
330
4148
100
AcDbEntity
  8
0
100
AcDbBlockBegin
  2
*D50
 70
     1
 10
0.0
 20
0.0
 30
0.0
  3
*D50
  1

  0
LINE
  5
42EE
330
4148
100
AcDbEntity
  8
19_寸法線・引出線
100
AcDbLine
 10
196.5
 20
312.0
 30
0.0
 11
245.0000000000035
 21
312.0
 31
0.0
  0
LINE
  5
42EF
330
4148
100
AcDbEntity
  8
19_寸法線・引出線
100
AcDbLine
 10
196.5
 20
302.0
 30
0.0
 11
245.0000000000035
 21
302.0
 31
0.0
  0
LINE
  5
42F0
330
4148
100
AcDbEntity
  8
19_寸法線・引出線
100
AcDbLine
 10
245.0000000000035
 20
312.0
 30
0.0
 11
245.0000000000035
 21
302.0
 31
0.0
  0
INSERT
  5
42F1
330
4148
100
AcDbEntity
  8
19_寸法線・引出線
100
AcDbBlockReference
  2
_DotSmall
 10
245.0000000000035
 20
312.0
 30
0.0
 41
7.0
 42
7.0
 43
7.0
 50
90.0
  0
INSERT
  5
42F2
330
4148
100
AcDbEntity
  8
19_寸法線・引出線
100
AcDbBlockReference
  2
_DotSmall
 10
245.0000000000035
 20
302.0
 30
0.0
 41
7.0
 42
7.0
 43
7.0
 50
270.0
  0
MTEXT
  5
42F3
330
4148
100
AcDbEntity
  8
19_寸法線・引出線
100
AcDbMText
 10
241.5000000000036
 20
306.9999999999999
 30
0.0
 40
5.0
 41
0.0
 71
     5
 72
     1
  1
10
  7
文字
 11
0.0000000000000001
 21
1.0
 31
0.0
 73
     1
 44
1.0
1001
ACAD
1000
MTEXTBEGIN
1070
    73
1070
     1
1070
    44
1040
1.0
1070
    74
1070
     0
1000
MTEXTEND
  0
POINT
  5
42F4
330
4148
100
AcDbEntity
  8
Defpoints
 62
     0
100
AcDbPoint
 10
195.0
 20
312.0
 30
0.0
  0
POINT
  5
42F5
330
4148
100
AcDbEntity
  8
Defpoints
 62
     0
100
AcDbPoint
 10
195.0
 20
302.0
 30
0.0
  0
POINT
  5
42F6
330
4148
100
AcDbEntity
  8
Defpoints
 62
     0
100
AcDbPoint
 10
245.0000000000035
 20
302.0
 30
0.0
  0
ENDBLK
  5
414A
330
4148
100
AcDbEntity
  8
0
100
AcDbBlockEnd
  0
BLOCK
  5
4155
330
4154
100
AcDbEntity
  8
0
100
AcDbBlockBegin
  2
*D51
 70
     1
 10
0.0
 20
0.0
 30
0.0
  3
*D51
  1

  0
LINE
  5
42F7
330
4154
100
AcDbEntity
  8
19_寸法線・引出線
100
AcDbLine
 10
196.5
 20
302.0
 30
0.0
 11
245.0000000000037
 21
302.0
 31
0.0
  0
LINE
  5
42F8
330
4154
100
AcDbEntity
  8
19_寸法線・引出線
100
AcDbLine
 10
196.5
 20
287.0
 30
0.0
 11
245.0000000000037
 21
287.0
 31
0.0
  0
LINE
  5
42F9
330
4154
100
AcDbEntity
  8
19_寸法線・引出線
100
AcDbLine
 10
245.0000000000037
 20
302.0
 30
0.0
 11
245.0000000000037
 21
287.0
 31
0.0
  0
INSERT
  5
42FA
330
4154
100
AcDbEntity
  8
19_寸法線・引出線
100
AcDbBlockReference
  2
_DotSmall
 10
245.0000000000037
 20
302.0
 30
0.0
 41
7.0
 42
7.0
 43
7.0
 50
90.0
  0
INSERT
  5
42FB
330
4154
100
AcDbEntity
  8
19_寸法線・引出線
100
AcDbBlockReference
  2
_DotSmall
 10
245.0000000000037
 20
287.0
 30
0.0
 41
7.0
 42
7.0
 43
7.0
 50
270.0
  0
MTEXT
  5
42FC
330
4154
100
AcDbEntity
  8
19_寸法線・引出線
100
AcDbMText
 10
241.5000000000037
 20
294.4999999999999
 30
0.0
 40
5.0
 41
0.0
 71
     5
 72
     1
  1
15
  7
文字
 11
0.0000000000000001
 21
1.0
 31
0.0
 73
     1
 44
1.0
1001
ACAD
1000
MTEXTBEGIN
1070
    73
1070
     1
1070
    44
1040
1.0
1070
    74
1070
     0
1000
MTEXTEND
  0
POINT
  5
42FD
330
4154
100
AcDbEntity
  8
Defpoints
 62
     0
100
AcDbPoint
 10
195.0
 20
302.0
 30
0.0
  0
POINT
  5
42FE
330
4154
100
AcDbEntity
  8
Defpoints
 62
     0
100
AcDbPoint
 10
195.0
 20
287.0
 30
0.0
  0
POINT
  5
42FF
330
4154
100
AcDbEntity
  8
Defpoints
 62
     0
100
AcDbPoint
 10
245.0000000000037
 20
287.0
 30
0.0
  0
ENDBLK
  5
4156
330
4154
100
AcDbEntity
  8
0
100
AcDbBlockEnd
  0
BLOCK
  5
417C
330
417B
100
AcDbEntity
  8
0
100
AcDbBlockBegin
  2
*D52
 70
     1
 10
0.0
 20
0.0
 30
0.0
  3
*D52
  1

  0
LINE
  5
417E
330
417B
100
AcDbEntity
  8
19_寸法線・引出線
100
AcDbLine
 10
586.5000000000001
 20
334.5000000000001
 30
0.0
 11
585.0000000000006
 21
334.5000000000001
 31
0.0
  0
LINE
  5
417F
330
417B
100
AcDbEntity
  8
19_寸法線・引出線
100
AcDbLine
 10
586.5000000000001
 20
294.5000000000001
 30
0.0
 11
585.0000000000006
 21
294.5000000000001
 31
0.0
  0
LINE
  5
4180
330
417B
100
AcDbEntity
  8
19_寸法線・引出線
100
AcDbLine
 10
585.0000000000006
 20
334.5000000000001
 30
0.0
 11
585.0000000000006
 21
294.5000000000001
 31
0.0
  0
INSERT
  5
4181
330
417B
100
AcDbEntity
  8
19_寸法線・引出線
100
AcDbBlockReference
  2
_DotSmall
 10
585.0000000000006
 20
334.5000000000001
 30
0.0
 41
7.0
 42
7.0
 43
7.0
 50
90.0
  0
INSERT
  5
4182
330
417B
100
AcDbEntity
  8
19_寸法線・引出線
100
AcDbBlockReference
  2
_DotSmall
 10
585.0000000000006
 20
294.5000000000001
 30
0.0
 41
7.0
 42
7.0
 43
7.0
 50
270.0
  0
MTEXT
  5
4183
330
417B
100
AcDbEntity
  8
19_寸法線・引出線
100
AcDbMText
 10
581.5000000000006
 20
314.4999999999999
 30
0.0
 40
5.0
 41
0.0
 71
     5
 72
     1
  1
40
  7
文字
 11
0.0000000000000001
 21
1.0
 31
0.0
 73
     1
 44
1.0
1001
ACAD
1000
MTEXTBEGIN
1070
    73
1070
     1
1070
    44
1040
1.0
1070
    74
1070
     0
1000
MTEXTEND
  0
POINT
  5
4184
330
417B
100
AcDbEntity
  8
Defpoints
 62
     0
100
AcDbPoint
 10
585.0000000000002
 20
334.5000000000001
 30
0.0
  0
POINT
  5
4185
330
417B
100
AcDbEntity
  8
Defpoints
 62
     0
100
AcDbPoint
 10
585.0000000000002
 20
294.5000000000001
 30
0.0
  0
POINT
  5
4186
330
417B
100
AcDbEntity
  8
Defpoints
 62
     0
100
AcDbPoint
 10
585.0000000000006
 20
294.5000000000001
 30
0.0
  0
ENDBLK
  5
417D
330
417B
100
AcDbEntity
  8
0
100
AcDbBlockEnd
  0
ENDSEC
  0
SECTION
  2
ENTITIES
  0
LINE
  5
5D5
330
1F
100
AcDbEntity
  8
02_図枠
100
AcDbLine
 10
40.0
 20
572.0
 30
0.0
 11
40.0
 21
22.0
 31
0.0
  0
LINE
  5
5D6
330
1F
100
AcDbEntity
  8
02_図枠
100
AcDbLine
 10
40.0
 20
22.0
 30
0.0
 11
809.9999999999999
 21
22.0
 31
0.0
  0
LINE
  5
5D7
330
1F
100
AcDbEntity
  8
02_図枠
100
AcDbLine
 10
809.9999999999999
 20
22.0
 30
0.0
 11
809.9999999999999
 21
571.9999999999998
 31
0.0
  0
LINE
  5
5D8
330
1F
100
AcDbEntity
  8
02_図枠
100
AcDbLine
 10
809.9999999999999
 20
571.9999999999998
 30
0.0
 11
40.0
 21
572.0
 31
0.0
  0
LINE
  5
5D9
330
1F
100
AcDbEntity
  8
02_図枠
100
AcDbLine
 10
424.9999999999999
 20
572.0
 30
0.0
 11
424.9999999999999
 21
582.0
 31
0.0
  0
LINE
  5
636
330
1F
100
AcDbEntity
  8
02_図枠
100
AcDbLine
 10
40.0
 20
56.99999999999999
 30
0.0
 11
809.9999999999999
 21
56.99999999999999
 31
0.0
  0
LINE
  5
638
330
1F
100
AcDbEntity
  8
02_図枠
100
AcDbLine
 10
46.99999999999999
 20
50.0
 30
0.0
 11
195.0
 21
50.0
 31
0.0
  0
LINE
  5
639
330
1F
100
AcDbEntity
  8
02_図枠
100
AcDbLine
 10
46.99999999999999
 20
42.99999999999999
 30
0.0
 11
195.0
 21
42.99999999999999
 31
0.0
  0
LINE
  5
63A
330
1F
100
AcDbEntity
  8
02_図枠
100
AcDbLine
 10
46.99999999999999
 20
36.0
 30
0.0
 11
195.0
 21
36.0
 31
0.0
  0
LINE
  5
63B
330
1F
100
AcDbEntity
  8
02_図枠
100
AcDbLine
 10
46.99999999999999
 20
29.0
 30
0.0
 11
195.0
 21
29.0
 31
0.0
  0
LINE
  5
63C
330
1F
100
AcDbEntity
  8
02_図枠
100
AcDbLine
 10
335.0
 20
56.99999999999999
 30
0.0
 11
335.0
 21
22.0
 31
0.0
  0
LINE
  5
63D
330
1F
100
AcDbEntity
  8
02_図枠
100
AcDbLine
 10
504.9999999999999
 20
56.99999999999999
 30
0.0
 11
504.9999999999999
 21
22.0
 31
0.0
  0
LINE
  5
63E
330
1F
100
AcDbEntity
  8
02_図枠
100
AcDbLine
 10
195.0
 20
56.99999999999999
 30
0.0
 11
195.0
 21
22.0
 31
0.0
  0
LINE
  5
63F
330
1F
100
AcDbEntity
  8
02_図枠
100
AcDbLine
 10
560.0
 20
50.0
 30
0.0
 11
660.0
 21
50.0
 31
0.0
  0
LINE
  5
640
330
1F
100
AcDbEntity
  8
02_図枠
100
AcDbLine
 10
645.0
 20
42.99999999999999
 30
0.0
 11
655.0
 21
42.99999999999999
 31
0.0
  0
LINE
  5
641
330
1F
100
AcDbEntity
  8
02_図枠
100
AcDbLine
 10
660.0
 20
36.0
 30
0.0
 11
809.9999999999999
 21
36.0
 31
0.0
  0
LINE
  5
642
330
1F
100
AcDbEntity
  8
02_図枠
100
AcDbLine
 10
645.0
 20
29.0
 30
0.0
 11
655.0
 21
29.0
 31
0.0
  0
LINE
  5
643
330
1F
100
AcDbEntity
  8
02_図枠
100
AcDbLine
 10
195.0
 20
39.5
 30
0.0
 11
504.9999999999999
 21
39.5
 31
0.0
  0
LINE
  5
644
330
1F
100
AcDbEntity
  8
02_図枠
100
AcDbLine
 10
560.0
 20
56.99999999999999
 30
0.0
 11
560.0
 21
22.0
 31
0.0
  0
LINE
  5
645
330
1F
100
AcDbEntity
  8
02_図枠
100
AcDbLine
 10
585.0
 20
56.99999999999999
 30
0.0
 11
585.0
 21
22.0
 31
0.0
  0
LINE
  5
646
330
1F
100
AcDbEntity
  8
02_図枠
100
AcDbLine
 10
610.0
 20
56.99999999999999
 30
0.0
 11
610.0
 21
22.0
 31
0.0
  0
LINE
  5
647
330
1F
100
AcDbEntity
  8
02_図枠
100
AcDbLine
 10
635.0
 20
56.99999999999999
 30
0.0
 11
635.0
 21
22.0
 31
0.0
  0
LINE
  5
648
330
1F
100
AcDbEntity
  8
02_図枠
100
AcDbLine
 10
660.0
 20
56.99999999999999
 30
0.0
 11
660.0
 21
22.0
 31
0.0
  0
LINE
  5
649
330
1F
100
AcDbEntity
  8
02_図枠
100
AcDbLine
 10
779.9999999999998
 20
56.99999999999999
 30
0.0
 11
779.9999999999998
 21
36.0
 31
0.0
  0
LINE
  5
64A
330
1F
100
AcDbEntity
  8
02_図枠
100
AcDbLine
 10
739.9999999999998
 20
56.99999999999999
 30
0.0
 11
739.9999999999998
 21
36.0
 31
0.0
  0
LINE
  5
64B
330
1F
100
AcDbEntity
  8
02_図枠
100
AcDbLine
 10
699.9999999999999
 20
56.99999999999999
 30
0.0
 11
699.9999999999999
 21
36.0
 31
0.0
  0
LINE
  5
64C
330
1F
100
AcDbEntity
  8
02_図枠
100
AcDbLine
 10
779.9999999999998
 20
50.0
 30
0.0
 11
809.9999999999999
 21
50.0
 31
0.0
  0
TEXT
  5
64E
330
1F
100
AcDbEntity
  8
20_文字
100
AcDbText
 10
786.9499999999999
 20
51.74999999999999
 30
0.0
 40
3.499999999999999
  1
図面番号
  7
文字
 72
     4
 11
794.9999999999999
 21
53.49999999999999
 31
0.0
100
AcDbText
  0
TEXT
  5
64F
330
1F
100
AcDbEntity
  8
01_仮想線
100
AcDbText
 10
793.6666666666665
 20
39.42857142857143
 30
0.0
 40
5.0
  1
*
 41
0.7
  7
文字
 72
     4
 11
794.9999999999999
 21
42.99999999999999
 31
0.0
100
AcDbText
  0
TEXT
  5
650
330
1F
100
AcDbEntity
  8
20_文字
100
AcDbText
 10
695.4999999999999
 20
25.5
 30
0.0
 40
7.0
  1
BXルーテス株式会社
  7
文字
 72
     4
 11
734.9999999999998
 21
29.0
 31
0.0
100
AcDbText
  0
TEXT
  5
652
330
1F
100
AcDbEntity
  8
20_文字
100
AcDbText
 10
741.9999999999999
 20
51.74999999999999
 30
0.0
 40
3.499999999999999
  1
納り図第
  7
文字
 11
741.9999999999999
 21
53.49999999999999
 31
0.0
100
AcDbText
 73
     2
  0
TEXT
  5
653
330
1F
100
AcDbEntity
  8
20_文字
100
AcDbText
 10
770.5333333333332
 20
37.75
 30
0.0
 40
3.499999999999999
  1
参照
  7
文字
 72
     2
 11
777.9999999999999
 21
39.5
 31
0.0
100
AcDbText
 73
     2
  0
TEXT
  5
655
330
1F
100
AcDbEntity
  8
20_文字
100
AcDbText
 10
770.7666666666665
 20
42.24999999999999
 30
0.0
 40
3.499999999999999
  1
号図
  7
文字
 72
     2
 11
777.9999999999999
 21
43.99999999999999
 31
0.0
100
AcDbText
 73
     2
  0
TEXT
  5
656
330
1F
100
AcDbEntity
  8
20_文字
100
AcDbText
 10
701.9999999999998
 20
51.74999999999999
 30
0.0
 40
3.499999999999999
  1
断面図第
  7
文字
 11
701.9999999999998
 21
53.49999999999999
 31
0.0
100
AcDbText
 73
     2
  0
TEXT
  5
657
330
1F
100
AcDbEntity
  8
20_文字
100
AcDbText
 10
730.5333333333331
 20
37.75
 30
0.0
 40
3.499999999999999
  1
参照
  7
文字
 72
     2
 11
737.9999999999999
 21
39.5
 31
0.0
100
AcDbText
 73
     2
  0
TEXT
  5
658
330
1F
100
AcDbEntity
  8
20_文字
100
AcDbText
 10
730.7666666666665
 20
42.24999999999999
 30
0.0
 40
3.499999999999999
  1
号図
  7
文字
 72
     2
 11
737.9999999999999
 21
43.99999999999999
 31
0.0
100
AcDbText
 73
     2
  0
TEXT
  5
659
330
1F
100
AcDbEntity
  8
20_文字
100
AcDbText
 10
662.0
 20
51.74999999999999
 30
0.0
 40
3.499999999999999
  1
姿図第
  7
文字
 11
662.0
 21
53.49999999999999
 31
0.0
100
AcDbText
 73
     2
  0
TEXT
  5
65A
330
1F
100
AcDbEntity
  8
20_文字
100
AcDbText
 10
690.5333333333332
 20
37.75
 30
0.0
 40
3.499999999999999
  1
参照
  7
文字
 72
     2
 11
697.9999999999998
 21
39.5
 31
0.0
100
AcDbText
 73
     2
  0
TEXT
  5
65B
330
1F
100
AcDbEntity
  8
20_文字
100
AcDbText
 10
690.7666666666665
 20
42.24999999999999
 30
0.0
 40
3.499999999999999
  1
号図
  7
文字
 72
     2
 11
697.9999999999998
 21
43.99999999999999
 31
0.0
100
AcDbText
 73
     2
  0
TEXT
  5
65D
330
1F
100
AcDbEntity
  8
20_文字
100
AcDbText
 10
639.5666666666667
 20
51.74999999999999
 30
0.0
 40
3.499999999999999
  1
縮　　尺
  7
文字
 72
     4
 11
647.5
 21
53.49999999999999
 31
0.0
100
AcDbText
  0
TEXT
  5
65E
330
1F
100
AcDbEntity
  8
20_文字
100
AcDbText
 10
614.5666666666667
 20
51.74999999999999
 30
0.0
 40
3.499999999999999
  1
照　　査
  7
文字
 72
     4
 11
622.5
 21
53.49999999999999
 31
0.0
100
AcDbText
  0
TEXT
  5
65F
330
1F
100
AcDbEntity
  8
20_文字
100
AcDbText
 10
589.5666666666667
 20
51.74999999999999
 30
0.0
 40
3.499999999999999
  1
作　　成
  7
文字
 72
     4
 11
597.5
 21
53.49999999999999
 31
0.0
100
AcDbText
  0
TEXT
  5
660
330
1F
100
AcDbEntity
  8
20_文字
100
AcDbText
 10
564.5249999999999
 20
51.74999999999999
 30
0.0
 40
3.499999999999999
  1
打　　合
  7
文字
 72
     4
 11
572.5
 21
53.49999999999999
 31
0.0
100
AcDbText
  0
TEXT
  5
661
330
1F
100
AcDbEntity
  8
20_文字
100
AcDbText
 10
649.0083333333333
 20
44.74999999999999
 30
0.0
 40
3.499999999999999
  1
1
 41
0.7
  7
文字
 72
     4
 11
650.0
 21
46.49999999999999
 31
0.0
100
AcDbText
  0
TEXT
  5
663
330
1F
100
AcDbEntity
  8
20_文字
100
AcDbText
 10
649.0083333333333
 20
37.75
 30
0.0
 40
3.499999999999999
  1
1
 41
0.7
  7
文字
 72
     4
 11
650.0
 21
39.5
 31
0.0
100
AcDbText
  0
TEXT
  5
664
330
1F
100
AcDbEntity
  8
20_文字
100
AcDbText
 10
638.25
 20
41.24999999999999
 30
0.0
 40
3.499999999999999
  1
A1
 41
0.7
  7
文字
 72
     4
 11
640.0
 21
42.99999999999999
 31
0.0
100
AcDbText
  0
TEXT
  5
665
330
1F
100
AcDbEntity
  8
20_文字
100
AcDbText
 10
649.0083333333333
 20
30.75
 30
0.0
 40
3.499999999999999
  1
1
 41
0.7
  7
文字
 72
     4
 11
650.0
 21
32.5
 31
0.0
100
AcDbText
  0
TEXT
  5
666
330
1F
100
AcDbEntity
  8
20_文字
100
AcDbText
 10
648.8333333333334
 20
23.75
 30
0.0
 40
3.499999999999999
  1
2
 41
0.7
  7
文字
 72
     4
 11
650.0
 21
25.5
 31
0.0
100
AcDbText
  0
TEXT
  5
667
330
1F
100
AcDbEntity
  8
20_文字
100
AcDbText
 10
637.8999999999999
 20
27.25
 30
0.0
 40
3.499999999999999
  1
A3
 41
0.7
  7
文字
 72
     4
 11
640.0
 21
29.0
 31
0.0
100
AcDbText
  0
TEXT
  5
668
330
1F
100
AcDbEntity
  8
20_文字
100
AcDbText
 10
506.9999999999999
 20
51.74999999999999
 30
0.0
 40
3.499999999999999
  1
受　領
  7
文字
 11
506.9999999999999
 21
53.49999999999999
 31
0.0
100
AcDbText
 73
     2
  0
TEXT
  5
669
330
1F
100
AcDbEntity
  8
20_文字
100
AcDbText
 10
525.8
 20
23.75
 30
0.0
 40
3.499999999999999
  1
年   月   日
  7
文字
 72
     2
 11
558.0
 21
25.5
 31
0.0
100
AcDbText
 73
     2
  0
TEXT
  5
672
330
1F
100
AcDbEntity
  8
20_文字
100
AcDbText
 10
337.0
 20
51.74999999999999
 30
0.0
 40
3.499999999999999
  1
工事件名
  7
文字
 11
337.0
 21
53.49999999999999
 31
0.0
100
AcDbText
 73
     2
  0
TEXT
  5
673
330
1F
100
AcDbEntity
  8
20_文字
100
AcDbText
 10
196.9999999999999
 20
51.74999999999999
 30
0.0
 40
3.499999999999999
  1
設計監理
  7
文字
 11
196.9999999999999
 21
53.49999999999999
 31
0.0
100
AcDbText
 73
     2
  0
TEXT
  5
674
330
1F
100
AcDbEntity
  8
20_文字
100
AcDbText
 10
196.9999999999999
 20
34.25
 30
0.0
 40
3.499999999999999
  1
施　　工
  7
文字
 11
196.9999999999999
 21
36.0
 31
0.0
100
AcDbText
 73
     2
  0
TEXT
  5
675
330
1F
100
AcDbEntity
  8
20_文字
100
AcDbText
 10
337.0
 20
34.25
 30
0.0
 40
3.499999999999999
  1
図面内容
  7
文字
 11
337.0
 21
36.0
 31
0.0
100
AcDbText
 73
     2
  0
TEXT
  5
67E
330
1F
100
AcDbEntity
  8
20_文字
100
AcDbText
 10
325.3333333333333
 20
45.74999999999999
 30
0.0
 40
5.0
  1
殿
  7
文字
 72
     2
 11
330.0
 21
48.24999999999999
 31
0.0
100
AcDbText
 73
     2
  0
TEXT
  5
67F
330
1F
100
AcDbEntity
  8
20_文字
100
AcDbText
 10
325.3333333333333
 20
28.25
 30
0.0
 40
5.0
  1
殿
  7
文字
 72
     2
 11
330.0
 21
30.75
 31
0.0
100
AcDbText
 73
     2
  0
TEXT
  5
680
330
1F
100
AcDbEntity
  8
01_仮想線
100
AcDbText
 10
220.0
 20
45.74999999999999
 30
0.0
 40
5.0
  1
※
  7
文字
 11
220.0
 21
48.24999999999999
 31
0.0
100
AcDbText
 73
     2
  0
TEXT
  5
681
330
1F
100
AcDbEntity
  8
01_仮想線
100
AcDbText
 10
220.0
 20
28.25
 30
0.0
 40
5.0
  1
※
  7
文字
 11
220.0
 21
30.75
 31
0.0
100
AcDbText
 73
     2
  0
TEXT
  5
682
330
1F
100
AcDbEntity
  8
01_仮想線
100
AcDbText
 10
360.0
 20
45.74999999999999
 30
0.0
 40
5.0
  1
※
  7
文字
 11
360.0
 21
48.24999999999999
 31
0.0
100
AcDbText
 73
     2
  0
TEXT
  5
684
330
1F
100
AcDbEntity
  8
20_文字
100
AcDbText
 10
41.86666666666666
 20
44.74999999999999
 30
0.0
 40
3.499999999999999
  1
記
  7
文字
 72
     4
 11
43.49999999999999
 21
46.49999999999999
 31
0.0
100
AcDbText
  0
TEXT
  5
685
330
1F
100
AcDbEntity
  8
20_文字
100
AcDbText
 10
41.86666666666666
 20
30.75
 30
0.0
 40
3.499999999999999
  1
事
  7
文字
 72
     4
 11
43.49999999999999
 21
32.5
 31
0.0
100
AcDbText
  0
TEXT
  5
687
330
1F
100
AcDbEntity
  8
01_仮想線
100
AcDbText
 10
48.99999999999999
 20
51.74999999999999
 30
0.0
 40
3.499999999999999
  1
※
  7
文字
 11
48.99999999999999
 21
53.49999999999999
 31
0.0
100
AcDbText
 73
     2
  0
TEXT
  5
688
330
1F
100
AcDbEntity
  8
01_仮想線
100
AcDbText
 10
48.99999999999999
 20
44.74999999999999
 30
0.0
 40
3.499999999999999
  1
※
  7
文字
 11
48.99999999999999
 21
46.49999999999999
 31
0.0
100
AcDbText
 73
     2
  0
TEXT
  5
689
330
1F
100
AcDbEntity
  8
01_仮想線
100
AcDbText
 10
48.99999999999999
 20
37.75
 30
0.0
 40
3.499999999999999
  1
※
  7
文字
 11
48.99999999999999
 21
39.5
 31
0.0
100
AcDbText
 73
     2
  0
TEXT
  5
68A
330
1F
100
AcDbEntity
  8
01_仮想線
100
AcDbText
 10
48.99999999999999
 20
30.75
 30
0.0
 40
3.499999999999999
  1
※
  7
文字
 11
48.99999999999999
 21
32.5
 31
0.0
100
AcDbText
 73
     2
  0
TEXT
  5
68B
330
1F
100
AcDbEntity
  8
01_仮想線
100
AcDbText
 10
48.99999999999999
 20
23.75
 30
0.0
 40
3.499999999999999
  1
※
  7
文字
 11
48.99999999999999
 21
25.5
 31
0.0
100
AcDbText
 73
     2
  0
TEXT
  5
68C
330
1F
100
AcDbEntity
  8
20_文字
100
AcDbText
 10
768.4523809523808
 20
17.75
 30
0.0
 40
2.5
  1
ACLT21BXRTA1BASE-A
  7
文字
 72
     2
 11
809.9999999999999
 21
19.0
 31
0.0
100
AcDbText
 73
     2
  0
LINE
  5
696
330
1F
100
AcDbEntity
  8
02_図枠
100
AcDbLine
 10
40.0
 20
314.5
 30
0.0
 11
30.0
 21
314.5
 31
0.0
  0
LINE
  5
697
330
1F
100
AcDbEntity
  8
02_図枠
100
AcDbLine
 10
809.9999999999999
 20
314.5
 30
0.0
 11
819.9999999999999
 21
314.5
 31
0.0
  0
LINE
  5
698
330
1F
100
AcDbEntity
  8
02_図枠
100
AcDbLine
 10
812.9999999999999
 20
42.99999999999999
 30
0.0
 11
829.9999999999998
 21
42.99999999999999
 31
0.0
  0
CIRCLE
  5
699
330
1F
100
AcDbEntity
  8
02_図枠
100
AcDbCircle
 10
821.4999999999999
 20
42.99999999999999
 30
0.0
 40
8.5
  0
TEXT
  5
69A
330
1F
100
AcDbEntity
  8
01_仮想線
100
AcDbText
 10
820.1666666666664
 20
42.92857142857142
 30
0.0
 40
5.0
  1
*
 41
0.7
  7
文字
 72
     4
 11
821.4999999999999
 21
46.49999999999999
 31
0.0
100
AcDbText
  0
TEXT
  5
69B
330
1F
100
AcDbEntity
  8
01_仮想線
100
AcDbText
 10
820.1666666666664
 20
35.92857142857143
 30
0.0
 40
5.0
  1
*
 41
0.7
  7
文字
 72
     4
 11
821.4999999999999
 21
39.5
 31
0.0
100
AcDbText
  0
LINE
  5
6D2
330
1F
100
AcDbEntity
  8
02_図枠
100
AcDbLine
 10
812.9999999999999
 20
62.99999999999999
 30
0.0
 11
829.9999999999998
 21
62.99999999999999
 31
0.0
  0
CIRCLE
  5
6D3
330
1F
100
AcDbEntity
  8
02_図枠
100
AcDbCircle
 10
821.4999999999999
 20
62.99999999999999
 30
0.0
 40
8.5
  0
TEXT
  5
6D4
330
1F
100
AcDbEntity
  8
01_仮想線
100
AcDbText
 10
820.1666666666664
 20
62.92857142857143
 30
0.0
 40
5.0
  1
*
 41
0.7
  7
文字
 72
     4
 11
821.4999999999999
 21
66.5
 31
0.0
100
AcDbText
  0
TEXT
  5
6D5
330
1F
100
AcDbEntity
  8
01_仮想線
100
AcDbText
 10
820.1666666666664
 20
55.92857142857142
 30
0.0
 40
5.0
  1
*
 41
0.7
  7
文字
 72
     4
 11
821.4999999999999
 21
59.49999999999999
 31
0.0
100
AcDbText
  0
LINE
  5
6D6
330
1F
100
AcDbEntity
  8
02_図枠
100
AcDbLine
 10
812.9999999999999
 20
83.0
 30
0.0
 11
829.9999999999998
 21
83.0
 31
0.0
  0
CIRCLE
  5
6D7
330
1F
100
AcDbEntity
  8
02_図枠
100
AcDbCircle
 10
821.4999999999999
 20
83.0
 30
0.0
 40
8.5
  0
TEXT
  5
6D8
330
1F
100
AcDbEntity
  8
01_仮想線
100
AcDbText
 10
820.1666666666664
 20
82.92857142857142
 30
0.0
 40
5.0
  1
*
 41
0.7
  7
文字
 72
     4
 11
821.4999999999999
 21
86.49999999999998
 31
0.0
100
AcDbText
  0
TEXT
  5
6D9
330
1F
100
AcDbEntity
  8
01_仮想線
100
AcDbText
 10
820.1666666666664
 20
75.92857142857143
 30
0.0
 40
5.0
  1
*
 41
0.7
  7
文字
 72
     4
 11
821.4999999999999
 21
79.5
 31
0.0
100
AcDbText
  0
LINE
  5
6DA
330
1F
100
AcDbEntity
  8
02_図枠
100
AcDbLine
 10
812.9999999999999
 20
103.0
 30
0.0
 11
829.9999999999998
 21
103.0
 31
0.0
  0
CIRCLE
  5
6DB
330
1F
100
AcDbEntity
  8
02_図枠
100
AcDbCircle
 10
821.4999999999999
 20
103.0
 30
0.0
 40
8.5
  0
TEXT
  5
6DC
330
1F
100
AcDbEntity
  8
01_仮想線
100
AcDbText
 10
820.1666666666664
 20
102.9285714285714
 30
0.0
 40
5.0
  1
*
 41
0.7
  7
文字
 72
     4
 11
821.4999999999999
 21
106.5
 31
0.0
100
AcDbText
  0
TEXT
  5
6DD
330
1F
100
AcDbEntity
  8
01_仮想線
100
AcDbText
 10
820.1666666666664
 20
95.92857142857141
 30
0.0
 40
5.0
  1
*
 41
0.7
  7
文字
 72
     4
 11
821.4999999999999
 21
99.49999999999999
 31
0.0
100
AcDbText
  0
LINE
  5
6DE
330
1F
100
AcDbEntity
  8
02_図枠
100
AcDbLine
 10
812.9999999999999
 20
123.0
 30
0.0
 11
829.9999999999998
 21
123.0
 31
0.0
  0
CIRCLE
  5
6DF
330
1F
100
AcDbEntity
  8
02_図枠
100
AcDbCircle
 10
821.4999999999999
 20
123.0
 30
0.0
 40
8.5
  0
TEXT
  5
6E0
330
1F
100
AcDbEntity
  8
01_仮想線
100
AcDbText
 10
820.1666666666664
 20
122.9285714285714
 30
0.0
 40
5.0
  1
*
 41
0.7
  7
文字
 72
     4
 11
821.4999999999999
 21
126.5
 31
0.0
100
AcDbText
  0
TEXT
  5
6E1
330
1F
100
AcDbEntity
  8
01_仮想線
100
AcDbText
 10
820.1666666666664
 20
115.9285714285714
 30
0.0
 40
5.0
  1
*
 41
0.7
  7
文字
 72
     4
 11
821.4999999999999
 21
119.5
 31
0.0
100
AcDbText
  0
LINE
  5
6E2
330
1F
100
AcDbEntity
  8
02_図枠
100
AcDbLine
 10
812.9999999999999
 20
143.0
 30
0.0
 11
829.9999999999998
 21
143.0
 31
0.0
  0
CIRCLE
  5
6E3
330
1F
100
AcDbEntity
  8
02_図枠
100
AcDbCircle
 10
821.4999999999999
 20
143.0
 30
0.0
 40
8.5
  0
TEXT
  5
6E4
330
1F
100
AcDbEntity
  8
01_仮想線
100
AcDbText
 10
820.1666666666664
 20
142.9285714285714
 30
0.0
 40
5.0
  1
*
 41
0.7
  7
文字
 72
     4
 11
821.4999999999999
 21
146.5
 31
0.0
100
AcDbText
  0
TEXT
  5
6E5
330
1F
100
AcDbEntity
  8
01_仮想線
100
AcDbText
 10
820.1666666666664
 20
135.9285714285714
 30
0.0
 40
5.0
  1
*
 41
0.7
  7
文字
 72
     4
 11
821.4999999999999
 21
139.5
 31
0.0
100
AcDbText
  0
LWPOLYLINE
  5
723
330
1F
100
AcDbEntity
  8
01_仮想線
100
AcDbPolyline
 90
        4
 70
     1
 43
0.0
 10
840.9999999999998
 20
0.0
 10
840.9999999999998
 20
594.0
 10
0.0
 20
594.0
 10
0.0
 20
0.0
  0
TEXT
  5
1BFC
330
1F
100
AcDbEntity
  8
20_文字
100
AcDbText
 10
360.0
 20
31.99999999999999
 30
0.0
 40
5.0
  1
施設用軽量化スチールドア OSD 〈イージーオーダータイプ〉
 41
0.7
  7
文字
 11
360.0
 21
34.49999999999999
 31
0.0
100
AcDbText
 73
     2
  0
TEXT
  5
1BFD
330
1F
100
AcDbEntity
  8
20_文字
100
AcDbText
 10
360.0
 20
24.5
 30
0.0
 40
5.0
  1
詳細図（山型ガラリ）
 41
0.7
  7
文字
 11
360.0
 21
27.0
 31
0.0
100
AcDbText
 73
     2
  0
LWPOLYLINE
  5
3EEB
330
1F
100
AcDbEntity
  8
07_扉(実線)
100
AcDbPolyline
 90
        4
 70
     0
 43
0.0
 10
155.0
 20
572.0
 10
154.9999999999999
 20
476.9999999999998
 10
155.9999999999999
 20
476.9999999999998
 10
156.0
 20
572.0
  0
LWPOLYLINE
  5
3EEC
330
1F
100
AcDbEntity
  8
07_扉(実線)
100
AcDbPolyline
 90
        4
 70
     0
 43
0.0
 10
194.0
 20
572.0
 10
193.9999999999999
 20
476.9999999999998
 10
194.9999999999999
 20
476.9999999999998
 10
195.0
 20
572.0
  0
LWPOLYLINE
  5
3EED
330
1F
100
AcDbEntity
  8
07_扉(実線)
100
AcDbPolyline
 90
        4
 70
     0
 43
0.0
 10
155.0
 20
57.0
 10
154.9999999999999
 20
158.9999999999999
 10
155.9999999999999
 20
158.9999999999999
 10
156.0
 20
57.0
  0
LWPOLYLINE
  5
3EEE
330
1F
100
AcDbEntity
  8
07_扉(実線)
100
AcDbPolyline
 90
        4
 70
     0
 43
0.0
 10
194.0
 20
57.0
 10
193.9999999999999
 20
158.9999999999999
 10
194.9999999999999
 20
158.9999999999999
 10
195.0
 20
57.0
  0
LINE
  5
3EEF
330
1F
100
AcDbEntity
  8
07_扉(実線)
100
AcDbLine
 10
154.9999999999999
 20
476.9999999999998
 30
0.0
 11
154.9999999999999
 21
158.9999999999999
 31
0.0
  0
LINE
  5
3EF0
330
1F
100
AcDbEntity
  8
07_扉(実線)
100
AcDbLine
 10
194.9999999999999
 20
158.9999999999999
 30
0.0
 11
194.9999999999999
 21
476.9999999999998
 31
0.0
  0
LWPOLYLINE
  5
3EF1
330
1F
100
AcDbEntity
  8
07_扉(実線)
100
AcDbPolyline
 90
        4
 70
     0
 43
0.0
 10
360.0
 20
294.5
 10
460.0
 20
294.5
 10
460.0
 20
295.5
 10
360.0
 20
295.5
  0
LWPOLYLINE
  5
3EF2
330
1F
100
AcDbEntity
  8
07_扉(実線)
100
AcDbPolyline
 90
        4
 70
     0
 43
0.0
 10
360.0
 20
333.5
 10
460.0
 20
333.5
 10
460.0
 20
334.5
 10
360.0
 20
334.5
  0
LINE
  5
3EF3
102
{ACAD_REACTORS
330
3F0A
102
}
330
1F
100
AcDbEntity
  8
07_扉(実線)
100
AcDbLine
 10
460.0
 20
294.5
 30
0.0
 11
709.9999999999998
 21
294.5
 31
0.0
  0
LINE
  5
3EF4
102
{ACAD_REACTORS
330
3F0A
102
}
330
1F
100
AcDbEntity
  8
07_扉(実線)
100
AcDbLine
 10
709.9999999999998
 20
334.5
 30
0.0
 11
460.0
 21
334.5
 31
0.0
  0
LWPOLYLINE
  5
3EF5
330
1F
100
AcDbEntity
  8
07_扉(実線)
100
AcDbPolyline
 90
        4
 70
     0
 43
0.0
 10
809.9999999999999
 20
294.5
 10
709.9999999999998
 20
294.5
 10
709.9999999999998
 20
295.5
 10
809.9999999999999
 20
295.5
  0
LWPOLYLINE
  5
3EF6
330
1F
100
AcDbEntity
  8
07_扉(実線)
100
AcDbPolyline
 90
        4
 70
     0
 43
0.0
 10
809.9999999999999
 20
333.5
 10
709.9999999999998
 20
333.5
 10
709.9999999999998
 20
334.5
 10
809.9999999999999
 20
334.5
  0
LWPOLYLINE
  5
3EF7
330
1F
100
AcDbEntity
  8
20_文字
100
AcDbPolyline
 90
        4
 70
     1
 43
0.0
 10
555.0
 20
434.4999999999999
 10
615.0
 20
434.4999999999999
 10
615.0
 20
419.5
 10
555.0
 20
419.5
  0
TEXT
  5
3EF8
330
1F
100
AcDbEntity
  8
20_文字
100
AcDbText
 10
576.6699999999998
 20
423.5
 30
0.0
 40
7.0
  1
内部側
 41
0.7
  7
文字
 72
     4
 11
584.9999999999998
 21
427.0
 31
0.0
100
AcDbText
  0
LWPOLYLINE
  5
3EF9
330
1F
100
AcDbEntity
  8
20_文字
100
AcDbPolyline
 90
        4
 70
     1
 43
0.0
 10
555.0
 20
209.5
 10
615.0
 20
209.5
 10
615.0
 20
194.5
 10
555.0
 20
194.5
  0
TEXT
  5
3EFA
330
1F
100
AcDbEntity
  8
20_文字
100
AcDbText
 10
576.8333333333332
 20
198.5
 30
0.0
 40
7.0
  1
外部側
 41
0.7
  7
文字
 72
     4
 11
584.9999999999998
 21
202.0
 31
0.0
100
AcDbText
  0
LWPOLYLINE
  5
3EFB
330
1F
100
AcDbEntity
  8
20_文字
100
AcDbPolyline
 90
        4
 70
     1
 43
0.0
 10
280.0000000000006
 20
284.5000000000001
 10
280.0000000000006
 20
344.5000000000001
 10
295.0000000000006
 20
344.5000000000001
 10
295.0000000000006
 20
284.5000000000001
  0
TEXT
  5
3EFC
330
1F
100
AcDbEntity
  8
20_文字
100
AcDbText
 10
291.0000000000006
 20
306.1700000000001
 30
0.0
 40
7.0
  1
内部側
 50
90.0
 41
0.7
  7
文字
 72
     4
 11
287.5000000000006
 21
314.5000000000001
 31
0.0
100
AcDbText
  0
LWPOLYLINE
  5
3EFD
330
1F
100
AcDbEntity
  8
20_文字
100
AcDbPolyline
 90
        4
 70
     1
 43
0.0
 10
55.0
 20
284.5000000000001
 10
55.0
 20
344.5000000000001
 10
70.0
 20
344.5000000000001
 10
70.0
 20
284.5000000000001
  0
TEXT
  5
3EFE
330
1F
100
AcDbEntity
  8
20_文字
100
AcDbText
 10
66.0
 20
306.3333333333334
 30
0.0
 40
7.0
  1
外部側
 50
90.0
 41
0.7
  7
文字
 72
     4
 11
62.5
 21
314.5000000000001
 31
0.0
100
AcDbText
  0
LWPOLYLINE
  5
3EFF
330
1F
100
AcDbEntity
  8
07_扉(実線)
100
AcDbPolyline
 90
        4
 70
     1
 43
0.0
 10
714.9999999999998
 20
333.5
 10
455.0
 20
333.5
 10
455.0
 20
295.5
 10
714.9999999999998
 20
295.5
  0
LINE
  5
3F00
330
1F
100
AcDbEntity
  8
07_扉(実線)
100
AcDbLine
 10
454.9999999999998
 20
314.5
 30
0.0
 11
714.9999999999997
 21
314.5
 31
0.0
  0
LINE
  5
3F01
330
1F
100
AcDbEntity
  8
08_扉(破線)
100
AcDbLine
 10
455.0
 20
331.9
 30
0.0
 11
714.9999999999998
 21
331.9
 31
0.0
  0
LINE
  5
3F02
330
1F
100
AcDbEntity
  8
08_扉(破線)
100
AcDbLine
 10
455.0
 20
297.1
 30
0.0
 11
714.9999999999998
 21
297.1
 31
0.0
  0
LWPOLYLINE
  5
3F03
330
1F
100
AcDbEntity
  8
07_扉(実線)
100
AcDbPolyline
 90
       10
 70
     1
 43
0.0
 10
729.9999999999998
 20
295.5
 10
716.5999999999999
 20
295.5
 42
-0.4142135623730951
 10
714.9999999999998
 20
297.1
 10
714.9999999999998
 20
331.9
 42
-0.4142135623730951
 10
716.5999999999999
 20
333.5
 10
729.9999999999998
 20
333.5
 10
729.9999999999998
 20
331.9
 10
716.5999999999999
 20
331.9
 10
716.5999999999999
 20
297.1
 10
729.9999999999998
 20
297.1
  0
LWPOLYLINE
  5
3F04
330
1F
100
AcDbEntity
  8
07_扉(実線)
100
AcDbPolyline
 90
       10
 70
     1
 43
0.0
 10
440.0000000000001
 20
295.5
 10
453.4
 20
295.5
 42
0.4142135623730951
 10
455.0000000000001
 20
297.1
 10
455.0000000000001
 20
331.9
 42
0.4142135623730951
 10
453.4
 20
333.5
 10
440.0000000000001
 20
333.5
 10
440.0000000000001
 20
331.9
 10
453.4
 20
331.9
 10
453.4
 20
297.1
 10
440.0000000000001
 20
297.1
  0
DIMENSION
  5
3F05
330
1F
100
AcDbEntity
  8
19_寸法線・引出線
100
AcDbDimension
  2
*D7
 10
460.0
 20
404.4999999999999
 30
0.0
 11
457.5000000000001
 21
408.0
 31
0.0
 70
    32
 71
     5
 42
4.999999999999886
  3
寸法(1-1)
100
AcDbAlignedDimension
 13
455.0000000000001
 23
334.5
 33
0.0
 14
460.0
 24
334.5
 34
0.0
100
AcDbRotatedDimension
  0
DIMENSION
  5
3F06
330
1F
100
AcDbEntity
  8
19_寸法線・引出線
100
AcDbDimension
  2
*D8
 10
709.9999999999998
 20
404.4999999999999
 30
0.0
 11
585.0
 21
408.0
 31
0.0
 70
    32
  1
GW
 71
     5
 42
249.9999999999999
  3
寸法(1-1)
100
AcDbAlignedDimension
 13
460.0
 23
334.5
 33
0.0
 14
709.9999999999998
 24
334.5
 34
0.0
100
AcDbRotatedDimension
  0
DIMENSION
  5
3F07
330
1F
100
AcDbEntity
  8
19_寸法線・引出線
100
AcDbDimension
  2
*D9
 10
714.9999999999998
 20
404.4999999999999
 30
0.0
 11
712.4999999999999
 21
408.0
 31
0.0
 70
    32
 71
     5
 42
5.0
  3
寸法(1-1)
100
AcDbAlignedDimension
 13
709.9999999999998
 23
334.5
 33
0.0
 14
714.9999999999998
 24
334.5
 34
0.0
100
AcDbRotatedDimension
  0
DIMENSION
  5
3F08
102
{ACAD_XDICTIONARY
360
3F09
102
}
102
{ACAD_REACTORS
330
3F0A
102
}
330
1F
100
AcDbEntity
  8
19_寸法線・引出線
100
AcDbDimension
  2
*D52
 10
585.0000000000006
 20
294.5000000000001
 30
0.0
 11
581.5000000000006
 21
314.4999999999999
 31
0.0
 70
    32
 71
     5
 42
40.0
  3
寸法(1-1)
100
AcDbAlignedDimension
 13
585.0
 23
334.5
 33
0.0
 14
585.0
 24
294.5
 34
0.0
 50
90.0
100
AcDbRotatedDimension
  0
LWPOLYLINE
  5
3F0B
330
1F
100
AcDbEntity
  8
07_扉(実線)
100
AcDbPolyline
 90
       10
 70
     1
 43
0.0
 10
155.9999999999999
 20
479.9999999999998
 10
155.9999999999999
 20
493.3999999999998
 42
-0.4142135623730951
 10
157.5999999999999
 20
494.9999999999999
 10
192.3999999999999
 20
494.9999999999999
 42
-0.4142135623730951
 10
193.9999999999999
 20
493.3999999999998
 10
193.9999999999999
 20
479.9999999999998
 10
192.3999999999999
 20
479.9999999999998
 10
192.3999999999999
 20
493.3999999999998
 10
157.5999999999999
 20
493.3999999999998
 10
157.5999999999999
 20
479.9999999999998
  0
LWPOLYLINE
  5
3F0C
330
1F
100
AcDbEntity
  8
07_扉(実線)
100
AcDbPolyline
 90
       10
 70
     1
 43
0.0
 10
155.9999999999999
 20
136.9999999999999
 10
155.9999999999999
 20
150.3999999999998
 42
-0.4142135623730951
 10
157.5999999999999
 20
151.9999999999999
 10
192.3999999999998
 20
151.9999999999999
 42
-0.4142135623730951
 10
193.9999999999999
 20
150.3999999999998
 10
193.9999999999999
 20
136.9999999999999
 10
192.3999999999998
 20
136.9999999999999
 10
192.3999999999998
 20
150.3999999999998
 10
157.5999999999999
 20
150.3999999999998
 10
157.5999999999999
 20
136.9999999999999
  0
DIMENSION
  5
3F0D
330
1F
100
AcDbEntity
  8
19_寸法線・引出線
100
AcDbDimension
  2
*D10
 10
194.9999999999999
 20
314.5
 30
0.0
 11
174.9999999999999
 21
318.0
 31
0.0
 70
    32
 71
     5
 42
40.0
  3
寸法(1-1)
100
AcDbAlignedDimension
 13
154.9999999999999
 23
314.5000000000001
 33
0.0
 14
194.9999999999999
 24
314.5000000000001
 34
0.0
100
AcDbRotatedDimension
  0
TEXT
  5
3F0E
330
1F
100
AcDbEntity
  8
20_文字
100
AcDbText
 10
751.0999999999999
 20
64.5
 30
0.0
 40
5.0
  1
※ガラリ開口率=38.0%%%
 41
0.7
  7
文字
 72
     2
 11
799.9999999999999
 21
67.0
 31
0.0
100
AcDbText
 73
     2
  0
LWPOLYLINE
  5
3F0F
330
1F
100
AcDbEntity
  8
07_扉(実線)
100
AcDbPolyline
 90
       11
 70
     1
 43
0.0
 10
155.9999999999999
 20
451.9999999999998
 10
155.9999999999999
 20
461.9999999999999
 10
173.8686291501014
 20
479.8686291501013
 42
-0.4142135623730951
 10
176.1313708498983
 20
479.8686291501013
 10
193.9999999999999
 20
461.9999999999999
 10
193.9999999999999
 20
451.9999999999998
 10
192.3999999999999
 20
451.9999999999998
 10
192.3999999999999
 20
461.3372583002028
 10
174.9999999999999
 20
478.7372583002029
 10
157.5999999999999
 20
461.3372583002028
 10
157.5999999999999
 20
451.9999999999998
  0
LWPOLYLINE
  5
3F10
330
1F
100
AcDbEntity
  8
07_扉(実線)
100
AcDbPolyline
 90
       11
 70
     1
 43
0.0
 10
155.9999999999999
 20
426.9999999999998
 10
155.9999999999999
 20
436.9999999999999
 10
173.8686291501014
 20
454.8686291501013
 42
-0.4142135623730951
 10
176.1313708498983
 20
454.8686291501013
 10
193.9999999999999
 20
436.9999999999999
 10
193.9999999999999
 20
426.9999999999998
 10
192.3999999999999
 20
426.9999999999998
 10
192.3999999999999
 20
436.3372583002028
 10
174.9999999999999
 20
453.7372583002029
 10
157.5999999999999
 20
436.3372583002028
 10
157.5999999999999
 20
426.9999999999998
  0
LWPOLYLINE
  5
3F11
330
1F
100
AcDbEntity
  8
07_扉(実線)
100
AcDbPolyline
 90
       11
 70
     1
 43
0.0
 10
155.9999999999999
 20
401.9999999999998
 10
155.9999999999999
 20
411.9999999999999
 10
173.8686291501014
 20
429.8686291501013
 42
-0.4142135623730951
 10
176.1313708498983
 20
429.8686291501013
 10
193.9999999999999
 20
411.9999999999999
 10
193.9999999999999
 20
401.9999999999998
 10
192.3999999999999
 20
401.9999999999998
 10
192.3999999999999
 20
411.3372583002028
 10
174.9999999999999
 20
428.7372583002029
 10
157.5999999999999
 20
411.3372583002028
 10
157.5999999999999
 20
401.9999999999998
  0
LWPOLYLINE
  5
3F12
330
1F
100
AcDbEntity
  8
07_扉(実線)
100
AcDbPolyline
 90
       11
 70
     1
 43
0.0
 10
155.9999999999999
 20
376.9999999999999
 10
155.9999999999999
 20
386.9999999999999
 10
173.8686291501014
 20
404.8686291501013
 42
-0.4142135623730951
 10
176.1313708498983
 20
404.8686291501013
 10
193.9999999999999
 20
386.9999999999999
 10
193.9999999999999
 20
376.9999999999999
 10
192.3999999999999
 20
376.9999999999999
 10
192.3999999999999
 20
386.3372583002029
 10
174.9999999999999
 20
403.7372583002029
 10
157.5999999999999
 20
386.3372583002029
 10
157.5999999999999
 20
376.9999999999999
  0
LWPOLYLINE
  5
3F13
330
1F
100
AcDbEntity
  8
07_扉(実線)
100
AcDbPolyline
 90
       11
 70
     1
 43
0.0
 10
155.9999999999999
 20
351.9999999999999
 10
155.9999999999999
 20
361.9999999999999
 10
173.8686291501014
 20
379.8686291501014
 42
-0.4142135623730951
 10
176.1313708498983
 20
379.8686291501014
 10
193.9999999999999
 20
361.9999999999999
 10
193.9999999999999
 20
351.9999999999999
 10
192.3999999999999
 20
351.9999999999999
 10
192.3999999999999
 20
361.3372583002029
 10
174.9999999999999
 20
378.7372583002029
 10
157.5999999999999
 20
361.3372583002029
 10
157.5999999999999
 20
351.9999999999999
  0
LWPOLYLINE
  5
3F14
330
1F
100
AcDbEntity
  8
07_扉(実線)
100
AcDbPolyline
 90
       11
 70
     1
 43
0.0
 10
155.9999999999999
 20
326.9999999999999
 10
155.9999999999999
 20
336.9999999999999
 10
173.8686291501014
 20
354.8686291501014
 42
-0.4142135623730951
 10
176.1313708498983
 20
354.8686291501014
 10
193.9999999999999
 20
336.9999999999999
 10
193.9999999999999
 20
326.9999999999999
 10
192.3999999999999
 20
326.9999999999999
 10
192.3999999999999
 20
336.3372583002029
 10
174.9999999999999
 20
353.7372583002029
 10
157.5999999999999
 20
336.3372583002029
 10
157.5999999999999
 20
326.9999999999999
  0
LWPOLYLINE
  5
3F15
330
1F
100
AcDbEntity
  8
07_扉(実線)
100
AcDbPolyline
 90
       11
 70
     1
 43
0.0
 10
155.9999999999999
 20
301.9999999999999
 10
155.9999999999999
 20
311.9999999999999
 10
173.8686291501014
 20
329.8686291501014
 42
-0.4142135623730951
 10
176.1313708498983
 20
329.8686291501014
 10
193.9999999999999
 20
311.9999999999999
 10
193.9999999999999
 20
301.9999999999999
 10
192.3999999999999
 20
301.9999999999999
 10
192.3999999999999
 20
311.3372583002029
 10
174.9999999999999
 20
328.7372583002029
 10
157.5999999999999
 20
311.3372583002029
 10
157.5999999999999
 20
301.9999999999999
  0
LWPOLYLINE
  5
3F16
330
1F
100
AcDbEntity
  8
07_扉(実線)
100
AcDbPolyline
 90
       11
 70
     1
 43
0.0
 10
155.9999999999999
 20
276.9999999999999
 10
155.9999999999999
 20
286.9999999999999
 10
173.8686291501014
 20
304.8686291501014
 42
-0.4142135623730951
 10
176.1313708498983
 20
304.8686291501014
 10
193.9999999999999
 20
286.9999999999999
 10
193.9999999999999
 20
276.9999999999999
 10
192.3999999999999
 20
276.9999999999999
 10
192.3999999999999
 20
286.3372583002029
 10
174.9999999999999
 20
303.7372583002029
 10
157.5999999999999
 20
286.3372583002029
 10
157.5999999999999
 20
276.9999999999999
  0
LWPOLYLINE
  5
3F17
330
1F
100
AcDbEntity
  8
07_扉(実線)
100
AcDbPolyline
 90
       11
 70
     1
 43
0.0
 10
155.9999999999999
 20
251.9999999999999
 10
155.9999999999999
 20
261.9999999999999
 10
173.8686291501014
 20
279.8686291501014
 42
-0.4142135623730951
 10
176.1313708498983
 20
279.8686291501014
 10
193.9999999999999
 20
261.9999999999999
 10
193.9999999999999
 20
251.9999999999999
 10
192.3999999999999
 20
251.9999999999999
 10
192.3999999999999
 20
261.3372583002029
 10
174.9999999999999
 20
278.7372583002029
 10
157.5999999999999
 20
261.3372583002029
 10
157.5999999999999
 20
251.9999999999999
  0
LWPOLYLINE
  5
3F18
330
1F
100
AcDbEntity
  8
07_扉(実線)
100
AcDbPolyline
 90
       11
 70
     1
 43
0.0
 10
155.9999999999999
 20
226.9999999999999
 10
155.9999999999999
 20
236.9999999999999
 10
173.8686291501014
 20
254.8686291501014
 42
-0.4142135623730951
 10
176.1313708498983
 20
254.8686291501014
 10
193.9999999999999
 20
236.9999999999999
 10
193.9999999999999
 20
226.9999999999999
 10
192.3999999999999
 20
226.9999999999999
 10
192.3999999999999
 20
236.3372583002029
 10
174.9999999999999
 20
253.7372583002029
 10
157.5999999999999
 20
236.3372583002029
 10
157.5999999999999
 20
226.9999999999999
  0
LWPOLYLINE
  5
3F19
330
1F
100
AcDbEntity
  8
07_扉(実線)
100
AcDbPolyline
 90
       11
 70
     1
 43
0.0
 10
155.9999999999999
 20
201.9999999999999
 10
155.9999999999999
 20
211.9999999999999
 10
173.8686291501014
 20
229.8686291501014
 42
-0.4142135623730951
 10
176.1313708498983
 20
229.8686291501014
 10
193.9999999999999
 20
211.9999999999999
 10
193.9999999999999
 20
201.9999999999999
 10
192.3999999999999
 20
201.9999999999999
 10
192.3999999999999
 20
211.3372583002029
 10
174.9999999999999
 20
228.7372583002029
 10
157.5999999999999
 20
211.3372583002029
 10
157.5999999999999
 20
201.9999999999999
  0
LWPOLYLINE
  5
3F1A
330
1F
100
AcDbEntity
  8
07_扉(実線)
100
AcDbPolyline
 90
       11
 70
     1
 43
0.0
 10
155.9999999999999
 20
176.9999999999999
 10
155.9999999999999
 20
186.9999999999999
 10
173.8686291501014
 20
204.8686291501014
 42
-0.4142135623730951
 10
176.1313708498983
 20
204.8686291501014
 10
193.9999999999999
 20
186.9999999999999
 10
193.9999999999999
 20
176.9999999999999
 10
192.3999999999999
 20
176.9999999999999
 10
192.3999999999999
 20
186.3372583002029
 10
174.9999999999999
 20
203.7372583002029
 10
157.5999999999999
 20
186.3372583002029
 10
157.5999999999999
 20
176.9999999999999
  0
LWPOLYLINE
  5
3F1B
330
1F
100
AcDbEntity
  8
07_扉(実線)
100
AcDbPolyline
 90
       11
 70
     1
 43
0.0
 10
155.9999999999999
 20
151.9999999999999
 10
155.9999999999999
 20
161.9999999999999
 10
173.8686291501014
 20
179.8686291501013
 42
-0.4142135623730951
 10
176.1313708498983
 20
179.8686291501013
 10
193.9999999999999
 20
161.9999999999999
 10
193.9999999999999
 20
151.9999999999999
 10
192.3999999999999
 20
151.9999999999999
 10
192.3999999999999
 20
161.3372583002029
 10
174.9999999999999
 20
178.7372583002029
 10
157.5999999999999
 20
161.3372583002029
 10
157.5999999999999
 20
151.9999999999999
  0
DIMENSION
  5
3F1C
330
1F
100
AcDbEntity
  8
19_寸法線・引出線
100
AcDbDimension
  2
*D11
 10
265.000000000001
 20
151.9999999999999
 30
0.0
 11
261.5000000000009
 21
314.4999999999999
 31
0.0
 70
    33
  1
GH
 71
     5
 42
325.0000000000001
  3
寸法(1-1)
100
AcDbAlignedDimension
 13
194.9999999999999
 23
476.9999999999998
 33
0.0
 14
194.9999999999999
 24
151.9999999999999
 34
0.0
  0
DIMENSION
  5
3F1D
330
1F
100
AcDbEntity
  8
19_寸法線・引出線
100
AcDbDimension
  2
*D12
 10
255.0000000000009
 20
452.0000000000001
 30
0.0
 11
251.5000000000009
 21
464.4999999999999
 31
0.0
 70
    32
  1
<>（28）
 71
     5
 42
25.0
  3
寸法(1-1)
100
AcDbAlignedDimension
 13
194.9999999999999
 23
476.9999999999998
 33
0.0
 14
194.9999999999999
 24
451.9999999999998
 34
0.0
 50
90.0
100
AcDbRotatedDimension
  0
DIMENSION
  5
3F1E
330
1F
100
AcDbEntity
  8
19_寸法線・引出線
100
AcDbDimension
  2
*D13
 10
255.0000000000009
 20
427.0000000000001
 30
0.0
 11
251.5000000000009
 21
439.4999999999999
 31
0.0
 70
    32
 71
     5
 42
25.0
  3
寸法(1-1)
100
AcDbAlignedDimension
 13
194.9999999999999
 23
451.9999999999998
 33
0.0
 14
194.9999999999999
 24
426.9999999999998
 34
0.0
 50
90.0
100
AcDbRotatedDimension
  0
DIMENSION
  5
3F1F
330
1F
100
AcDbEntity
  8
19_寸法線・引出線
100
AcDbDimension
  2
*D14
 10
255.0000000000011
 20
402.0000000000001
 30
0.0
 11
251.5000000000012
 21
414.4999999999999
 31
0.0
 70
    32
 71
     5
 42
25.0
  3
寸法(1-1)
100
AcDbAlignedDimension
 13
194.9999999999999
 23
426.9999999999998
 33
0.0
 14
194.9999999999999
 24
401.9999999999998
 34
0.0
 50
90.0
100
AcDbRotatedDimension
  0
DIMENSION
  5
3F20
330
1F
100
AcDbEntity
  8
19_寸法線・引出線
100
AcDbDimension
  2
*D15
 10
255.0000000000014
 20
377.0
 30
0.0
 11
251.5000000000014
 21
389.4999999999999
 31
0.0
 70
    32
 71
     5
 42
25.00000000000006
  3
寸法(1-1)
100
AcDbAlignedDimension
 13
194.9999999999999
 23
401.9999999999998
 33
0.0
 14
194.9999999999999
 24
376.9999999999999
 34
0.0
 50
90.0
100
AcDbRotatedDimension
  0
DIMENSION
  5
3F21
330
1F
100
AcDbEntity
  8
19_寸法線・引出線
100
AcDbDimension
  2
*D16
 10
255.0000000000016
 20
352.0
 30
0.0
 11
251.5000000000016
 21
364.4999999999999
 31
0.0
 70
    32
 71
     5
 42
25.0
  3
寸法(1-1)
100
AcDbAlignedDimension
 13
194.9999999999999
 23
376.9999999999999
 33
0.0
 14
194.9999999999999
 24
351.9999999999999
 34
0.0
 50
90.0
100
AcDbRotatedDimension
  0
DIMENSION
  5
3F22
330
1F
100
AcDbEntity
  8
19_寸法線・引出線
100
AcDbDimension
  2
*D17
 10
255.0000000000018
 20
327.0
 30
0.0
 11
251.5000000000018
 21
339.4999999999999
 31
0.0
 70
    32
 71
     5
 42
25.0
  3
寸法(1-1)
100
AcDbAlignedDimension
 13
194.9999999999999
 23
351.9999999999999
 33
0.0
 14
194.9999999999999
 24
326.9999999999999
 34
0.0
 50
90.0
100
AcDbRotatedDimension
  0
DIMENSION
  5
3F23
330
1F
100
AcDbEntity
  8
19_寸法線・引出線
100
AcDbDimension
  2
*D18
 10
255.0000000000025
 20
302.0
 30
0.0
 11
251.5000000000025
 21
314.4999999999999
 31
0.0
 70
    32
  1
ピッチ<>
 71
     5
 42
25.0
  3
寸法(1-1)
100
AcDbAlignedDimension
 13
194.9999999999999
 23
326.9999999999999
 33
0.0
 14
194.9999999999999
 24
301.9999999999999
 34
0.0
 50
90.0
100
AcDbRotatedDimension
  0
DIMENSION
  5
3F24
330
1F
100
AcDbEntity
  8
19_寸法線・引出線
100
AcDbDimension
  2
*D19
 10
255.0000000000023
 20
277.0
 30
0.0
 11
251.5000000000023
 21
289.4999999999999
 31
0.0
 70
    32
 71
     5
 42
25.0
  3
寸法(1-1)
100
AcDbAlignedDimension
 13
194.9999999999999
 23
301.9999999999999
 33
0.0
 14
194.9999999999999
 24
276.9999999999999
 34
0.0
 50
90.0
100
AcDbRotatedDimension
  0
DIMENSION
  5
3F25
330
1F
100
AcDbEntity
  8
19_寸法線・引出線
100
AcDbDimension
  2
*D20
 10
255.0000000000025
 20
252.0
 30
0.0
 11
251.5000000000025
 21
264.4999999999999
 31
0.0
 70
    32
 71
     5
 42
25.0
  3
寸法(1-1)
100
AcDbAlignedDimension
 13
194.9999999999999
 23
276.9999999999999
 33
0.0
 14
194.9999999999999
 24
251.9999999999999
 34
0.0
 50
90.0
100
AcDbRotatedDimension
  0
DIMENSION
  5
3F26
330
1F
100
AcDbEntity
  8
19_寸法線・引出線
100
AcDbDimension
  2
*D21
 10
255.0000000000027
 20
227.0
 30
0.0
 11
251.5000000000028
 21
239.4999999999999
 31
0.0
 70
    32
 71
     5
 42
25.0
  3
寸法(1-1)
100
AcDbAlignedDimension
 13
194.9999999999999
 23
251.9999999999999
 33
0.0
 14
194.9999999999999
 24
226.9999999999999
 34
0.0
 50
90.0
100
AcDbRotatedDimension
  0
DIMENSION
  5
3F27
330
1F
100
AcDbEntity
  8
19_寸法線・引出線
100
AcDbDimension
  2
*D22
 10
255.000000000003
 20
202.0
 30
0.0
 11
251.5000000000029
 21
214.4999999999999
 31
0.0
 70
    32
 71
     5
 42
25.0
  3
寸法(1-1)
100
AcDbAlignedDimension
 13
194.9999999999999
 23
226.9999999999999
 33
0.0
 14
194.9999999999999
 24
201.9999999999999
 34
0.0
 50
90.0
100
AcDbRotatedDimension
  0
DIMENSION
  5
3F28
330
1F
100
AcDbEntity
  8
19_寸法線・引出線
100
AcDbDimension
  2
*D23
 10
255.0000000000032
 20
176.9999999999999
 30
0.0
 11
251.5000000000032
 21
189.4999999999998
 31
0.0
 70
    32
 71
     5
 42
25.00000000000003
  3
寸法(1-1)
100
AcDbAlignedDimension
 13
194.9999999999999
 23
201.9999999999999
 33
0.0
 14
194.9999999999999
 24
176.9999999999999
 34
0.0
 50
90.0
100
AcDbRotatedDimension
  0
DIMENSION
  5
3F29
330
1F
100
AcDbEntity
  8
19_寸法線・引出線
100
AcDbDimension
  2
*D24
 10
255.0000000000034
 20
151.9999999999999
 30
0.0
 11
251.5000000000034
 21
164.4999999999998
 31
0.0
 70
    32
 71
     5
 42
25.0
  3
寸法(1-1)
100
AcDbAlignedDimension
 13
194.9999999999999
 23
176.9999999999999
 33
0.0
 14
194.9999999999999
 24
151.9999999999999
 34
0.0
 50
90.0
100
AcDbRotatedDimension
  0
DIMENSION
  5
3F2A
330
1F
100
AcDbEntity
  8
19_寸法線・引出線
100
AcDbDimension
  2
*D25
 10
245.0000000000009
 20
462.0
 30
0.0
 11
241.5000000000009
 21
490.0962510826811
 31
0.0
 70
   160
  1
<>（18）
 71
     5
 42
15.0
  3
寸法(1-1)
100
AcDbAlignedDimension
 13
194.9999999999999
 23
476.9999999999998
 33
0.0
 14
194.9999999999999
 24
461.9999999999999
 34
0.0
 50
90.0
100
AcDbRotatedDimension
1001
ACAD
1000
DSTYLE
1002
{
1070
   279
1070
     2
1002
}
  0
DIMENSION
  5
3F2B
330
1F
100
AcDbEntity
  8
19_寸法線・引出線
100
AcDbDimension
  2
*D26
 10
245.0000000000009
 20
452.0000000000001
 30
0.0
 11
241.5000000000009
 21
456.9999999999999
 31
0.0
 70
    32
 71
     5
 42
10.0
  3
寸法(1-1)
100
AcDbAlignedDimension
 13
194.9999999999999
 23
461.9999999999999
 33
0.0
 14
194.9999999999999
 24
451.9999999999998
 34
0.0
 50
90.0
100
AcDbRotatedDimension
  0
DIMENSION
  5
3F2C
330
1F
100
AcDbEntity
  8
19_寸法線・引出線
100
AcDbDimension
  2
*D27
 10
245.0000000000011
 20
437.0
 30
0.0
 11
241.5000000000012
 21
444.4999999999999
 31
0.0
 70
    32
 71
     5
 42
15.0
  3
寸法(1-1)
100
AcDbAlignedDimension
 13
194.9999999999999
 23
451.9999999999998
 33
0.0
 14
194.9999999999999
 24
436.9999999999999
 34
0.0
 50
90.0
100
AcDbRotatedDimension
  0
DIMENSION
  5
3F2D
330
1F
100
AcDbEntity
  8
19_寸法線・引出線
100
AcDbDimension
  2
*D28
 10
245.0000000000013
 20
427.0000000000001
 30
0.0
 11
241.5000000000014
 21
431.9999999999999
 31
0.0
 70
    32
 71
     5
 42
10.0
  3
寸法(1-1)
100
AcDbAlignedDimension
 13
194.9999999999999
 23
436.9999999999999
 33
0.0
 14
194.9999999999999
 24
426.9999999999998
 34
0.0
 50
90.0
100
AcDbRotatedDimension
  0
DIMENSION
  5
3F2E
330
1F
100
AcDbEntity
  8
19_寸法線・引出線
100
AcDbDimension
  2
*D29
 10
245.0000000000016
 20
412.0
 30
0.0
 11
241.5000000000016
 21
419.4999999999999
 31
0.0
 70
    32
 71
     5
 42
15.0
  3
寸法(1-1)
100
AcDbAlignedDimension
 13
194.9999999999999
 23
426.9999999999998
 33
0.0
 14
194.9999999999999
 24
411.9999999999999
 34
0.0
 50
90.0
100
AcDbRotatedDimension
  0
DIMENSION
  5
3F2F
330
1F
100
AcDbEntity
  8
19_寸法線・引出線
100
AcDbDimension
  2
*D30
 10
245.0000000000018
 20
402.0000000000001
 30
0.0
 11
241.5000000000019
 21
406.9999999999999
 31
0.0
 70
    32
 71
     5
 42
10.0
  3
寸法(1-1)
100
AcDbAlignedDimension
 13
194.9999999999999
 23
411.9999999999999
 33
0.0
 14
194.9999999999999
 24
401.9999999999998
 34
0.0
 50
90.0
100
AcDbRotatedDimension
  0
DIMENSION
  5
3F30
330
1F
100
AcDbEntity
  8
19_寸法線・引出線
100
AcDbDimension
  2
*D31
 10
245.000000000002
 20
387.0000000000001
 30
0.0
 11
241.5000000000021
 21
394.4999999999999
 31
0.0
 70
    32
 71
     5
 42
15.0
  3
寸法(1-1)
100
AcDbAlignedDimension
 13
194.9999999999999
 23
401.9999999999998
 33
0.0
 14
194.9999999999999
 24
386.9999999999999
 34
0.0
 50
90.0
100
AcDbRotatedDimension
  0
DIMENSION
  5
3F31
330
1F
100
AcDbEntity
  8
19_寸法線・引出線
100
AcDbDimension
  2
*D32
 10
245.0000000000022
 20
377.0
 30
0.0
 11
241.5000000000023
 21
381.9999999999999
 31
0.0
 70
    32
 71
     5
 42
10.00000000000005
  3
寸法(1-1)
100
AcDbAlignedDimension
 13
194.9999999999999
 23
386.9999999999999
 33
0.0
 14
194.9999999999999
 24
376.9999999999999
 34
0.0
 50
90.0
100
AcDbRotatedDimension
  0
DIMENSION
  5
3F32
330
1F
100
AcDbEntity
  8
19_寸法線・引出線
100
AcDbDimension
  2
*D33
 10
245.0000000000025
 20
362.0
 30
0.0
 11
241.5000000000025
 21
369.4999999999999
 31
0.0
 70
    32
 71
     5
 42
15.0
  3
寸法(1-1)
100
AcDbAlignedDimension
 13
194.9999999999999
 23
376.9999999999999
 33
0.0
 14
194.9999999999999
 24
361.9999999999999
 34
0.0
 50
90.0
100
AcDbRotatedDimension
  0
DIMENSION
  5
3F33
330
1F
100
AcDbEntity
  8
19_寸法線・引出線
100
AcDbDimension
  2
*D34
 10
245.0000000000027
 20
352.0
 30
0.0
 11
241.5000000000028
 21
356.9999999999999
 31
0.0
 70
    32
 71
     5
 42
10.0
  3
寸法(1-1)
100
AcDbAlignedDimension
 13
194.9999999999999
 23
361.9999999999999
 33
0.0
 14
194.9999999999999
 24
351.9999999999999
 34
0.0
 50
90.0
100
AcDbRotatedDimension
  0
DIMENSION
  5
3F34
330
1F
100
AcDbEntity
  8
19_寸法線・引出線
100
AcDbDimension
  2
*D35
 10
245.0000000000029
 20
337.0
 30
0.0
 11
241.500000000003
 21
344.4999999999999
 31
0.0
 70
    32
 71
     5
 42
15.0
  3
寸法(1-1)
100
AcDbAlignedDimension
 13
194.9999999999999
 23
351.9999999999999
 33
0.0
 14
194.9999999999999
 24
336.9999999999999
 34
0.0
 50
90.0
100
AcDbRotatedDimension
  0
DIMENSION
  5
3F35
330
1F
100
AcDbEntity
  8
19_寸法線・引出線
100
AcDbDimension
  2
*D36
 10
245.0000000000032
 20
327.0
 30
0.0
 11
241.5000000000032
 21
331.9999999999999
 31
0.0
 70
    32
 71
     5
 42
10.0
  3
寸法(1-1)
100
AcDbAlignedDimension
 13
194.9999999999999
 23
336.9999999999999
 33
0.0
 14
194.9999999999999
 24
326.9999999999999
 34
0.0
 50
90.0
100
AcDbRotatedDimension
  0
DIMENSION
  5
3F36
330
1F
100
AcDbEntity
  8
19_寸法線・引出線
100
AcDbDimension
  2
*D37
 10
245.0000000000034
 20
312.0
 30
0.0
 11
241.5000000000034
 21
319.4999999999999
 31
0.0
 70
    32
 71
     5
 42
15.0
  3
寸法(1-1)
100
AcDbAlignedDimension
 13
194.9999999999999
 23
326.9999999999999
 33
0.0
 14
194.9999999999999
 24
311.9999999999999
 34
0.0
 50
90.0
100
AcDbRotatedDimension
  0
DIMENSION
  5
3F37
330
1F
100
AcDbEntity
  8
19_寸法線・引出線
100
AcDbDimension
  2
*D38
 10
245.0000000000039
 20
277.0
 30
0.0
 11
241.5000000000039
 21
281.9999999999999
 31
0.0
 70
    32
 71
     5
 42
10.0
  3
寸法(1-1)
100
AcDbAlignedDimension
 13
194.9999999999999
 23
286.9999999999999
 33
0.0
 14
194.9999999999999
 24
276.9999999999999
 34
0.0
 50
90.0
100
AcDbRotatedDimension
  0
DIMENSION
  5
3F38
330
1F
100
AcDbEntity
  8
19_寸法線・引出線
100
AcDbDimension
  2
*D39
 10
245.0000000000041
 20
262.0
 30
0.0
 11
241.5000000000041
 21
269.4999999999999
 31
0.0
 70
    32
 71
     5
 42
15.0
  3
寸法(1-1)
100
AcDbAlignedDimension
 13
194.9999999999999
 23
276.9999999999999
 33
0.0
 14
194.9999999999999
 24
261.9999999999999
 34
0.0
 50
90.0
100
AcDbRotatedDimension
  0
DIMENSION
  5
3F39
330
1F
100
AcDbEntity
  8
19_寸法線・引出線
100
AcDbDimension
  2
*D40
 10
245.0000000000044
 20
252.0
 30
0.0
 11
241.5000000000044
 21
256.9999999999999
 31
0.0
 70
    32
 71
     5
 42
10.0
  3
寸法(1-1)
100
AcDbAlignedDimension
 13
194.9999999999999
 23
261.9999999999999
 33
0.0
 14
194.9999999999999
 24
251.9999999999999
 34
0.0
 50
90.0
100
AcDbRotatedDimension
  0
DIMENSION
  5
3F3A
330
1F
100
AcDbEntity
  8
19_寸法線・引出線
100
AcDbDimension
  2
*D41
 10
245.0000000000045
 20
237.0
 30
0.0
 11
241.5000000000046
 21
244.4999999999998
 31
0.0
 70
    32
 71
     5
 42
15.0
  3
寸法(1-1)
100
AcDbAlignedDimension
 13
194.9999999999999
 23
251.9999999999999
 33
0.0
 14
194.9999999999999
 24
236.9999999999999
 34
0.0
 50
90.0
100
AcDbRotatedDimension
  0
DIMENSION
  5
3F3B
330
1F
100
AcDbEntity
  8
19_寸法線・引出線
100
AcDbDimension
  2
*D42
 10
245.0000000000048
 20
227.0
 30
0.0
 11
241.5000000000048
 21
231.9999999999998
 31
0.0
 70
    32
 71
     5
 42
10.0
  3
寸法(1-1)
100
AcDbAlignedDimension
 13
194.9999999999999
 23
236.9999999999999
 33
0.0
 14
194.9999999999999
 24
226.9999999999999
 34
0.0
 50
90.0
100
AcDbRotatedDimension
  0
DIMENSION
  5
3F3C
330
1F
100
AcDbEntity
  8
19_寸法線・引出線
100
AcDbDimension
  2
*D43
 10
245.000000000005
 20
212.0
 30
0.0
 11
241.500000000005
 21
219.4999999999998
 31
0.0
 70
    32
 71
     5
 42
15.0
  3
寸法(1-1)
100
AcDbAlignedDimension
 13
194.9999999999999
 23
226.9999999999999
 33
0.0
 14
194.9999999999999
 24
211.9999999999999
 34
0.0
 50
90.0
100
AcDbRotatedDimension
  0
DIMENSION
  5
3F3D
330
1F
100
AcDbEntity
  8
19_寸法線・引出線
100
AcDbDimension
  2
*D44
 10
245.0000000000052
 20
202.0
 30
0.0
 11
241.5000000000052
 21
206.9999999999998
 31
0.0
 70
    32
 71
     5
 42
10.0
  3
寸法(1-1)
100
AcDbAlignedDimension
 13
194.9999999999999
 23
211.9999999999999
 33
0.0
 14
194.9999999999999
 24
201.9999999999999
 34
0.0
 50
90.0
100
AcDbRotatedDimension
  0
DIMENSION
  5
3F3E
330
1F
100
AcDbEntity
  8
19_寸法線・引出線
100
AcDbDimension
  2
*D45
 10
245.0000000000055
 20
186.9999999999999
 30
0.0
 11
241.5000000000055
 21
194.4999999999998
 31
0.0
 70
    32
 71
     5
 42
15.00000000000003
  3
寸法(1-1)
100
AcDbAlignedDimension
 13
194.9999999999999
 23
201.9999999999999
 33
0.0
 14
194.9999999999999
 24
186.9999999999999
 34
0.0
 50
90.0
100
AcDbRotatedDimension
  0
DIMENSION
  5
3F3F
330
1F
100
AcDbEntity
  8
19_寸法線・引出線
100
AcDbDimension
  2
*D46
 10
245.0000000000057
 20
176.9999999999999
 30
0.0
 11
241.5000000000057
 21
181.9999999999998
 31
0.0
 70
    32
 71
     5
 42
10.0
  3
寸法(1-1)
100
AcDbAlignedDimension
 13
194.9999999999999
 23
186.9999999999999
 33
0.0
 14
194.9999999999999
 24
176.9999999999999
 34
0.0
 50
90.0
100
AcDbRotatedDimension
  0
DIMENSION
  5
3F40
330
1F
100
AcDbEntity
  8
19_寸法線・引出線
100
AcDbDimension
  2
*D47
 10
245.0000000000059
 20
161.9999999999999
 30
0.0
 11
241.5000000000059
 21
169.4999999999998
 31
0.0
 70
    32
 71
     5
 42
15.0
  3
寸法(1-1)
100
AcDbAlignedDimension
 13
194.9999999999999
 23
176.9999999999999
 33
0.0
 14
194.9999999999999
 24
161.9999999999999
 34
0.0
 50
90.0
100
AcDbRotatedDimension
  0
DIMENSION
  5
3F41
330
1F
100
AcDbEntity
  8
19_寸法線・引出線
100
AcDbDimension
  2
*D48
 10
245.0000000000062
 20
151.9999999999999
 30
0.0
 11
241.5000000000061
 21
156.9999999999998
 31
0.0
 70
    32
 71
     5
 42
10.0
  3
寸法(1-1)
100
AcDbAlignedDimension
 13
194.9999999999999
 23
161.9999999999999
 33
0.0
 14
194.9999999999999
 24
151.9999999999999
 34
0.0
 50
90.0
100
AcDbRotatedDimension
  0
DIMENSION
  5
3F42
330
1F
100
AcDbEntity
  8
19_寸法線・引出線
100
AcDbDimension
  2
*D49
 10
164.2999999999999
 20
295.2999999999999
 30
0.0
 11
163.4248737341528
 21
301.1248737341528
 31
0.0
 70
    33
  1
9.5
 71
     5
 42
9.475230867899725
  3
寸法(1-1)
100
AcDbAlignedDimension
 13
157.5999999999999
 23
301.9999999999999
 33
0.0
 14
164.2999999999999
 24
295.2999999999999
 34
0.0
1001
ACAD
1000
DSTYLE
1002
{
1070
    75
1070
     1
1002
}
  0
DIMENSION
  5
3F43
330
1F
100
AcDbEntity
  8
19_寸法線・引出線
100
AcDbDimension
  2
*D50
 10
245.0000000000035
 20
302.0
 30
0.0
 11
241.5000000000036
 21
306.9999999999999
 31
0.0
 70
    32
 71
     5
 42
10.0
  3
寸法(1-1)
100
AcDbAlignedDimension
 13
194.9999999999999
 23
311.9999999999999
 33
0.0
 14
194.9999999999999
 24
301.9999999999999
 34
0.0
 50
90.0
100
AcDbRotatedDimension
  0
DIMENSION
  5
3F44
330
1F
100
AcDbEntity
  8
19_寸法線・引出線
100
AcDbDimension
  2
*D51
 10
245.0000000000037
 20
287.0
 30
0.0
 11
241.5000000000037
 21
294.4999999999999
 31
0.0
 70
    32
 71
     5
 42
15.0
  3
寸法(1-1)
100
AcDbAlignedDimension
 13
194.9999999999999
 23
301.9999999999999
 33
0.0
 14
194.9999999999999
 24
286.9999999999999
 34
0.0
 50
90.0
100
AcDbRotatedDimension
  0
TEXT
  5
4331
330
1F
100
AcDbEntity
  8
20_文字
100
AcDbText
 10
693.1333333333334
 20
74.5
 30
0.0
 40
5.0
  1
※（   ）内寸法は、スリットガラリの場合を示す。 
 41
0.7
  7
文字
 72
     2
 11
799.9999999999999
 21
77.0
 31
0.0
100
AcDbText
 73
     2
  0
ENDSEC
  0
SECTION
  2
OBJECTS
  0
DICTIONARY
  5
C
330
0
100
AcDbDictionary
281
     1
  3
ACAD_2007HEADERVARS_RT
350
43E7
  3
ACAD_CIP_PREVIOUS_PRODUCT_INFO
350
216
  3
ACAD_COLOR
350
6B
  3
ACAD_DETAILVIEWSTYLE
350
21B
  3
ACAD_GROUP
350
D
  3
ACAD_LAYOUT
350
1A
  3
ACAD_MATERIAL
350
6A
  3
ACAD_MLEADERSTYLE
350
12D
  3
ACAD_MLINESTYLE
350
17
  3
ACAD_PLOTSETTINGS
350
19
  3
ACAD_PLOTSTYLENAME
350
E
  3
ACAD_SCALELIST
350
10C
  3
ACAD_SECTIONVIEWSTYLE
350
219
  3
ACAD_TABLESTYLE
350
7E
  3
ACAD_VISUALSTYLE
350
EF
  3
ACDB_RECOMPOSE_DATA
350
43E5
  3
AcDbVariableDictionary
350
5E
  3
DWGPROPS
350
43E6
  0
DICTIONARY
  5
1C0D
330
8
100
AcDbDictionary
280
     1
281
     1
  0
DICTIONARY
  5
1FF
330
2
100
AcDbDictionary
280
     1
281
     1
  3
ACAD_LAYERSTATES
360
200
  0
DICTIONARY
  5
13C
330
10
100
AcDbDictionary
280
     1
281
     1
  0
DICTIONARY
  5
1CE
330
1F
100
AcDbDictionary
280
     1
281
     1
  3
ACAD_SORTENTS
360
5EB
  0
DICTIONARY
  5
3F09
330
3F08
100
AcDbDictionary
280
     1
281
     1
  3
ACAD_DIMASSOC
360
3F0A
  0
DICTIONARY
  5
43E7
102
{ACAD_REACTORS
330
C
102
}
330
C
100
AcDbDictionary
281
     1
  3
DIMLTEX1
350
43E9
  3
DIMLTEX2
350
43EA
  3
DIMLTYPE
350
43E8
  0
XRECORD
  5
216
102
{ACAD_REACTORS
330
C
102
}
330
C
100
AcDbXrecord
280
     1
300
ACDLT
300
2021
300

  0
DICTIONARY
  5
6B
102
{ACAD_REACTORS
330
C
102
}
330
C
100
AcDbDictionary
281
     1
  0
DICTIONARY
  5
21B
102
{ACAD_REACTORS
330
C
102
}
330
C
100
AcDbDictionary
281
     1
  3
Metric50
350
21C
  0
DICTIONARY
  5
D
102
{ACAD_REACTORS
330
C
102
}
330
C
100
AcDbDictionary
281
     1
  0
DICTIONARY
  5
1A
102
{ACAD_REACTORS
330
C
102
}
330
C
100
AcDbDictionary
281
     1
  3
Model
350
22
  3
レイアウト1
350
D3
  3
レイアウト2
350
D7
  0
DICTIONARY
  5
6A
102
{ACAD_REACTORS
330
C
102
}
330
C
100
AcDbDictionary
281
     1
  3
ByBlock
350
ED
  3
ByLayer
350
EC
  3
Global
350
EE
  0
DICTIONARY
  5
12D
102
{ACAD_REACTORS
330
C
102
}
330
C
100
AcDbDictionary
281
     1
  3
Annotative
350
13B
  3
Standard
350
12E
  3
引出線(1-1)
350
33D
  3
引出線(1-10)
350
5C6
  0
DICTIONARY
  5
17
102
{ACAD_REACTORS
330
C
102
}
330
C
100
AcDbDictionary
281
     1
  3
Standard
350
18
  0
DICTIONARY
  5
19
102
{ACAD_REACTORS
330
C
102
}
330
C
100
AcDbDictionary
281
     1
  3
モデル-A1(1-1)
350
75B
  3
モデル-A1(1-10)
350
779
  0
ACDBDICTIONARYWDFLT
  5
E
102
{ACAD_REACTORS
330
C
102
}
330
C
100
AcDbDictionary
281
     1
  3
Normal
350
F
100
AcDbDictionaryWithDefault
340
F
  0
DICTIONARY
  5
10C
102
{ACAD_REACTORS
330
C
102
}
330
C
100
AcDbDictionary
281
     1
  3
A0
350
10D
  3
A1
350
1BE
  3
A2
350
1BF
  3
A3
350
1C0
  3
A4
350
1C1
  3
A5
350
1C2
  3
A6
350
1C3
  3
A7
350
1C4
  3
A8
350
1C5
  3
A9
350
1C6
  3
B0
350
1C7
  3
B1
350
1C8
  3
B2
350
1C9
  3
B3
350
1CA
  3
B4
350
1CB
  3
B5
350
1CC
  3
B6
350
1CD
  0
DICTIONARY
  5
219
102
{ACAD_REACTORS
330
C
102
}
330
C
100
AcDbDictionary
281
     1
  3
Metric50
350
21A
  0
DICTIONARY
  5
7E
102
{ACAD_REACTORS
330
C
102
}
330
C
100
AcDbDictionary
281
     1
  3
Standard
350
7F
  0
DICTIONARY
  5
EF
102
{ACAD_REACTORS
330
C
102
}
330
C
100
AcDbDictionary
281
     1
  3
2dWireframe
350
F5
  3
Basic
350
F4
  3
Brighten
350
FB
  3
ColorChange
350
FF
  3
Conceptual
350
F8
  3
Dim
350
FA
  3
EdgeColorOff
350
1E6
  3
Facepattern
350
FE
  3
Flat
350
F0
  3
FlatWithEdges
350
F1
  3
Gouraud
350
F2
  3
GouraudWithEdges
350
F3
  3
Hidden
350
F7
  3
JitterOff
350
1E4
  3
Linepattern
350
FD
  3
OverhangOff
350
1E5
  3
Realistic
350
F9
  3
Shaded
350
1F3
  3
Shaded with edges
350
1F2
  3
Shades of Gray
350
1EF
  3
Sketchy
350
1F0
  3
Thicken
350
FC
  3
Wireframe
350
F6
  3
X-Ray
350
1F1
  0
XRECORD
  5
43E5
102
{ACAD_REACTORS
330
C
102
}
330
C
100
AcDbXrecord
280
     1
 90
        1
330
7F
330
3F2A
  0
DICTIONARY
  5
5E
102
{ACAD_REACTORS
330
C
102
}
330
C
100
AcDbDictionary
281
     1
  3
CANNOSCALE
350
146
  3
CENTEREXE
350
259
  3
CENTERLTYPEFILE
350
25A
  3
CMLEADERSTYLE
350
145
  3
CTABLESTYLE
350
84
  3
CVIEWDETAILSTYLE
350
227
  3
CVIEWSECTIONSTYLE
350
228
  3
DIMASSOC
350
5F
  3
HIDETEXT
350
63
  3
HPCOLOR
350
884
  3
HPTRANSPARENCY
350
883
  3
INDEXCTL
350
1C62
  3
LAYEREVAL
350
1AE
  3
LAYERNOTIFY
350
1AF
  3
LIGHTINGUNITS
350
1C60
  3
MLEADERSCALE
350
6FD
  3
MSLTSCALE
350
1C5F
  3
PSOLHEIGHT
350
43E2
  3
PSOLWIDTH
350
43E1
  3
SORTENTS
350
1C61
  3
TEXTJUSTIFY
350
604
  3
XCLIPFRAME
350
43E3
  0
XRECORD
  5
43E6
102
{ACAD_REACTORS
330
C
102
}
330
C
100
AcDbXrecord
280
     1
  1
DWGPROPS COOKIE
  2

  3

  4

  6

  7

  8
shimizu
  9

300
=
301
=
302
=
303
=
304
=
305
=
306
=
307
=
308
=
309
=
 40
0.4970601851851852
 41
2458517.519039352
 42
2459150.683009259
  1

 90
        0
  0
DICTIONARY
  5
200
102
{ACAD_REACTORS
330
1FF
102
}
330
1FF
100
AcDbDictionary
281
     1
  0
SORTENTSTABLE
  5
5EB
102
{ACAD_REACTORS
330
1CE
102
}
330
1CE
100
AcDbSortentsTable
330
1F
331
639
  5
63B
331
63A
  5
63D
331
63B
  5
63F
331
63C
  5
641
331
63D
  5
642
331
63E
  5
643
331
63F
  5
639
331
640
  5
63C
331
641
  5
63E
331
642
  5
640
331
643
  5
644
331
644
  5
645
331
645
  5
646
331
646
  5
647
331
647
  5
648
331
648
  5
649
331
649
  5
64A
331
64A
  5
64B
331
64B
  5
64C
331
64C
  5
63A
  0
DIMASSOC
  5
3F0A
102
{ACAD_REACTORS
330
3F09
102
}
330
3F09
100
AcDbDimAssoc
330
3F08
 90
        3
 70
     0
 71
     0
  1
AcDbOsnapPointRef
 72
     2
331
3EF4
 73
     2
 91
        0
 40
0.4999999999999999
 10
0.0
 20
0.0
 30
0.0
 75
     0
  1
AcDbOsnapPointRef
 72
     2
331
3EF3
 73
     2
 91
        0
 40
0.5000000000000002
 10
0.0
 20
0.0
 30
0.0
 75
     0
  0
XRECORD
  5
43E9
102
{ACAD_REACTORS
330
43E7
102
}
330
43E7
100
AcDbXrecord
280
     1
340
15
  0
XRECORD
  5
43EA
102
{ACAD_REACTORS
330
43E7
102
}
330
43E7
100
AcDbXrecord
280
     1
340
15
  0
XRECORD
  5
43E8
102
{ACAD_REACTORS
330
43E7
102
}
330
43E7
100
AcDbXrecord
280
     1
340
15
  0
ACDBDETAILVIEWSTYLE
  5
21C
102
{ACAD_XDICTIONARY
360
4427
102
}
102
{ACAD_REACTORS
330
21B
102
}
330
21B
100
AcDbModelDocViewStyle
 70
     0
  3
Metric50
290
     0
100
AcDbDetailViewStyle
 70
     0
 71
     0
 90
        3
 71
     1
340
11
 40
5.0
340
0
 40
5.0
300

 40
0.0
280
     1
 71
     2
340
16
 90
       25
 71
     3
340
11
 40
5.0
 90
        0
 40
15.0
 90
        1
300
%<\AcVar ViewDetailId>% (%<\AcVar ViewScale \f "%sn">%)
 71
     4
340
16
 90
       25
340
16
 90
       25
280
     0
  0
LAYOUT
  5
22
102
{ACAD_XDICTIONARY
360
43EB
102
}
102
{ACAD_REACTORS
330
1A
102
}
330
1A
100
AcDbPlotSettings
  1

  2
none_device
  4
ISO_A4_(210.00_x_297.00_MM)
  6

 40
7.5
 41
20.0
 42
7.5
 43
20.0
 44
210.0
 45
297.0
 46
11.54999923706054
 47
-13.65000009536743
 48
0.0
 49
0.0
140
0.0
141
0.0
142
1.0
143
8.704084754739808
 70
 11952
 72
     1
 73
     0
 74
     0
  7
monochrome.ctb
 75
     0
147
0.1148885871608098
148
0.0
149
0.0
100
AcDbLayout
  1
Model
 70
     1
 71
     0
 10
0.0
 20
0.0
 11
12.0
 21
9.0
 12
0.0
 22
0.0
 32
0.0
 14
0.0
 24
0.0
 34
0.0
 15
0.0
 25
0.0
 35
0.0
146
0.0
 13
0.0
 23
0.0
 33
0.0
 16
1.0
 26
0.0
 36
0.0
 17
0.0
 27
1.0
 37
0.0
 76
     0
330
1F
331
EA
1001
ACAD_PSEXT
1000
None
1000
None
1000
Not applicable
1000
The layout will not be plotted unless a new plotter configuration name is selected.
1070
     0
  0
LAYOUT
  5
D3
102
{ACAD_XDICTIONARY
360
43EE
102
}
102
{ACAD_REACTORS
330
1A
102
}
330
1A
100
AcDbPlotSettings
  1

  2
C:\Documents and Settings\basas\Application Data\Autodesk\AutoCAD 2005\R16.1\enu\plotters\Default Windows System Printer.pc3
  4

  6

 40
0.0
 41
0.0
 42
0.0
 43
0.0
 44
0.0
 45
0.0
 46
0.0
 47
0.0
 48
0.0
 49
0.0
140
0.0
141
0.0
142
1.0
143
1.0
 70
   688
 72
     0
 73
     0
 74
     5
  7
monochrome.ctb
 75
    16
147
1.0
148
0.0
149
0.0
100
AcDbLayout
  1
レイアウト1
 70
     1
 71
     1
 10
0.0
 20
0.0
 11
12.0
 21
9.0
 12
0.0
 22
0.0
 32
0.0
 14
0.0
 24
0.0
 34
0.0
 15
0.0
 25
0.0
 35
0.0
146
0.0
 13
0.0
 23
0.0
 33
0.0
 16
1.0
 26
0.0
 36
0.0
 17
0.0
 27
1.0
 37
0.0
 76
     0
330
D2
  0
LAYOUT
  5
D7
102
{ACAD_XDICTIONARY
360
43F0
102
}
102
{ACAD_REACTORS
330
1A
102
}
330
1A
100
AcDbPlotSettings
  1

  2
C:\Documents and Settings\basas\Application Data\Autodesk\AutoCAD 2005\R16.1\enu\plotters\Default Windows System Printer.pc3
  4

  6

 40
0.0
 41
0.0
 42
0.0
 43
0.0
 44
0.0
 45
0.0
 46
0.0
 47
0.0
 48
0.0
 49
0.0
140
0.0
141
0.0
142
1.0
143
1.0
 70
   688
 72
     0
 73
     0
 74
     5
  7
monochrome.ctb
 75
    16
147
1.0
148
0.0
149
0.0
100
AcDbLayout
  1
レイアウト2
 70
     1
 71
     2
 10
0.0
 20
0.0
 11
12.0
 21
9.0
 12
0.0
 22
0.0
 32
0.0
 14
0.0
 24
0.0
 34
0.0
 15
0.0
 25
0.0
 35
0.0
146
0.0
 13
0.0
 23
0.0
 33
0.0
 16
1.0
 26
0.0
 36
0.0
 17
0.0
 27
1.0
 37
0.0
 76
     0
330
D6
  0
MATERIAL
  5
ED
102
{ACAD_XDICTIONARY
360
1F9
102
}
102
{ACAD_REACTORS
330
6A
102
}
330
6A
100
AcDbMaterial
  1
ByBlock
  0
MATERIAL
  5
EC
102
{ACAD_XDICTIONARY
360
1F7
102
}
102
{ACAD_REACTORS
330
6A
102
}
330
6A
100
AcDbMaterial
  1
ByLayer
  0
MATERIAL
  5
EE
102
{ACAD_XDICTIONARY
360
173
102
}
102
{ACAD_REACTORS
330
6A
102
}
330
6A
100
AcDbMaterial
  1
Global
 43
0.0007999999797903
 43
0.0
 43
0.0
 43
0.0
 43
0.0
 43
0.0007999999797903
 43
0.0
 43
0.0
 43
0.0
 43
0.0
 43
1.0
 43
0.0
 43
0.0
 43
0.0
 43
0.0
 43
1.0
 49
0.0007999999797903
 49
0.0
 49
0.0
 49
0.0
 49
0.0
 49
0.0007999999797903
 49
0.0
 49
0.0
 49
0.0
 49
0.0
 49
1.0
 49
0.0
 49
0.0
 49
0.0
 49
0.0
 49
1.0
142
0.0007999999797903
142
0.0
142
0.0
142
0.0
142
0.0
142
0.0007999999797903
142
0.0
142
0.0
142
0.0
142
0.0
142
1.0
142
0.0
142
0.0
142
0.0
142
0.0
142
1.0
144
0.0007999999797903
144
0.0
144
0.0
144
0.0
144
0.0
144
0.0007999999797903
144
0.0
144
0.0
144
0.0
144
0.0
144
1.0
144
0.0
144
0.0
144
0.0
144
0.0
144
1.0
1001
ACAD
1070
    -1
1070
     3
1070
     0
1000

1071
        0
1070
     0
  0
MLEADERSTYLE
  5
13B
102
{ACAD_REACTORS
330
12D
102
}
330
12D
100
AcDbMLeaderStyle
170
     2
171
     1
172
     0
 90
        2
 40
0.0
 41
0.0
173
     1
 91
-1056964608
340
14
 92
       -2
290
     1
 42
2.0
291
     1
 43
8.0
  3
Standard
 44
4.0
300

342
11
174
     1
178
     1
175
     1
176
     0
 93
-1056964608
 45
4.0
292
     0
297
     0
 46
4.0
 94
-1056964608
 47
1.0
 49
1.0
140
1.0
293
     1
141
0.0
294
     1
177
     0
142
1.0
295
     0
296
     1
143
3.75
1001
ACAD_MLEADERVER
1070
     2
  0
MLEADERSTYLE
  5
12E
102
{ACAD_REACTORS
330
12D
102
}
330
12D
100
AcDbMLeaderStyle
170
     2
171
     1
172
     0
 90
        2
 40
0.0
 41
0.0
173
     1
 91
-1056964608
340
14
 92
       -2
290
     1
 42
2.0
291
     1
 43
8.0
  3
Standard
 44
4.0
300

342
11
174
     1
178
     1
175
     1
176
     0
 93
-1056964608
 45
4.0
292
     0
297
     0
 46
4.0
 94
-1056964608
 47
1.0
 49
1.0
140
1.0
293
     1
141
0.0
294
     1
177
     0
142
1.0
295
     0
296
     0
143
3.75
1001
ACAD_MLEADERVER
1070
     2
  0
MLEADERSTYLE
  5
33D
102
{ACAD_REACTORS
330
12D
102
}
330
12D
100
AcDbMLeaderStyle
170
     2
171
     1
172
     0
 90
        2
 40
1.047197551196597
 41
3.141592653589793
173
     1
 91
-1073741824
340
15
 92
       -1
290
     1
 42
0.0
291
     1
 43
0.0
  3
Standard
341
33E
 44
4.0
300

342
29D
174
     6
178
     6
175
     1
176
     0
 93
-1073741824
 45
5.0
292
     0
297
     0
 46
4.0
 94
-1056964608
 47
1.0
 49
1.0
140
1.0
293
     1
141
0.0
294
     1
177
     0
142
1.0
295
     0
296
     0
143
0.0
1001
ACAD_MLEADERVER
1070
     2
  0
MLEADERSTYLE
  5
5C6
102
{ACAD_REACTORS
330
12D
102
}
330
12D
100
AcDbMLeaderStyle
170
     2
171
     1
172
     0
 90
        2
 40
1.047197551196597
 41
3.141592653589793
173
     1
 91
-1073741824
340
15
 92
       -1
290
     1
 42
0.0
291
     1
 43
0.0
  3
Standard
341
33E
 44
4.0
300

342
29D
174
     6
178
     6
175
     1
176
     0
 93
-1073741824
 45
5.0
292
     0
297
     0
 46
4.0
 94
-1056964608
 47
1.0
 49
1.0
140
1.0
293
     1
141
0.0
294
     1
177
     0
142
10.0
295
     0
296
     0
143
0.0
1001
ACAD_MLEADERVER
1070
     2
  0
MLINESTYLE
  5
18
102
{ACAD_REACTORS
330
17
102
}
330
17
100
AcDbMlineStyle
  2
STANDARD
 70
     0
  3

 62
   256
 51
90.0
 52
90.0
 71
     2
 49
0.5
 62
   256
  6
BYLAYER
 49
-0.5
 62
   256
  6
BYLAYER
  0
PLOTSETTINGS
  5
75B
102
{ACAD_XDICTIONARY
360
4429
102
}
102
{ACAD_REACTORS
330
19
102
}
330
19
100
AcDbPlotSettings
  1
モデル-A1(1-1)
  2
C558SeriesPCL
  4
A3
  6

 40
5.027082920074462
 41
5.027069091796875
 42
5.027099609375
 43
5.027069091796875
 44
296.9259948730469
 45
419.9466552734374
 46
-4.901096909010846
 47
-5.067736826084825
 48
0.0
 49
0.0
140
0.0
141
0.0
142
420.0
143
841.0
 70
 11940
 72
     1
 73
     1
 74
     1
  7
monochrome.ctb
 75
     0
147
0.3410871630752704
148
0.0442831003149422
149
0.0271839699360044
1001
ACAD_PSEXT
1000
C558SeriesPCL
1000
KONICA MINOLTA C658SeriesPCL
1000
IP_192.168.0.100
1000

1070
     0
  0
PLOTSETTINGS
  5
779
102
{ACAD_XDICTIONARY
360
442B
102
}
102
{ACAD_REACTORS
330
19
102
}
330
19
100
AcDbPlotSettings
  1
モデル-A1(1-10)
  2
C558SeriesPCL
  4
A3
  6

 40
5.027082920074462
 41
5.027069091796875
 42
5.027099609375
 43
5.027069091796875
 44
296.9259948730469
 45
419.9466552734374
 46
128.6022058637177
 47
183.9448590078212
 48
0.0
 49
0.0
140
0.0
141
0.0
142
420.0
143
8410.0
 70
 11940
 72
     1
 73
     1
 74
     1
  7
monochrome.ctb
 75
     0
147
0.3410871630752704
148
0.0442831003149422
149
0.0271839699360044
1001
ACAD_PSEXT
1000
C558SeriesPCL
1000
KONICA MINOLTA C658SeriesPCL
1000
IP_192.168.0.100
1000

1070
     0
  0
ACDBPLACEHOLDER
  5
F
102
{ACAD_REACTORS
330
E
102
}
330
E
  0
SCALE
  5
10D
102
{ACAD_REACTORS
330
10C
102
}
330
10C
100
AcDbScale
 70
     0
300
1:1
140
1.0
141
1.0
290
     1
  0
SCALE
  5
1BE
102
{ACAD_REACTORS
330
10C
102
}
330
10C
100
AcDbScale
 70
     0
300
1:2
140
1.0
141
2.0
290
     0
  0
SCALE
  5
1BF
102
{ACAD_REACTORS
330
10C
102
}
330
10C
100
AcDbScale
 70
     0
300
1:4
140
1.0
141
4.0
290
     0
  0
SCALE
  5
1C0
102
{ACAD_REACTORS
330
10C
102
}
330
10C
100
AcDbScale
 70
     0
300
1:5
140
1.0
141
5.0
290
     0
  0
SCALE
  5
1C1
102
{ACAD_REACTORS
330
10C
102
}
330
10C
100
AcDbScale
 70
     0
300
1:8
140
1.0
141
8.0
290
     0
  0
SCALE
  5
1C2
102
{ACAD_REACTORS
330
10C
102
}
330
10C
100
AcDbScale
 70
     0
300
1:10
140
1.0
141
10.0
290
     0
  0
SCALE
  5
1C3
102
{ACAD_REACTORS
330
10C
102
}
330
10C
100
AcDbScale
 70
     0
300
1:16
140
1.0
141
16.0
290
     0
  0
SCALE
  5
1C4
102
{ACAD_REACTORS
330
10C
102
}
330
10C
100
AcDbScale
 70
     0
300
1:20
140
1.0
141
20.0
290
     0
  0
SCALE
  5
1C5
102
{ACAD_REACTORS
330
10C
102
}
330
10C
100
AcDbScale
 70
     0
300
1:30
140
1.0
141
30.0
290
     0
  0
SCALE
  5
1C6
102
{ACAD_REACTORS
330
10C
102
}
330
10C
100
AcDbScale
 70
     0
300
1:40
140
1.0
141
40.0
290
     0
  0
SCALE
  5
1C7
102
{ACAD_REACTORS
330
10C
102
}
330
10C
100
AcDbScale
 70
     0
300
1:50
140
1.0
141
50.0
290
     0
  0
SCALE
  5
1C8
102
{ACAD_REACTORS
330
10C
102
}
330
10C
100
AcDbScale
 70
     0
300
1:100
140
1.0
141
100.0
290
     0
  0
SCALE
  5
1C9
102
{ACAD_REACTORS
330
10C
102
}
330
10C
100
AcDbScale
 70
     0
300
2:1
140
2.0
141
1.0
290
     0
  0
SCALE
  5
1CA
102
{ACAD_REACTORS
330
10C
102
}
330
10C
100
AcDbScale
 70
     0
300
4:1
140
4.0
141
1.0
290
     0
  0
SCALE
  5
1CB
102
{ACAD_REACTORS
330
10C
102
}
330
10C
100
AcDbScale
 70
     0
300
8:1
140
8.0
141
1.0
290
     0
  0
SCALE
  5
1CC
102
{ACAD_REACTORS
330
10C
102
}
330
10C
100
AcDbScale
 70
     0
300
10:1
140
10.0
141
1.0
290
     0
  0
SCALE
  5
1CD
102
{ACAD_REACTORS
330
10C
102
}
330
10C
100
AcDbScale
 70
     0
300
100:1
140
100.0
141
1.0
290
     0
  0
ACDBSECTIONVIEWSTYLE
  5
21A
102
{ACAD_XDICTIONARY
360
4425
102
}
102
{ACAD_REACTORS
330
219
102
}
330
219
100
AcDbModelDocViewStyle
 70
     0
  3
Metric50
290
     0
100
AcDbSectionViewStyle
 70
     0
 71
     0
 90
      102
 71
     1
340
11
 40
5.0
340
0
340
0
 40
5.0
300
I, O, Q, S, X, Z
 40
10.0
 90
        0
 40
2.5
 90
        0
 71
     2
340
16
 90
       25
340
16
 90
       50
 40
5.0
 40
2.5
 40
5.0
 71
     3
340
11
 40
5.0
 90
        0
 40
15.0
 90
        1
300
%<\AcVar ViewSectionStartId>%-%<\AcVar ViewSectionEndId>% (%<\AcVar ViewScale \f "%sn">%)
 71
     4
300
ANSI31
 40
1.0
 90
        0
290
     0
290
     0
 90
        6
 40
0.0
 40
1.570796326794896
 40
0.2617993877991494
 40
1.308996938995747
 40
-0.2617993877991494
 40
1.832595714594046
  0
TABLESTYLE
  5
7F
102
{ACAD_XDICTIONARY
360
162
102
}
102
{ACAD_REACTORS
330
7E
102
}
330
7E
100
AcDbTableStyle
  3
Standard
 70
     0
 71
     0
 40
1.5
 41
1.5
280
     0
281
     0
  7
Standard
140
4.5
170
     2
 62
     0
 63
     7
283
     0
274
    -2
284
     1
 64
     0
275
    -2
285
     1
 65
     0
276
    -2
286
     1
 66
     0
277
    -2
287
     1
 67
     0
278
    -2
288
     1
 68
     0
279
    -2
289
     1
 69
     0
  7
Standard
140
6.0
170
     5
 62
     0
 63
     7
283
     0
274
    -2
284
     1
 64
     0
275
    -2
285
     1
 65
     0
276
    -2
286
     1
 66
     0
277
    -2
287
     1
 67
     0
278
    -2
288
     1
 68
     0
279
    -2
289
     1
 69
     0
  7
Standard
140
4.5
170
     5
 62
     0
 63
     7
283
     0
274
    -2
284
     1
 64
     0
275
    -2
285
     1
 65
     0
276
    -2
286
     1
 66
     0
277
    -2
287
     1
 67
     0
278
    -2
288
     1
 68
     0
279
    -2
289
     1
 69
     0
  0
VISUALSTYLE
  5
F5
102
{ACAD_XDICTIONARY
360
43FF
102
}
102
{ACAD_REACTORS
330
EF
102
}
330
EF
100
AcDbVisualStyle
  2
2dWireframe
 70
     4
 71
     0
 72
     2
 73
     1
 90
        0
 40
-0.6
 41
-30.0
 62
     5
 63
     7
 74
     1
 91
        4
 64
     7
 65
   257
 75
     1
175
     1
 42
1.0
 92
        0
 66
   257
 43
1.0
 76
     1
 77
     6
 78
     2
 67
     7
 79
     5
170
     0
171
     0
290
     0
174
     0
 93
        1
 44
0.0
173
     0
291
     0
 45
0.0
1001
ACAD
1000
AcDbSavedByObjectVersion
1070
     0
  0
VISUALSTYLE
  5
F4
102
{ACAD_XDICTIONARY
360
43FD
102
}
102
{ACAD_REACTORS
330
EF
102
}
330
EF
100
AcDbVisualStyle
  2
Basic
 70
     7
 71
     1
 72
     0
 73
     1
 90
        0
 40
-0.6
 41
-30.0
 62
     5
 63
     7
 74
     0
 91
        4
 64
     7
 65
   257
 75
     1
175
     1
 42
1.0
 92
        8
 66
     7
 43
1.0
 76
     1
 77
     6
 78
     2
 67
     7
 79
     5
170
     0
171
     0
290
     0
174
     0
 93
        1
 44
0.0
173
     0
291
     1
 45
0.0
1001
ACAD
1000
AcDbSavedByObjectVersion
1070
     0
  0
VISUALSTYLE
  5
FB
102
{ACAD_XDICTIONARY
360
440B
102
}
102
{ACAD_REACTORS
330
EF
102
}
330
EF
100
AcDbVisualStyle
  2
Brighten
 70
    12
 71
     2
 72
     2
 73
     1
 90
        0
 40
-0.6
 41
-30.0
 62
     5
 63
     7
 74
     1
 91
        4
 64
     7
 65
   257
 75
     1
175
     1
 42
1.0
 92
        8
 66
     7
 43
1.0
 76
     1
 77
     6
 78
     2
 67
     7
 79
     5
170
     0
171
     0
290
     0
174
     0
 93
        1
 44
50.0
173
     0
291
     1
 45
0.0
1001
ACAD
1000
AcDbSavedByObjectVersion
1070
     0
  0
VISUALSTYLE
  5
FF
102
{ACAD_XDICTIONARY
360
4413
102
}
102
{ACAD_REACTORS
330
EF
102
}
330
EF
100
AcDbVisualStyle
  2
ColorChange
 70
    16
 71
     2
 72
     2
 73
     3
 90
        0
 40
-0.6
 41
-30.0
 62
     5
 63
     8
 74
     1
 91
        4
 64
     7
 65
   257
 75
     1
175
     1
 42
1.0
 92
        8
 66
     8
 43
1.0
 76
     1
 77
     6
 78
     2
 67
     7
 79
     5
170
     0
171
     0
290
     0
174
     0
 93
        1
 44
0.0
173
     0
291
     1
 45
0.0
1001
ACAD
1000
AcDbSavedByObjectVersion
1070
     0
  0
VISUALSTYLE
  5
F8
102
{ACAD_XDICTIONARY
360
4405
102
}
102
{ACAD_REACTORS
330
EF
102
}
330
EF
100
AcDbVisualStyle
  2
Conceptual
 70
     9
 71
     3
 72
     2
 73
     1
 90
        0
 40
-0.6
 41
-30.0
 62
     5
 63
     7
 74
     2
 91
        2
 64
     7
 65
   257
 75
     1
175
     1
 42
40.0
 92
        8
 66
     7
 43
1.0
 76
     1
 77
     6
 78
     2
 67
     7
 79
     3
170
     0
171
     0
290
     0
174
     0
 93
        1
 44
0.0
173
     0
291
     0
 45
0.0
1001
ACAD
1000
AcDbSavedByObjectVersion
1070
     0
  0
VISUALSTYLE
  5
FA
102
{ACAD_XDICTIONARY
360
4409
102
}
102
{ACAD_REACTORS
330
EF
102
}
330
EF
100
AcDbVisualStyle
  2
Dim
 70
    11
 71
     2
 72
     2
 73
     1
 90
        0
 40
-0.6
 41
-30.0
 62
     5
 63
     7
 74
     1
 91
        4
 64
     7
 65
   257
 75
     1
175
     1
 42
1.0
 92
        8
 66
     7
 43
1.0
 76
     1
 77
     6
 78
     2
 67
     7
 79
     5
170
     0
171
     0
290
     0
174
     0
 93
        1
 44
-50.0
173
     0
291
     1
 45
0.0
1001
ACAD
1000
AcDbSavedByObjectVersion
1070
     0
  0
VISUALSTYLE
  5
1E6
102
{ACAD_XDICTIONARY
360
4419
102
}
102
{ACAD_REACTORS
330
EF
102
}
330
EF
100
AcDbVisualStyle
  2
EdgeColorOff
 70
    22
 71
     2
 72
     2
 73
     0
 90
        0
 40
-0.6
 41
-30.0
 62
     5
 63
     7
 74
     1
 91
        4
 64
     7
 65
   257
 75
     1
175
     1
 42
1.0
 92
        8
 66
     7
 43
1.0
 76
     1
 77
     6
 78
     2
 67
     7
 79
     5
170
     0
171
     0
290
     0
174
     0
 93
        1
 44
0.0
173
     0
291
     1
 45
0.0
1001
ACAD
1000
AcDbSavedByObjectVersion
1070
     0
  0
VISUALSTYLE
  5
FE
102
{ACAD_XDICTIONARY
360
4411
102
}
102
{ACAD_REACTORS
330
EF
102
}
330
EF
100
AcDbVisualStyle
  2
Facepattern
 70
    15
 71
     2
 72
     2
 73
     1
 90
        0
 40
-0.6
 41
-30.0
 62
     5
 63
     7
 74
     1
 91
        4
 64
     7
 65
   257
 75
     1
175
     1
 42
1.0
 92
        8
 66
     7
 43
1.0
 76
     1
 77
     6
 78
     2
 67
     7
 79
     5
170
     0
171
     0
290
     0
174
     0
 93
        1
 44
0.0
173
     0
291
     1
 45
0.0
1001
ACAD
1000
AcDbSavedByObjectVersion
1070
     0
  0
VISUALSTYLE
  5
F0
102
{ACAD_XDICTIONARY
360
43F5
102
}
102
{ACAD_REACTORS
330
EF
102
}
330
EF
100
AcDbVisualStyle
  2
Flat
 70
     0
 71
     2
 72
     1
 73
     1
 90
        2
 40
-0.6
 41
30.0
 62
     5
 63
     7
 74
     0
 91
        0
 64
     7
 65
   257
 75
     1
175
     1
 42
1.0
 92
        8
 66
     7
 43
1.0
 76
     1
 77
     6
 78
     2
 67
     7
 79
     5
170
     0
171
     0
290
     0
174
     0
 93
       13
 44
0.0
173
     0
291
     1
 45
0.0
1001
ACAD
1000
AcDbSavedByObjectVersion
1070
     0
  0
VISUALSTYLE
  5
F1
102
{ACAD_XDICTIONARY
360
43F7
102
}
102
{ACAD_REACTORS
330
EF
102
}
330
EF
100
AcDbVisualStyle
  2
FlatWithEdges
 70
     1
 71
     2
 72
     1
 73
     1
 90
        2
 40
-0.6
 41
30.0
 62
     5
 63
     7
 74
     1
 91
        0
 64
     7
 65
   257
 75
     1
175
     1
 42
1.0
 92
        0
 66
   257
 43
1.0
 76
     1
 77
     6
 78
     2
 67
     7
 79
     5
170
     0
171
     0
290
     0
174
     0
 93
       13
 44
0.0
173
     0
291
     1
 45
0.0
1001
ACAD
1000
AcDbSavedByObjectVersion
1070
     0
  0
VISUALSTYLE
  5
F2
102
{ACAD_XDICTIONARY
360
43F9
102
}
102
{ACAD_REACTORS
330
EF
102
}
330
EF
100
AcDbVisualStyle
  2
Gouraud
 70
     2
 71
     2
 72
     2
 73
     1
 90
        2
 40
-0.6
 41
30.0
 62
     5
 63
     7
 74
     0
 91
        0
 64
     7
 65
   257
 75
     1
175
     1
 42
1.0
 92
        0
 66
     7
 43
1.0
 76
     1
 77
     6
 78
     2
 67
     7
 79
     5
170
     0
171
     0
290
     0
174
     0
 93
       13
 44
0.0
173
     0
291
     1
 45
0.0
1001
ACAD
1000
AcDbSavedByObjectVersion
1070
     0
  0
VISUALSTYLE
  5
F3
102
{ACAD_XDICTIONARY
360
43FB
102
}
102
{ACAD_REACTORS
330
EF
102
}
330
EF
100
AcDbVisualStyle
  2
GouraudWithEdges
 70
     3
 71
     2
 72
     2
 73
     1
 90
        2
 40
-0.6
 41
30.0
 62
     5
 63
     7
 74
     1
 91
        0
 64
     7
 65
   257
 75
     1
175
     1
 42
1.0
 92
        0
 66
   257
 43
1.0
 76
     1
 77
     6
 78
     2
 67
     7
 79
     5
170
     0
171
     0
290
     0
174
     0
 93
       13
 44
0.0
173
     0
291
     1
 45
0.0
1001
ACAD
1000
AcDbSavedByObjectVersion
1070
     0
  0
VISUALSTYLE
  5
F7
102
{ACAD_XDICTIONARY
360
4403
102
}
102
{ACAD_REACTORS
330
EF
102
}
330
EF
100
AcDbVisualStyle
  2
Hidden
 70
     6
 71
     1
 72
     2
 73
     2
 90
        0
 40
-0.6
 41
-30.0
 62
     5
 63
     7
 74
     2
 91
        2
 64
     7
 65
   257
 75
     2
175
     1
 42
40.0
 92
        0
 66
   257
 43
1.0
 76
     1
 77
     6
 78
     2
 67
     7
 79
     3
170
     0
171
     0
290
     0
174
     0
 93
        1
 44
0.0
173
     0
291
     0
 45
0.0
1001
ACAD
1000
AcDbSavedByObjectVersion
1070
     0
  0
VISUALSTYLE
  5
1E4
102
{ACAD_XDICTIONARY
360
4415
102
}
102
{ACAD_REACTORS
330
EF
102
}
330
EF
100
AcDbVisualStyle
  2
JitterOff
 70
    20
 71
     2
 72
     2
 73
     0
 90
        0
 40
-0.6
 41
-30.0
 62
     5
 63
     7
 74
     1
 91
        4
 64
     7
 65
   257
 75
     1
175
     1
 42
1.0
 92
       10
 66
     7
 43
1.0
 76
     1
 77
     6
 78
     2
 67
     7
 79
     5
170
     0
171
     0
290
     0
174
     0
 93
        1
 44
0.0
173
     0
291
     1
 45
0.0
1001
ACAD
1000
AcDbSavedByObjectVersion
1070
     0
  0
VISUALSTYLE
  5
FD
102
{ACAD_XDICTIONARY
360
440F
102
}
102
{ACAD_REACTORS
330
EF
102
}
330
EF
100
AcDbVisualStyle
  2
Linepattern
 70
    14
 71
     2
 72
     2
 73
     1
 90
        0
 40
-0.6
 41
-30.0
 62
     5
 63
     7
 74
     1
 91
        4
 64
     7
 65
   257
 75
     7
175
     7
 42
1.0
 92
        8
 66
     7
 43
1.0
 76
     1
 77
     6
 78
     2
 67
     7
 79
     5
170
     0
171
     0
290
     0
174
     0
 93
        1
 44
0.0
173
     0
291
     1
 45
0.0
1001
ACAD
1000
AcDbSavedByObjectVersion
1070
     0
  0
VISUALSTYLE
  5
1E5
102
{ACAD_XDICTIONARY
360
4417
102
}
102
{ACAD_REACTORS
330
EF
102
}
330
EF
100
AcDbVisualStyle
  2
OverhangOff
 70
    21
 71
     2
 72
     2
 73
     0
 90
        0
 40
-0.6
 41
-30.0
 62
     5
 63
     7
 74
     1
 91
        4
 64
     7
 65
   257
 75
     1
175
     1
 42
1.0
 92
        9
 66
     7
 43
1.0
 76
     1
 77
     6
 78
     2
 67
     7
 79
     5
170
     0
171
     0
290
     0
174
     0
 93
        1
 44
0.0
173
     0
291
     1
 45
0.0
1001
ACAD
1000
AcDbSavedByObjectVersion
1070
     0
  0
VISUALSTYLE
  5
F9
102
{ACAD_XDICTIONARY
360
4407
102
}
102
{ACAD_REACTORS
330
EF
102
}
330
EF
100
AcDbVisualStyle
  2
Realistic
 70
     8
 71
     2
 72
     2
 73
     0
 90
        2
 40
-0.6
 41
30.0
 62
     5
 63
     7
 74
     0
 91
        0
 64
     7
 65
   257
 75
     1
175
     1
 42
1.0
 92
        8
 66
   257
 43
1.0
 76
     1
 77
     6
 78
     2
 67
     7
 79
     3
170
     0
171
     0
290
     0
174
     0
 93
       13
 44
0.0
173
     0
291
     0
 45
0.0
1001
ACAD
1000
AcDbSavedByObjectVersion
1070
     0
  0
VISUALSTYLE
  5
1F3
102
{ACAD_XDICTIONARY
360
4423
102
}
102
{ACAD_REACTORS
330
EF
102
}
330
EF
100
AcDbVisualStyle
  2
Shaded
 70
    27
 71
     2
 72
     2
 73
     1
 90
        2
 40
-0.6
 41
30.0
 62
     5
 63
     7
 74
     0
 91
        4
 64
     7
 65
   257
 75
     1
175
     1
 42
1.0
 92
        8
 66
   257
 43
1.0
 76
     1
 77
     6
 78
     2
 67
     8
 79
     3
170
     0
171
     0
290
     0
174
     0
 93
        5
 44
0.0
173
     0
291
     0
 45
0.0
1001
ACAD
1000
AcDbSavedByObjectVersion
1070
     0
  0
VISUALSTYLE
  5
1F2
102
{ACAD_XDICTIONARY
360
4421
102
}
102
{ACAD_REACTORS
330
EF
102
}
330
EF
100
AcDbVisualStyle
  2
Shaded with edges
 70
    26
 71
     2
 72
     2
 73
     1
 90
        2
 40
-0.6
 41
30.0
 62
     5
 63
     7
 74
     1
 91
        2
 64
     7
 65
   257
 75
     2
175
     1
 42
1.0
 92
        8
 66
   257
 43
1.0
 76
     1
 77
     6
 78
     2
 67
     7
 79
     3
170
     0
171
     0
290
     0
174
     0
 93
        5
 44
0.0
173
     0
291
     0
 45
0.0
1001
ACAD
1000
AcDbSavedByObjectVersion
1070
     0
  0
VISUALSTYLE
  5
1EF
102
{ACAD_XDICTIONARY
360
441B
102
}
102
{ACAD_REACTORS
330
EF
102
}
330
EF
100
AcDbVisualStyle
  2
Shades of Gray
 70
    23
 71
     2
 72
     2
 73
     3
 90
        0
 40
-0.6
 41
-30.0
 62
     5
 63
     7
 74
     2
 91
        2
 64
     7
 65
     7
 75
     1
175
     1
 42
40.0
 92
        8
 66
     7
 43
1.0
 76
     1
 77
     6
 78
     2
 67
     7
 79
     3
170
     0
171
     0
290
     0
174
     0
 93
        1
 44
0.0
173
     0
291
     0
 45
0.0
1001
ACAD
1000
AcDbSavedByObjectVersion
1070
     0
  0
VISUALSTYLE
  5
1F0
102
{ACAD_XDICTIONARY
360
441D
102
}
102
{ACAD_REACTORS
330
EF
102
}
330
EF
100
AcDbVisualStyle
  2
Sketchy
 70
    24
 71
     1
 72
     2
 73
     2
 90
        0
 40
-0.6
 41
-30.0
 62
     5
 63
     7
 74
     2
 91
        2
 64
     7
 65
     7
 75
     1
175
     1
 42
40.0
 92
       11
 66
     7
 43
1.0
 76
     1
 77
     6
 78
     2
 67
     7
 79
     6
170
     0
171
     0
290
     0
174
     0
 93
        1
 44
0.0
173
     0
291
     0
 45
0.0
1001
ACAD
1000
AcDbSavedByObjectVersion
1070
     0
  0
VISUALSTYLE
  5
FC
102
{ACAD_XDICTIONARY
360
440D
102
}
102
{ACAD_REACTORS
330
EF
102
}
330
EF
100
AcDbVisualStyle
  2
Thicken
 70
    13
 71
     2
 72
     2
 73
     1
 90
        0
 40
-0.6
 41
-30.0
 62
     5
 63
     7
 74
     1
 91
        4
 64
     7
 65
   257
 75
     1
175
     1
 42
1.0
 92
       12
 66
     7
 43
1.0
 76
     1
 77
     6
 78
     2
 67
     7
 79
     5
170
     0
171
     0
290
     0
174
     0
 93
        1
 44
0.0
173
     0
291
     1
 45
0.0
1001
ACAD
1000
AcDbSavedByObjectVersion
1070
     0
  0
VISUALSTYLE
  5
F6
102
{ACAD_XDICTIONARY
360
4401
102
}
102
{ACAD_REACTORS
330
EF
102
}
330
EF
100
AcDbVisualStyle
  2
Wireframe
 70
     5
 71
     0
 72
     2
 73
     0
 90
        0
 40
-0.6
 41
-30.0
 62
     5
 63
     7
 74
     1
 91
        4
 64
     7
 65
   257
 75
     1
175
     1
 42
1.0
 92
        0
 66
   257
 43
1.0
 76
     1
 77
     6
 78
     2
 67
     7
 79
     3
170
     0
171
     0
290
     0
174
     0
 93
        1
 44
0.0
173
     0
291
     0
 45
0.0
1001
ACAD
1000
AcDbSavedByObjectVersion
1070
     0
  0
VISUALSTYLE
  5
1F1
102
{ACAD_XDICTIONARY
360
441F
102
}
102
{ACAD_REACTORS
330
EF
102
}
330
EF
100
AcDbVisualStyle
  2
X-Ray
 70
    25
 71
     2
 72
     2
 73
     1
 90
        1
 40
0.5
 41
-30.0
 62
     5
 63
     7
 74
     1
 91
        0
 64
     7
 65
   257
 75
     1
175
     1
 42
1.0
 92
        8
 66
     7
 43
1.0
 76
     1
 77
     6
 78
     2
 67
     7
 79
     3
170
     0
171
     0
290
     0
174
     0
 93
       13
 44
0.0
173
     0
291
     0
 45
0.0
1001
ACAD
1000
AcDbSavedByObjectVersion
1070
     0
  0
DICTIONARYVAR
  5
146
102
{ACAD_REACTORS
330
5E
102
}
330
5E
100
DictionaryVariables
280
     0
  1
1:1
  0
DICTIONARYVAR
  5
259
102
{ACAD_REACTORS
330
5E
102
}
330
5E
100
DictionaryVariables
280
     0
  1
3.500000
  0
DICTIONARYVAR
  5
25A
102
{ACAD_REACTORS
330
5E
102
}
330
5E
100
DictionaryVariables
280
     0
  1
acadiso.lin
  0
DICTIONARYVAR
  5
145
102
{ACAD_REACTORS
330
5E
102
}
330
5E
100
DictionaryVariables
280
     0
  1
引出線(1-1)
  0
DICTIONARYVAR
  5
84
102
{ACAD_REACTORS
330
5E
102
}
330
5E
100
DictionaryVariables
280
     0
  1
STANDARD
  0
DICTIONARYVAR
  5
227
102
{ACAD_REACTORS
330
5E
102
}
330
5E
100
DictionaryVariables
280
     0
  1
Metric50
  0
DICTIONARYVAR
  5
228
102
{ACAD_REACTORS
330
5E
102
}
330
5E
100
DictionaryVariables
280
     0
  1
Metric50
  0
DICTIONARYVAR
  5
5F
102
{ACAD_REACTORS
330
5E
102
}
330
5E
100
DictionaryVariables
280
     0
  1
2
  0
DICTIONARYVAR
  5
63
102
{ACAD_REACTORS
330
5E
102
}
330
5E
100
DictionaryVariables
280
     0
  1
1
  0
DICTIONARYVAR
  5
884
102
{ACAD_REACTORS
330
5E
102
}
330
5E
100
DictionaryVariables
280
     0
  1
BYLAYER
  0
DICTIONARYVAR
  5
883
102
{ACAD_REACTORS
330
5E
102
}
330
5E
100
DictionaryVariables
280
     0
  1
ByLayer
  0
DICTIONARYVAR
  5
1C62
102
{ACAD_REACTORS
330
5E
102
}
330
5E
100
DictionaryVariables
280
     0
  1
0
  0
DICTIONARYVAR
  5
1AE
102
{ACAD_REACTORS
330
5E
102
}
330
5E
100
DictionaryVariables
280
     0
  1
0
  0
DICTIONARYVAR
  5
1AF
102
{ACAD_REACTORS
330
5E
102
}
330
5E
100
DictionaryVariables
280
     0
  1
0
  0
DICTIONARYVAR
  5
1C60
102
{ACAD_REACTORS
330
5E
102
}
330
5E
100
DictionaryVariables
280
     0
  1
2
  0
DICTIONARYVAR
  5
6FD
102
{ACAD_REACTORS
330
5E
102
}
330
5E
100
DictionaryVariables
280
     0
  1
1.000000
  0
DICTIONARYVAR
  5
1C5F
102
{ACAD_REACTORS
330
5E
102
}
330
5E
100
DictionaryVariables
280
     0
  1
1
  0
DICTIONARYVAR
  5
43E2
102
{ACAD_REACTORS
330
5E
102
}
330
5E
100
DictionaryVariables
280
     0
  1
80.000000
  0
DICTIONARYVAR
  5
43E1
102
{ACAD_REACTORS
330
5E
102
}
330
5E
100
DictionaryVariables
280
     0
  1
5.000000
  0
DICTIONARYVAR
  5
1C61
102
{ACAD_REACTORS
330
5E
102
}
330
5E
100
DictionaryVariables
280
     0
  1
127
  0
DICTIONARYVAR
  5
604
102
{ACAD_REACTORS
330
5E
102
}
330
5E
100
DictionaryVariables
280
     0
  1
左中央
  0
DICTIONARYVAR
  5
43E3
102
{ACAD_REACTORS
330
5E
102
}
330
5E
100
DictionaryVariables
280
     0
  1
2
  0
DICTIONARY
  5
4427
330
21C
100
AcDbDictionary
280
     1
281
     1
  3
ACAD_XREC_ROUNDTRIP
360
4428
  0
DICTIONARY
  5
43EB
330
22
100
AcDbDictionary
280
     1
281
     1
  3
ACAD_XREC_ROUNDTRIP
360
43EC
  0
DICTIONARY
  5
43EE
330
D3
100
AcDbDictionary
280
     1
281
     1
  3
ACAD_XREC_ROUNDTRIP
360
43EF
  0
DICTIONARY
  5
43F0
330
D7
100
AcDbDictionary
280
     1
281
     1
  3
ACAD_XREC_ROUNDTRIP
360
43F1
  0
DICTIONARY
  5
1F9
330
ED
100
AcDbDictionary
280
     1
281
     1
  3
ACAD_XREC_ROUNDTRIP
360
43F3
  3
FBXASSET
360
1FA
  0
DICTIONARY
  5
1F7
330
EC
100
AcDbDictionary
280
     1
281
     1
  3
ACAD_XREC_ROUNDTRIP
360
43F2
  3
FBXASSET
360
1F8
  0
DICTIONARY
  5
173
330
EE
100
AcDbDictionary
280
     1
281
     1
  3
ACAD_XREC_ROUNDTRIP
360
43F4
  3
BUMPTILE
360
175
  3
DIFFUSETILE
360
174
  3
FBXASSET
360
1FB
  3
OPACITYTILE
360
176
  3
REFLECTIONTILE
360
177
  0
DICTIONARY
  5
4429
330
75B
100
AcDbDictionary
280
     1
281
     1
  3
ACAD_XREC_ROUNDTRIP
360
442A
  0
DICTIONARY
  5
442B
330
779
100
AcDbDictionary
280
     1
281
     1
  3
ACAD_XREC_ROUNDTRIP
360
442C
  0
DICTIONARY
  5
4425
330
21A
100
AcDbDictionary
280
     1
281
     1
  3
ACAD_XREC_ROUNDTRIP
360
4426
  0
DICTIONARY
  5
162
330
7F
100
AcDbDictionary
280
     1
281
     1
  3
ACAD_ROUNDTRIP_2008_TABLESTYLE_CELLSTYLEMAP
360
43E4
  3
ACAD_XREC_ROUNDTRIP
360
43ED
  0
DICTIONARY
  5
43FF
330
F5
100
AcDbDictionary
280
     1
281
     1
  3
ACAD_XREC_ROUNDTRIP
360
4400
  0
DICTIONARY
  5
43FD
330
F4
100
AcDbDictionary
280
     1
281
     1
  3
ACAD_XREC_ROUNDTRIP
360
43FE
  0
DICTIONARY
  5
440B
330
FB
100
AcDbDictionary
280
     1
281
     1
  3
ACAD_XREC_ROUNDTRIP
360
440C
  0
DICTIONARY
  5
4413
330
FF
100
AcDbDictionary
280
     1
281
     1
  3
ACAD_XREC_ROUNDTRIP
360
4414
  0
DICTIONARY
  5
4405
330
F8
100
AcDbDictionary
280
     1
281
     1
  3
ACAD_XREC_ROUNDTRIP
360
4406
  0
DICTIONARY
  5
4409
330
FA
100
AcDbDictionary
280
     1
281
     1
  3
ACAD_XREC_ROUNDTRIP
360
440A
  0
DICTIONARY
  5
4419
330
1E6
100
AcDbDictionary
280
     1
281
     1
  3
ACAD_XREC_ROUNDTRIP
360
441A
  0
DICTIONARY
  5
4411
330
FE
100
AcDbDictionary
280
     1
281
     1
  3
ACAD_XREC_ROUNDTRIP
360
4412
  0
DICTIONARY
  5
43F5
330
F0
100
AcDbDictionary
280
     1
281
     1
  3
ACAD_XREC_ROUNDTRIP
360
43F6
  0
DICTIONARY
  5
43F7
330
F1
100
AcDbDictionary
280
     1
281
     1
  3
ACAD_XREC_ROUNDTRIP
360
43F8
  0
DICTIONARY
  5
43F9
330
F2
100
AcDbDictionary
280
     1
281
     1
  3
ACAD_XREC_ROUNDTRIP
360
43FA
  0
DICTIONARY
  5
43FB
330
F3
100
AcDbDictionary
280
     1
281
     1
  3
ACAD_XREC_ROUNDTRIP
360
43FC
  0
DICTIONARY
  5
4403
330
F7
100
AcDbDictionary
280
     1
281
     1
  3
ACAD_XREC_ROUNDTRIP
360
4404
  0
DICTIONARY
  5
4415
330
1E4
100
AcDbDictionary
280
     1
281
     1
  3
ACAD_XREC_ROUNDTRIP
360
4416
  0
DICTIONARY
  5
440F
330
FD
100
AcDbDictionary
280
     1
281
     1
  3
ACAD_XREC_ROUNDTRIP
360
4410
  0
DICTIONARY
  5
4417
330
1E5
100
AcDbDictionary
280
     1
281
     1
  3
ACAD_XREC_ROUNDTRIP
360
4418
  0
DICTIONARY
  5
4407
330
F9
100
AcDbDictionary
280
     1
281
     1
  3
ACAD_XREC_ROUNDTRIP
360
4408
  0
DICTIONARY
  5
4423
330
1F3
100
AcDbDictionary
280
     1
281
     1
  3
ACAD_XREC_ROUNDTRIP
360
4424
  0
DICTIONARY
  5
4421
330
1F2
100
AcDbDictionary
280
     1
281
     1
  3
ACAD_XREC_ROUNDTRIP
360
4422
  0
DICTIONARY
  5
441B
330
1EF
100
AcDbDictionary
280
     1
281
     1
  3
ACAD_XREC_ROUNDTRIP
360
441C
  0
DICTIONARY
  5
441D
330
1F0
100
AcDbDictionary
280
     1
281
     1
  3
ACAD_XREC_ROUNDTRIP
360
441E
  0
DICTIONARY
  5
440D
330
FC
100
AcDbDictionary
280
     1
281
     1
  3
ACAD_XREC_ROUNDTRIP
360
440E
  0
DICTIONARY
  5
4401
330
F6
100
AcDbDictionary
280
     1
281
     1
  3
ACAD_XREC_ROUNDTRIP
360
4402
  0
DICTIONARY
  5
441F
330
1F1
100
AcDbDictionary
280
     1
281
     1
  3
ACAD_XREC_ROUNDTRIP
360
4420
  0
XRECORD
  5
4428
102
{ACAD_REACTORS
330
4427
102
}
330
4427
100
AcDbXrecord
280
     1
102
DISPLAYNAME
  1
Metric50
102
FLAGS
 90
        0
  0
XRECORD
  5
43EC
102
{ACAD_REACTORS
330
43EB
102
}
330
43EB
100
AcDbXrecord
280
     1
102
SHADEPLOT
 70
     0
102
SHADEPLOTRESLEVEL
 70
     2
102
SHADEPLOTCUSTOMDPI
 70
   300
  0
XRECORD
  5
43EF
102
{ACAD_REACTORS
330
43EE
102
}
330
43EE
100
AcDbXrecord
280
     1
102
SHADEPLOT
 70
     0
102
SHADEPLOTRESLEVEL
 70
     2
102
SHADEPLOTCUSTOMDPI
 70
   300
  0
XRECORD
  5
43F1
102
{ACAD_REACTORS
330
43F0
102
}
330
43F0
100
AcDbXrecord
280
     1
102
SHADEPLOT
 70
     0
102
SHADEPLOTRESLEVEL
 70
     2
102
SHADEPLOTCUSTOMDPI
 70
   300
  0
XRECORD
  5
43F3
102
{ACAD_REACTORS
330
1F9
102
}
330
1F9
100
AcDbXrecord
280
     1
102
MATERIAL
148
0.0
149
0.0
149
0.0
 93
        0
 94
       63
282
     0
 72
     1
 77
     1
171
     1
175
     1
179
     1
273
     0
  0
XRECORD
  5
1FA
102
{ACAD_REACTORS
330
1F9
102
}
330
1F9
100
AcDbXrecord
280
     1
 70
     1
 90
429727718
  1
D62C5603-E3A1-4AEA-B7FB-FE5D8D0755AF
310
504B03040A0000080000CC70623B3DEE336E79000000790000001B0000006175746F6465736B2D64657369676E2D7061636B6167652E786D6C3C3F786D6C2076657273696F6E3D22312E302220656E636F64696E673D227574662D3822203F3E3C666F726D6174733E3C666F726D61743E687474703A2F2F736368656D612E
310
6175746F6465736B2E636F6D2F64657369676E2D7061636B6167652F323030393C2F666F726D61743E3C2F666F726D6174733E504B0304140006080800CC70623BD486FD9CA0000000F4000000130000005B436F6E74656E745F54797065735D2E786D6C7D8EC10E82300C865F65E91D8A1E8C310C0EEA1BF002731658846E
310
D98AC1B77784ABF1D8FE5FBFBF75BBCE937A534CCEB38643598122B6FEE978D0B0485F9C41B54DDD7D022595594E1A469170414C76A4D9A4D207E29CF43ECE46F218070CC6BECC4078ACAA135ACF422C856C0E68EA1BF5669944DDD7BCDE7B1F8E415D77AECB980613C2E4AC91FC167A2B244592486606FC29C8FD7F045B9A
310
EF7053A7E60B504B0304140006080800CC70623B853B8169EB0000007C01000008000000636F72652E786D6C8D90416EC3201045AF62CDB6C206821CC7C244919D9CA01740401C94182C03558F5F9C3852BBEB6A467FFE9B197D7EFC9E1EC5975982F5AE035262288C535E5B377690E21535501C055FBC8FBF6C503839990E
310
5619041F179FE64D52DE45E362569DD7661365082642A11EB9E920A89B99642953CC8E702F67A9EE7234257977194EC9EAE275C4EABCCF5EAD5940D4AC6F0E35A568B8F43562CD7046CD199FD07E60174276A7BE677B5EADB0E0D14EEFFB6A31321A0D82627C4084204C3F096B71DD52F6819B16635EADF63F509AF53FA164
310
5DDCD1EDDD17164090FCC8732078B56691CB33A85CD7DCC40F504B0304140006080800CC70623B55019EA25F0000007C00000007000000636E782E786D6C4DCB3B0E80201045D1AD90E915ED2CF8AC45050C11660C8261F98AB1B07AC9C97D42D718D865D3E909258CFD00CCE24AC6E326A164D74DC0B4128928FF32603847
310
2BA13128B1252AC747C6BAB984FC68F0B87FE8960A5C09FE86CFB69FBA01504B0304140006080800CC70623BDBABAAF470010000D40300000C0000006662782F636F72652E786D6CC553D16E823014FD95A6AF4B694182CC941A83FA05FB810A9511A125A5257EFE2E82712ECEB8A7F100CD39F7F69E734AF9FADC366850B6
310
AF8DCE7018308C942E4C59EB2AC3DE1D498AD15A706B8CFB56869196ADCAF00863C12B6B7C374385D14E6907A836A59A41D9F7CA615434B0C8705F7CAA5606D23BA8E84F41278B93AC54100640439DE0BDB320004D43C63716C7C399D30917DCFBBA9CD9BA8469F5B156168B24CED3F7248AC8769F27244EB73B92EED8862C
310
B7F13E0C179B3C8F979C8ECD82BBBABDAA2BAC924E9558448CBD9330242CFA08E3154B5651FCC6D215639C8EE5774DBE2B5F6CF2B5768B68963BB5F5588420E442FC700B1139D4CB01F450C1E918227C2E09DF070D8140C84E1E9AAB8F1340832A9CB13130A5F1376A908D57309505ECF2A0DF179C4E9D30F5B239B87E3823
310
7A79C6F31DE1A8A5AEC08474B03C7837EAE4938639B44E5932B833D2C6B6B279CDC613877FA26EE21F4A2A4C63EC7F29A2F301D1F9F7A0E37D145F504B0304140006080800CC70623B9C113CC27E0000009D0000000B0000006662782F636E782E786D6C4DCCDF0A83201C86E15B91DFB94BFB330DD428C8FB886521330DA7
310
6397BF1A1DECE883878F57749FCDA1B7892F1BBC047A23808C7F84D9FA55424E0BE6803A256208E9EF06C84F9B91703228B1C690F78B66B34CD9A5439DF5CF0BFBF65E35BCA1B8D6A5C6F540381E886698B5741C695F9503EBA150A2F8958E3DC3EA0B504B0304140006080800CC70623B7DF2F77C2A010000120200003100
310
00006662782F41393633353835312D344632462D344230382D423046372D3739314545314133324237412F636F72652E786D6C8D51DB8EC22014FC15C2939B0D2DB4B45643319AE817EC0F6041255A68B86CFCFC856D4D76DF7CE190393373060EDB3DC707F856CE6B6B7A480A0C81328395DA5C7B18C3057510EC3873D686
310
3F34088C18550F330C39BB3A1BA7051AAC09CA84841A2BD5020AEF55806078A44B0FFD7053A328440C89E1EFC52486BBB8AA8214A99D789CF9E05200300FC927E4FB4D5B375D43103D5527440FB843077C5AA3F5861C8F645F5787F59E95B390B318B55CE45AA638FAA2957BD7248B390B7A7CC51F9C124149C82B8C378810
310
84AB2F42B7B8DD56F413775B8C5999E9FF4471926F8AA236A1AE96B8B3CC434E5839373893369E1FAF30EA395917409EB7F26AF8801C171837A4A6AC9C89E9F9C9B1A58BA30FD6A5EF5DDDCF894B9AD9B6A59C957943A9FCAE2FD5BC4DFE03504B0304140006080800CC70623BAD7543B64E01000033030000300000006662
310
782F41393633353835312D344632462D344230382D423046372D3739314545314133324237412F636E782E786D6CD593CD6EC32010845F0571AD6CE3D48AD20813A9873E410FBD12D82434182C7EAAE6EDBB2424CD25871E7B41D6EC30B3FA84F9E67BB2E40B4234DE8DB46F1925E094D7C6ED479AD3AE5951B2113C789FEE
310
6C943839C1488B4C05DF079FE72A69D8C96C13AAD6B8631503449F83828872B949AC57D26200B826A308D316B4064D6E46FCDA41C05550DC9E483A00797BFD207EFB092A45DE9514C1BBD22178396BD39D891265658C238DEA00936C654E5E433CB65A26D9F6EDB5EBC14EBF49A45CB856E66048291F6939A9A81BB5C89177
310
38143CA680F4AA299D66A042CEB3354A2684DC9D8D178FE0D9B8B41CAAD720F880EE7EF93C0C18769E099ECC04D5A102C8049A8A05632F4DDF376CF1DE0F6BB65C2F8627B65A33C6BB62177CEBBDAD973006829F89F22E814B54F4BC2BE347F8AA8F681390B50FA73F804400B5F542E796F19FF974E7F78DB802FE05E20750
310
4B0304140006080800CC70623BE75B7789680500003C100000340000006662782F41393633353835312D344632462D344230382D423046372D3739314545314133324237412F6F626A656374732E786D6CAD575B8F9B3818FD2B887D06C22499CB8AA1CA655245D5B455A356FB305264C061D8018C6C3393D95FBFC7600890
310
A4CD5EF210B0B1BFEBF98E3F7B1FF6596ABC522E1296DF9BAE3D320D9A872C4AF2F8DE2CE5CEBA358D0FBEC719939D65A691938CDE9B6ADAF4BD98B3B2D05311DD91329583D9D5FC0F438434A7A611A644887B5384CF34233629258BA878B12322891DEFF6B66BD70BFB62634E8AE781D082709A4B588AF91C528CDA28B73F
310
1C998EEF39EABBEFA97FBD6A7C7E9553F9D3D79FE442923C3C523610337627CB87ABE99D359D4CC6D6E4FACAB5E6ABF9D2726FC6A3C5F56271377BB88362213924694B38DD99FE47C48627A1E7D49F5A8BB5E1A74C0A599ED3B0F21F1E56366B89112D681E218F0915D0D6F17AD41FBA2A369DCF6335D62ABBD39779D5DDD1
310
11D4D8DE3CBB96B2E04FB8202E41051754A1AA8E8F76B4C6DFE810B580B1547F4B84911149794252234D024EF8BBE963A95AE27B3D310A9D5C215C7960FAEE415ED75694C6AFB17BCACA5D99A60A9AA65F217B0BFC53292ACB92BF283FAD0D3621576592CB5BED907C2FA8E9DF794E35E97BEA31BED21FEB401ABB94C44839
310
DCACBF0E1C5DA8DA5B2F4DFFD32AD86F543D9E565E7056502E157C00AD2671CD534549AB752FCA9CDA00677A313F04E51B22FF19E57B300579E3C97EB29F682D92935CEC18CF901B7B54FD8C51F362B56FC72FE0B3C1EAE335EDCCBF5AEC39ADB17DC238973F804BA5E6F6BFE7AF1FB32E523BE9F3BD571418E3631DCA4D48
310
5250CF639223210A9446CA30052EDF057BD35F8329C1ECD84552BF0DC8D18BE7BCE23BFE6BD960AB4A7DE79923A103BEBD80F911CBAA2C60DB19B01CF164A5583B772EE6D3FFA56666CBCDA74DC97724A48F9A58967497E489C4D979006FD7A05E227A1EBDD0F737C623387A9C844D3709995625106D157315F8B8392CD4E0
310
A0B9A720C4BE9829CEF37EA1E13111214D53925356365ADA634861B52519DD27A00AEB808EAF0628E6F435519D446F45CF2C9CF5214F0A15B2F6D06B79DA3EE3CBF7F56780D2F4E7EF73A0F5E5B02A38D07DC852C6B7C1FBB6664213E0C39E3EBA7FF4E1AD23EA2829407C85E586727488B751B2DB9502BC7B228A3FD68B6E
310
A65A22397E690AA8D158D7E404EC8CDA235CC3B7D1898680131CEC2CDF2638C65196279577750F15884AEE19F94199155B92B13297978469D4F8D358DF0AEF7631E28DC8F0D9F437D5D39A83B2231A1D52D543813A824EF8D44BCFF2FA6A31BD1E8DAD87F1CCB526B3879935BF59CDADD5C37479BB1CDD4CA7B3556B516589
310
EF352754B706114D9C885EC9131DE6EFEB43D99AFE2391C2F958179413D7CFEF6B1B6DB1E7600F00DE6E5C67454A339A4BA2E0FBA85ED26F045D454F463DBFCE484C2F90F2E5E3666003662ED8F755951A7D1BECD5B30B550B2785C8E7320B7292A4838DDA71BBC863ED7613CAF659337A3354231D4FF4A182A54904C2898C
310
98B28C4AD0CE056CCF332A80986E571EE9DBC305BB5FEB7E509220A58D25CF042D712A806AC0AD0C657FDEF80D2D9CEAA2EE4D1C76F60BFE74219A06527D6F82DF6412526107381E55E353090704D085B52408A8913C4ED159D79BDA71BB4BC506F4831350EB6F975CD22D69BF7AC49B91A2C0A9DDA3D5CA36AD20FC478E37
310
E61844E2352865EBCB61A275A65283CAAA9DD27703B4102F5AF51EF5F573B75CBB5AD38BC845F7A49F82A0966A49C2E3EA5EA0ECD326CD965F1DB402C6FA8B51A4658C5C5E2EC9E214602E55810345408596591009A82E7E7FFACA19EEA299B14A0081A705CB3296EBC14CDF658DCD336EA6D1136881AAEB87B81AB9EE53D5
310
F5EB8BC8362082DA24122F98680A4E7930C01A0079749CEA14382A0783E5EBA5A10F8C098456A03D6A4AEB6BB881E2513747552A5DB22C7EDAF83BD5528081A365F7FF06504B0304140006080000CC70623B000000000000000000000000350000006662782F41393633353835312D344632462D344230382D423046372D37
310
39314545314133324237412F76657274696365732E62696E504B0304140006080800CC70623BF270F1330600000004000000360000006662782F41393633353835312D344632462D344230382D423046372D3739314545314133324237412F747269616E676C65732E62696E636660600000504B0304140006080000CC7062
310
3B000000000000000000000000370000006662782F41393633353835312D344632462D344230382D423046372D3739314545314133324237412F617474726962757465732E62696E504B0304140006080800CC70623B08DA0BD19000000041010000360000006662782F41393633353835312D344632462D344230382D4230
310
46372D3739314545314133324237412F6469726563746F72792E786D6C858F410AC3201045AF22B36F53E9A60B35CBEEBAE80D244E44489C6234F4F835464A48035D0DF398FF9F8AF63D0E6CC63039F212F8F9020C7D47C6792B21C5FE7403D62A1188E2E60C98D7234A5830286103A55745067B9D86B8A3CF9C7F90C11DE6
310
07FB144396D7B6A82D282E9A152AD114D5EF2CB866EEE831B8EEA07A7BB5A8D7D61A2BAAEB7FD5F70921FF497D00504B0304140006080800CC70623BEDD1DC58FD000000A00100003B0000006662782F41393633353835312D344632462D344230382D423046372D3739314545314133324237412F7265736F75726365732F
310
636F72652E786D6C8D504B6E833010BD0A9A6D65B00922041947112427E8052C33A156828DFCA97AFC9A40A576D7CDCCE87D344F8F9FBFE667F689CE6B6B3A6039850C8DB2A336530731DC4903D95970676DF82583CCC8193B5861107C72362E3BA4AC096842428D1D7107A5F7182053CF7474E0D507CE32973124857FE48B
310
540F3961CEF244279DE03EB81420DB9EAC1384436FA353E879B1B182C7A8C75DA3C7F453DF353A1075D537A7BA6464B8F535A99AE14A9A2BBD90E350DD183B5CFABE3AF262350B1EF4FC9351399401471025A527C218A1E53BAB5A5AB765F5469B96525EACF23FA6B88CFF34456DC2A1DCE36E360F82A5202F42F062ED2BAD
310
579969AFDD8A6F504B010214000A0000080000CC70623B3DEE336E79000000790000001B00000000000000000000000000000000006175746F6465736B2D64657369676E2D7061636B6167652E786D6C504B01021400140006080800CC70623BD486FD9CA0000000F40000001300000000000000000000000000B20000005B
310
436F6E74656E745F54797065735D2E786D6C504B01021400140006080800CC70623B853B8169EB0000007C010000080000000000000000000000000083010000636F72652E786D6C504B01021400140006080800CC70623B55019EA25F0000007C000000070000000000000000000000000094020000636E782E786D6C504B
310
01021400140006080800CC70623BDBABAAF470010000D40300000C00000000000000000000000000180300006662782F636F72652E786D6C504B01021400140006080800CC70623B9C113CC27E0000009D0000000B00000000000000000000000000B20400006662782F636E782E786D6C504B01021400140006080800CC70
310
623B7DF2F77C2A010000120200003100000000000000000000000000590500006662782F41393633353835312D344632462D344230382D423046372D3739314545314133324237412F636F72652E786D6C504B01021400140006080800CC70623BAD7543B64E010000330300003000000000000000000000000000D2060000
310
6662782F41393633353835312D344632462D344230382D423046372D3739314545314133324237412F636E782E786D6C504B01021400140006080800CC70623BE75B7789680500003C10000034000000000000000000000000006E0800006662782F41393633353835312D344632462D344230382D423046372D3739314545
310
314133324237412F6F626A656374732E786D6C504B01021400140006080000CC70623B0000000000000000000000003500000000000000000000000000280E00006662782F41393633353835312D344632462D344230382D423046372D3739314545314133324237412F76657274696365732E62696E504B01021400140006
310
080800CC70623BF270F133060000000400000036000000000000000000000000007B0E00006662782F41393633353835312D344632462D344230382D423046372D3739314545314133324237412F747269616E676C65732E62696E504B01021400140006080000CC70623B0000000000000000000000003700000000000000
310
000000000000D50E00006662782F41393633353835312D344632462D344230382D423046372D3739314545314133324237412F617474726962757465732E62696E504B01021400140006080800CC70623B08DA0BD1900000004101000036000000000000000000000000002A0F00006662782F41393633353835312D344632
310
462D344230382D423046372D3739314545314133324237412F6469726563746F72792E786D6C504B01021400140006080800CC70623BEDD1DC58FD000000A00100003B000000000000000000000000000E1000006662782F41393633353835312D344632462D344230382D423046372D3739314545314133324237412F7265
310
736F75726365732F636F72652E786D6C504B0506000000000E000E0080040000641100000000
  0
XRECORD
  5
43F2
102
{ACAD_REACTORS
330
1F7
102
}
330
1F7
100
AcDbXrecord
280
     1
102
MATERIAL
148
0.0
149
0.0
149
0.0
 93
        0
 94
       63
282
     0
 72
     1
 77
     1
171
     1
175
     1
179
     1
273
     0
  0
XRECORD
  5
1F8
102
{ACAD_REACTORS
330
1F7
102
}
330
1F7
100
AcDbXrecord
280
     1
 70
     1
 90
429727718
  1
30362254-06B7-45E0-A893-8CFA70E3D6BC
310
504B03040A0000080000CC70623B3DEE336E79000000790000001B0000006175746F6465736B2D64657369676E2D7061636B6167652E786D6C3C3F786D6C2076657273696F6E3D22312E302220656E636F64696E673D227574662D3822203F3E3C666F726D6174733E3C666F726D61743E687474703A2F2F736368656D612E
310
6175746F6465736B2E636F6D2F64657369676E2D7061636B6167652F323030393C2F666F726D61743E3C2F666F726D6174733E504B0304140006080800CC70623BD486FD9CA0000000F4000000130000005B436F6E74656E745F54797065735D2E786D6C7D8EC10E82300C865F65E91D8A1E8C310C0EEA1BF002731658846E
310
D98AC1B77784ABF1D8FE5FBFBF75BBCE937A534CCEB38643598122B6FEE978D0B0485F9C41B54DDD7D022595594E1A469170414C76A4D9A4D207E29CF43ECE46F218070CC6BECC4078ACAA135ACF422C856C0E68EA1BF5669944DDD7BCDE7B1F8E415D77AECB980613C2E4AC91FC167A2B244592486606FC29C8FD7F045B9A
310
EF7053A7E60B504B0304140006080800CC70623B1EC5D7A3EB0000007C01000008000000636F72652E786D6C8D90416EC3201045AF82665B6103C6756C6122AB4D4ED00B204C5C94182C03558F5F9C3852BBEB6A467FFE9B197D71FC9E6FE8CBACC17AD7032D0820E3B41FAD9B7A48F1820F808E52ACDEC75F36404ECDA687
310
4D0629A6D5A76597B477D1B89855E747B38B2A041301E95B6E7A08FAD3CCAA50296647B8168BD2573599823EBB0CA76447F43862C7BCCF5EAC59410E4DDD9C7973C2755553CCCFA4C603E3040F1565ED3B1FDE4E432BCA0D9622DAF9795FAF464533826484B498524CD807E51D79ED187F21878E10516EF63F505AC67F42C9
310
BA58B1FDDD071640D2FCC87D2045B96591CB3DA85CB7DCE40F504B0304140006080800CC70623B55019EA25F0000007C00000007000000636E782E786D6C4DCB3B0E80201045D1AD90E915ED2CF8AC45050C11660C8261F98AB1B07AC9C97D42D718D865D3E909258CFD00CCE24AC6E326A164D74DC0B4128928FF32603847
310
2BA13128B1252AC747C6BAB984FC68F0B87FE8960A5C09FE86CFB69FBA01504B0304140006080800CC70623B8C9102E971010000D40300000C0000006662782F636F72652E786D6CC5535B6E833010BC8AE5DF0A6C08340F1947A84D4ED00B38C6A128602363A31CBFCB234A53A551FA553EC09AD9F5CE8C31DB9E9B1AF5CA
310
7695D1198E428A91D2D214952E33ECDD315861B4E5CC1AE3BE9561A445A3323CC098B3D21ADFCE9034DA29ED00D5A6503328BA4E398C640D8B0C77F253352214DE4145770A5B214FA2546114020D759C75CE8200340D19DE981F0F6746269C33EFAB6266AB02A655C74A59CCF365BADC27CB5D902ED22848F6340DF238A141
310
BE88E2F57B92BFEDF23523433367AE6A2EEAA455C2A902F398D2751045018D3FA264435F3771F242571B4A1919CA6F9A7C5B3CD9E42BED16F12C776AEB308F40C848FC700B1139D4891EF410CEC810227CC6846F8386402064270EF5C5C709A05E49676C024C61FC95EA45ED154CA5211D1FF4FB8291A913A68E9B83EBBB33
310
E2A7673CDE118E5AE8124C0807CB8377834E366998436B950D7A7746DAD846D4CFD978E0F04FD455FC5D49D2D4C6FE9722321F10997F0F32DC47FE05504B0304140006080800CC70623BFFEA85907E0000009D0000000B0000006662782F636E782E786D6C4DCCD10A83201886E15B91FFDC95D95A811AB6F23E625948A6C3
310
E9D8E5AF46073BFAE0E1E365ED67B3E8ADC3CB78C7815C7240DA3DFC64DCC221C519D7805AC182F7F1EF06C88D9BE6703008B6049F9E274D7A1E938DBB5AE3D6131B2589BA0D3D965551E0B2EA732C9B9A624AAEB41E3A557677029960D9AFB4EF11165F504B0304140006080800CC70623B4FEEA4082C0100001202000031
310
0000006662782F39464131463745442D413632322D343644302D413938332D3331353338454246344243312F636F72652E786D6C8D515B6EC32010BC0AE2AB55850DD871ED0813254D72825EC00192A2C460F1A872FC42ED48ED5F7E00CDCECCCEB26C731F6FE05B39AFADE921293004CA082BB5B9F43086336A21D870E6AC
310
0D7F68109861543DCC30E4ECE26C9C164858139409093556AA051CBC570102714B8F1E7AF1A5C6A11862480C7F2DA6415C878B2A4891CA89C7990F2E050073937C42DE1DB7E4F87ED8A36D4329AA9B3D46DBAEAD504556557BD81DEBDD0761E52CE42C462D17B996298E3E6BE59E35C962CE821E1FF18553435012728A7187
310
0841987E927A8D9B35ADDF70BBC6989599FE4F1427F9A4286A132ABAC49D651EF234CD5CE04CDA78BA3DC2A8FB645D00B9DF8B57E215725C60BCA2A463E54C4CE327C7A65E1C7DB02E7DEFCBF594B864C5CA6CDBD49C957943E9FA5D5FBAF336F90F504B0304140006080800CC70623BAD7543B64E01000033030000300000
310
006662782F39464131463745442D413632322D343644302D413938332D3331353338454246344243312F636E782E786D6CD593CD6EC32010845F0571AD6CE3D48AD20813A9873E410FBD12D82434182C7EAAE6EDBB2424CD25871E7B41D6EC30B3FA84F9E67BB2E40B4234DE8DB46F1925E094D7C6ED479AD3AE5951B2113C
310
789FEE6C943839C1488B4C05DF079FE72A69D8C96C13AAD6B8631503449F83828872B949AC57D26200B826A308D316B4064D6E46FCDA41C05550DC9E483A00797BFD207EFB092A45DE9514C1BBD22178396BD39D891265658C238DEA00936C654E5E433CB65A26D9F6EDB5EBC14EBF49A45CB856E66048291F6939A9A81BB5
310
C8917738143CA680F4AA299D66A042CEB3354A2684DC9D8D178FE0D9B8B41CAAD720F880EE7EF93C0C18769E099ECC04D5A102C8049A8A05632F4DDF376CF1DE0F6BB65C2F8627B65A33C6BB62177CEBBDAD973006829F89F22E814B54F4BC2BE347F8AA8F681390B50FA73F804400B5F542E796F19FF974E7F78DB802FE05
310
E207504B0304140006080800CC70623B16AB87BA640500003C100000340000006662782F39464131463745442D413632322D343644302D413938332D3331353338454246344243312F6F626A656374732E786D6CAD575B6FA33818FD2B887DE6924B3BED8A326A92B68A663B534DD4D13E548A0C38942D60649B369D5FBFC7
310
600890A493BDE42160637FD7F31D7FF63E6FB3D478A55C242CBF3247B66B1A340F5994E4F19559CA8D75611A9F7D8F33263BCB4C232719BD32D5B4E97B316765A1A722BA21652A07B3B7B33F0D11D29C9A46981221AE4C113ED38CD8A4942CA2E2C58E882476BCD9DA23BB5ED8171B73523C0F841684D35CC252CCE79062D4
310
468DFA43D7747CCF51DF7D4FFDEB5593E3AB9CCA9FBEFE241792E4E19EB28198C968BAB8199F5D5A67D3E9C49A9E8F47D6EC76B6B0469F26EEFC7C3EBFBCBEB98462213924694B38DD98FE1D62C393D073EA4FADC5DAF04326852CCF6958F90F0F2B9BB5C48816348F90C7840A68EB78EDF68723159BCEE7891A6B95DDE9D3
310
BCEAEEE8086A6C6F9E5D4B59F0175C10A7A0820BAA5055C7473B5AE3CFDD452D602CD5DF12616444529E90D448938013FE6EFA58AA96F85E4F8C42275708571E98FE6827AF6B2B4AE3D7D83D64E5A64C53054DD3AF90BD06FEA9149565C94FCA0F6B834DC85599E4F2423B24DF0B6AFA979E534DFA9E7A4CC6FA631D486393
310
921829879BF5D781A373557BCB85E97FB90DB62B558F8795179C15944B051F40AB495CF35451D26A4727654E6D8033BD98EF82F21D91FF8AF2DD9982BCF1643BDD4EB516C9492E368C67C88DED563FC36D5EACF66DFF057C3658BDBFA69DF9578B3DA735B64F18C7F20770A9D45CFCF7FCF563D6456A277DBEF78A02637CA2
310
43B90A490AEAB94F72244481D24819A6C0E59B606BFA4B3025981DBB48EAB701D97BF19C577CC77F2D1B6C55A9EF3C732474C0B727303F625995056C3B02963D9EAC146BE78EC5FCEC7FA999EBC5EACBAAE41B12D27B4D2C0BBA49F244E2ECDC81B76B502F113D8F5EE8FB1BE3111CDD4FC2AA9B844CAB1288B68AB90A7CDC
310
1C166AB0D3DC5310625FCC14E779BFD0709F8890A629C9292B1B2DED31A4B0DA928CEE135085754027E3018A397D4D5427D15BD1330B677DC8934285AC3DF45A9EB68FF8F2B8FC0A509AFEECFD0FF2DE25CC6047F7214B195F07EFEB9A094D800F7BFAE8FED187B78EA8A3A400F115961BCAD1215E47C966530AF0EE8128FE
310
58CEBB996A8964FFA529A046635D9353B0336A8F700DDF46271A024E70B0B37C9DE01847591E54DED53D54202AB947E4076556AC49C6CA5C9E1226B7F1A7B1BE15DEED62C41B91E1B3E9AFAAA735036547343A925075041DF0A9979E893B391F8FCFA6967B3EFB644DCF6E5CEBFAE272625DCC6FAF3FB93793C5F90CE1EF57
310
407342756B10D1C489E8953CD1617E5CEECAD6F4EF8914CE5D5D504E5C3F1F9736DA62CFC11E00BCDDB8CC8A9466349744C1F75EBDA4DF09BA8A9E8C7A7E9991989E20E5DBDD6A6003664ED8F7A04A8DBE0DF6EAD9B9AA858342E47399053949D2C146EDB85DE4B176BB0965FBAC19BD19AA918E27FA50C1D22402E144464C
310
59462568E704B6E71915404CB72B8FF4EDE184DDAF753F284990D2C6926782963815403548A70C657FDEF80D2D9CEAA2AE4C1C76F60BFE74219A06527D6582DF6412526107381E55E353090704D085B52408D0933C4ED159D79BDA71BB4BC506F4831350EB6F979CD22D69BF7AC49B91A2C0A9DDA3D5CA36AD20FC478E37E6
310
1844E2352865EBCB6EA275A652E3836BE04EFB400BF1A2556F515F1FBB35B2AB35BD889C744FFA1004B5544B121E57F70215746DD2F5E2C1412B602CBF19455AC6C8E5E9922C4E01E65215385004546899059180EAFCF7A707CE7017CD8CDB0410789AB32C63B91E5CEBBBACB17AC6CD347A022D5075FD106377347AAABA7E
310
7D11590744509B44E205134DC1290F06580320F78E537D3D73540E06CB970B431F185308AD40BBD794D6D77003C5A36E8EAA54BA64597CD8F83BD552A080A365F7FF06504B0304140006080000CC70623B000000000000000000000000350000006662782F39464131463745442D413632322D343644302D413938332D3331
310
353338454246344243312F76657274696365732E62696E504B0304140006080800CC70623BF270F1330600000004000000360000006662782F39464131463745442D413632322D343644302D413938332D3331353338454246344243312F747269616E676C65732E62696E636660600000504B0304140006080000CC70623B
310
000000000000000000000000370000006662782F39464131463745442D413632322D343644302D413938332D3331353338454246344243312F617474726962757465732E62696E504B0304140006080800CC70623B08DA0BD19000000041010000360000006662782F39464131463745442D413632322D343644302D413938
310
332D3331353338454246344243312F6469726563746F72792E786D6C858F410AC3201045AF22B36F53E9A60B35CBEEBAE80D244E44489C6234F4F835464A48035D0DF398FF9F8AF63D0E6CC63039F212F8F9020C7D47C6792B21C5FE7403D62A1188E2E60C98D7234A5830286103A55745067B9D86B8A3CF9C7F90C11DE607
310
FB144396D7B6A82D282E9A152AD114D5EF2CB866EEE831B8EEA07A7BB5A8D7D61A2BAAEB7FD5F70921FF497D00504B0304140006080800CC70623B0D6EF93BFE000000A00100003B0000006662782F39464131463745442D413632322D343644302D413938332D3331353338454246344243312F7265736F75726365732F63
310
6F72652E786D6C8D50596E833010BD0A9ADFCA60B334011947A8694ED00B586642AC041B79A97AFC9A40A5F6AF3F33A3B7689E1E3F7DCD8FEC139DD7D6F4C0720A191A65476DA61E62B892236427C19DB5E1970C322367EC618541F0C9D9B8EC90B226A009093576C41D94DE63804C3DD2D18357379C652E63480A7FCF17A9
310
EE72C29CE5894E3AC17D702940B63D59270887DE46A7D0F36263058F518FBB468FE9A7BE6A7420864373B8D4873369AA8691FA421B3294352543C5CAF65C0F6FEF43CB8BD52C78D0F34F46E550061C419494B6843142CB0F5677F4B52BEB177AEC28E5C52AFF638ACBF84F53D42654E51E77B379102C05791282176B5F693D
310
CB4C7BED567C03504B010214000A0000080000CC70623B3DEE336E79000000790000001B00000000000000000000000000000000006175746F6465736B2D64657369676E2D7061636B6167652E786D6C504B01021400140006080800CC70623BD486FD9CA0000000F40000001300000000000000000000000000B20000005B
310
436F6E74656E745F54797065735D2E786D6C504B01021400140006080800CC70623B1EC5D7A3EB0000007C010000080000000000000000000000000083010000636F72652E786D6C504B01021400140006080800CC70623B55019EA25F0000007C000000070000000000000000000000000094020000636E782E786D6C504B
310
01021400140006080800CC70623B8C9102E971010000D40300000C00000000000000000000000000180300006662782F636F72652E786D6C504B01021400140006080800CC70623BFFEA85907E0000009D0000000B00000000000000000000000000B30400006662782F636E782E786D6C504B01021400140006080800CC70
310
623B4FEEA4082C0100001202000031000000000000000000000000005A0500006662782F39464131463745442D413632322D343644302D413938332D3331353338454246344243312F636F72652E786D6C504B01021400140006080800CC70623BAD7543B64E010000330300003000000000000000000000000000D5060000
310
6662782F39464131463745442D413632322D343644302D413938332D3331353338454246344243312F636E782E786D6C504B01021400140006080800CC70623B16AB87BA640500003C1000003400000000000000000000000000710800006662782F39464131463745442D413632322D343644302D413938332D3331353338
310
454246344243312F6F626A656374732E786D6C504B01021400140006080000CC70623B0000000000000000000000003500000000000000000000000000270E00006662782F39464131463745442D413632322D343644302D413938332D3331353338454246344243312F76657274696365732E62696E504B01021400140006
310
080800CC70623BF270F133060000000400000036000000000000000000000000007A0E00006662782F39464131463745442D413632322D343644302D413938332D3331353338454246344243312F747269616E676C65732E62696E504B01021400140006080000CC70623B0000000000000000000000003700000000000000
310
000000000000D40E00006662782F39464131463745442D413632322D343644302D413938332D3331353338454246344243312F617474726962757465732E62696E504B01021400140006080800CC70623B08DA0BD190000000410100003600000000000000000000000000290F00006662782F39464131463745442D413632
310
322D343644302D413938332D3331353338454246344243312F6469726563746F72792E786D6C504B01021400140006080800CC70623B0D6EF93BFE000000A00100003B000000000000000000000000000D1000006662782F39464131463745442D413632322D343644302D413938332D3331353338454246344243312F7265
310
736F75726365732F636F72652E786D6C504B0506000000000E000E0080040000641100000000
  0
XRECORD
  5
43F4
102
{ACAD_REACTORS
330
173
102
}
330
173
100
AcDbXrecord
280
     1
102
MATERIAL
148
0.0
149
0.0
149
0.0
 93
        0
 94
       63
282
     0
 72
     1
 77
     1
171
     1
175
     1
179
     1
273
     0
  0
XRECORD
  5
175
102
{ACAD_REACTORS
330
173
102
}
330
173
100
AcDbXrecord
280
     1
270
     1
271
     1
  0
XRECORD
  5
174
102
{ACAD_REACTORS
330
173
102
}
330
173
100
AcDbXrecord
280
     1
270
     1
271
     1
  0
XRECORD
  5
1FB
102
{ACAD_REACTORS
330
173
102
}
330
173
100
AcDbXrecord
280
     1
 70
     0
 90
1673772943
  1
ECE7A1D2-D628-4531-984C-D00F80459256
310
504B03040A0000080000CC70623B3DEE336E79000000790000001B0000006175746F6465736B2D64657369676E2D7061636B6167652E786D6C3C3F786D6C2076657273696F6E3D22312E302220656E636F64696E673D227574662D3822203F3E3C666F726D6174733E3C666F726D61743E687474703A2F2F736368656D612E
310
6175746F6465736B2E636F6D2F64657369676E2D7061636B6167652F323030393C2F666F726D61743E3C2F666F726D6174733E504B0304140006080800CC70623BD486FD9CA0000000F4000000130000005B436F6E74656E745F54797065735D2E786D6C7D8EC10E82300C865F65E91D8A1E8C310C0EEA1BF002731658846E
310
D98AC1B77784ABF1D8FE5FBFBF75BBCE937A534CCEB38643598122B6FEE978D0B0485F9C41B54DDD7D022595594E1A469170414C76A4D9A4D207E29CF43ECE46F218070CC6BECC4078ACAA135ACF422C856C0E68EA1BF5669944DDD7BCDE7B1F8E415D77AECB980613C2E4AC91FC167A2B244592486606FC29C8FD7F045B9A
310
EF7053A7E60B504B0304140006080800CC70623BD9DDAED0EC0000007C01000008000000636F72652E786D6C8D90416EC3201045AF82665B61836D9CD8C2444DD39CA01740405C94182C03558F5F9C3852BBEB6A467FFE9B197D7EF89E6EE8CB2CC17A37002D0820E394D7D68D03A478C17B4007C117EFE32F1B20272733C0
310
2A83E0E3E2D3BC49CABB685CCCAAF3DA6CA20CC14440EA969B0182FA34932C648AD911AEC52CD5558EA6A0CF2EC329598D1E47ACCEFBECC59A050463A7EA5833865FEBDD0E37353BE3EE8DBDE3F6786A48D375FBF6CC78B9C282473B3DEFABC5C86834888A900E538A49F5419B9EB47DD5BC907D4F082F57FB1F28CDFA9F50
310
B22ED6D5F6EE030B20687EE43E10BC5CB3C8E51E54AE6B6EE207504B0304140006080800CC70623B55019EA25F0000007C00000007000000636E782E786D6C4DCB3B0E80201045D1AD90E915ED2CF8AC45050C11660C8261F98AB1B07AC9C97D42D718D865D3E909258CFD00CCE24AC6E326A164D74DC0B4128928FF326038
310
472BA13128B1252AC747C6BAB984FC68F0B87FE8960A5C09FE86CFB69FBA01504B0304140006080800CC70623BA24EB22D72010000D40300000C0000006662782F636F72652E786D6CC5535B6E833010BC8AE5DF0A6C5E49888CA3A6694ED00B38E05014B091B1518EDFE511A5A9D228FD2A1F60CDEC7A67C6986DCE4D8D7A
310
69BA4AAB0C073EC548AA5C17952A33ECECD15B61B4E1CC686DBF9561A44423333CC098B3D268D7CE50AE9595CA02AA74216750749DB418E5352C32DCE59FB211BE70162ABA93DF8AFC244AE9073ED050C759670D0840D390E18DF9F1706664C23973AE2A66B62A605A75ACA4C13C4976E1364A12EF355A2EBD384AF65EFA96
310
BC7B8BED2EA6719AAE16FB8491A199335B351775B991C2CA02F390D2D40B028F861F41BCA68B7518BFD0D59A524686F29B26D7164F36B94AD9289CE54E6D1DE6010819891F6E21228B3AD1831EC219194284CF98F06DD01008846CC5A1BEF83801D4CBDC6A1303536877A57A513B0953A94FC707FDBE6064EA84A9E3E6E0FA
310
EE8CF0E9198F7784A316AA0413C2C2F2E0ECA0934D1AE6D05A69BCDE9E91D2A611F573361E38FC1375157F5752AE6B6DFE4B11990F88CCBF0719EE23FF02504B0304140006080800CC70623B408A7D3B7C0000009D0000000B0000006662782F636E782E786D6C4DCCD10A83201886E15B91FFDC552A92A0064DBC8F581632
310
D3703A76F9ABD1C18E3E78F878E5F0D9027ABBFCF2292AE86E2D20171F69F6715550CB827B40839639A5F2770314A7CD293819B45C73AAFB45B35BA61ACAA1C1C7E7855C58C15BC331339661262CC762340413D68D77DA5B42298546CBE6573AF60CEB2F504B0304140006080800CC70623B449FB9BD290100001202000031
310
0000006662782F36394639363044362D344446342D343946362D394244322D3234314243333846323333332F636F72652E786D6C8D515B6EC32010BC0AE22B55850D98B871848994463E412FE002495162B07854397EA176A4F62F3F2C9A9D991D587EB84F37F0AD7D30CEF6905418026DA553C65E7A98E219ED203808EE9D
310
8B7F6810D871D23D2C3014FCE25D9A57483A1BB58D19B54EE9151C43D0110279CB971E06F9A5A7B11A53CC8C70ADE6515EC78BAE4895DB992778883E0700CB907242D17643D7E2538BD869608875438BBAE38922CAC8F1BDD90DB4691A5E2F42C153326A951B95E398B3D1FE599322163C9AE9115F7A3D46ADA0A018778810
310
84E907617BDCEE297BC5BB3DC6BC2EF47FA234AB2745C9D8D8D035EE220B50105E2F0DC1954B9FB747187D9F9D8FA0CCDB042D5FA0C015C65B42DF78BD10F3F3B363CB56C7109DCFDFBBB97E662ED92EB62D13BC2E1BCAE5777DB9966D8A1F504B0304140006080800CC70623BAD7543B64E01000033030000300000006662
310
782F36394639363044362D344446342D343946362D394244322D3234314243333846323333332F636E782E786D6CD593CD6EC32010845F0571AD6CE3D48AD20813A9873E410FBD12D82434182C7EAAE6EDBB2424CD25871E7B41D6EC30B3FA84F9E67BB2E40B4234DE8DB46F1925E094D7C6ED479AD3AE5951B2113C789FEE
310
6C943839C1488B4C05DF079FE72A69D8C96C13AAD6B8631503449F83828872B949AC57D26200B826A308D316B4064D6E46FCDA41C05550DC9E483A00797BFD207EFB092A45DE9514C1BBD22178396BD39D891265658C238DEA00936C654E5E433CB65A26D9F6EDB5EBC14EBF49A45CB856E66048291F6939A9A81BB5C89177
310
38143CA680F4AA299D66A042CEB3354A2684DC9D8D178FE0D9B8B41CAAD720F880EE7EF93C0C18769E099ECC04D5A102C8049A8A05632F4DDF376CF1DE0F6BB65C2F8627B65A33C6BB62177CEBBDAD973006829F89F22E814B54F4BC2BE347F8AA8F681390B50FA73F804400B5F542E796F19FF974E7F78DB802FE05E20750
310
4B0304140006080800CC70623B8D05915C650500003B100000340000006662782F36394639363044362D344446342D343946362D394244322D3234314243333846323333332F6F626A656374732E786D6CAD575B6FA33814FE2B887D06429276DA1565D4266D158D3A339A6846FB502932E050B66023DB74D2FDF5FB190C01
310
9276B2973C046C8ECFF53B17071F77456EBD502133CEAE6CDF9DD81665314F32965ED995DA3A17B6F5310C04E7AA47665B8C14F4CAD6DB7618A48257A5D94AE89654B91AEDDEDDFC61C998326A5B714EA4BCB265FC440BE2924AF184CA6737218AB8E976E7FA6E4338649B0A523E8D98964450A6A029F619B8588D52FE7039
310
B1BD30F0F4F730D0FF866AF6369557DB33949F31A9088B0F848DD8CCFCF9F2767A76E99CCDE733677E3EF59D9BBB9BA5E37F984D16E78BC5E5F5ED25044B25C0C96822E8D60EEFE11B91C581D77CEA34368A1F5329E68CD1B8B61F16D63A1B8E092D294B10C78C4A48EB593D192E7DED9BDEE7995E1B91FDEDD3ACEA9FE831
310
6A756F9F7D4D79F4274C90A7A04248AA51D5F8C718DAE06FB2F75AC4796EBE65D22A88A22223B995679120E2D50E41AA49C260C046A35368846B0BECD0DFF3EBEB8AD4F835768F69B9ADF25C43D30E6B646F807FAA64AD59F61715C7A54127C4AACA98BA3006A9D792DAE165E0D59B61A01FB3A9F9D838D2DAE62445C86166
310
F37564E842E7DE6A69879FEEA2DD5AE7E371E1A5E025154AC307D06A03D73EB5978C58FFA4C8E9033066E0F3BD53BEC1F39F91BE7B55103791EDE6BBB991A2046172CB4581D8B893FA674DDA17A77B3B7C413D1B511FD2743BFF8A38F03A658705E3ADF8015C3A3417FF3D7E439FF591DA0B5F18BC20C1B8981957AE6392A3
310
F43C640C01D1A0B4728E2DD4F26DB4B3C3152A252A3B4E913CEC1C72F012782FF88EFF8637AA552DBEF76408E8A8DE9E50F9E1CB3A2DA0DB1B6039A893B56063DC5B3E3FFB5F72E67AB9FEB4AEC496C4F4C1149625DD662C53E89D7BF0F6151A046260D1337DFDC94502430F83B0EE07A130A224BCAD7DAE1D9FB6CD422FF6
310
920702629C4BB9AE79C12F243C6432A6794E18E5552BA56B431AAB5D91317302B2B071E86C3A42B1A02F999E24061403B5D0EB639195DA655DD3EBEAB4FB862DDF579F014AD0E73C22F99E28DA57FB98E75C6CA2D74D53086D600F4786E0FE3144B771A8A7B900F03594DB8A633CBC49B2EDB69228BB479CF863B5E807AAAB
310
23872F6DFEB4129B949CA33823F58830E86D65621E10047D9DB34D862E8EAC3C2ABC2F7B2C40D67CDFE01F5545B92105AF983AC54D93D69E56FB8E797F88913F898A9FEC705D3F9D1B54EC8426FB500D40A03BD0119B06E1B95DDC7EB8F6975367793EBD70E66733DFB9BC982F9CE564727731999F5D4ECFCE3B8D6A4DC2A0
310
6D50FD148437D110834A64C6CDDF57FBACB5C307A2A477DFE4939736CFEF2B175371E0E10CF0DD1D5C15654E0BCA14D1E87DD02FF93782A162C0A3D95F1524A52770F972BF1EE9809D13CE7DD599467F8ECE9ADD85CE85A34CD45355448C64F9E8A031DC2D596ACC6E5DD93D9B82DE2EF5CAF81363A8E47996A0DE24564A79
310
4115AACE09C55E14540231FDA13C319787134EBF34E3A022514E5B4D9E0826E25C02D5805B15ABE1BEF51B26383D445DD9E875EE33FE4C22DA16427D65A3BCA92CA6D28DD01DF5DC53330704308475351050232CCD31583787BA75774AFB06E5070DD0C8EF484E19968C5D83BA5B90B244D31E54D55A372320FE4786B7EA58
310
44E135AA5467CB7EA333A61683CC6A8C3257034C10CF46F40EF9F5BE59BE5BD30C3C72D235E95D10345C1D45445A5F0BB47E46A5EBE5570F9380B5FA629579952296A773720405982B9DE04011506178964401AA8BDF1FBF0A8EAB6861DD6580C0E38217056766716DAEB2D6FA0917D3E4116581EADB879C4E7CFFB11EFACD
310
3D641311495D92C8676CB409A72D18610D803CE8A626049E8EC1887CB5B44CC39883690DDA8399B4B9855B481E7D71D4A9D22F96E5BB73BF5793020C02137BF837504B0304140006080000CC70623B000000000000000000000000350000006662782F36394639363044362D344446342D343946362D394244322D32343142
310
43333846323333332F76657274696365732E62696E504B0304140006080800CC70623BF270F1330600000004000000360000006662782F36394639363044362D344446342D343946362D394244322D3234314243333846323333332F747269616E676C65732E62696E636660600000504B0304140006080000CC70623B0000
310
00000000000000000000370000006662782F36394639363044362D344446342D343946362D394244322D3234314243333846323333332F617474726962757465732E62696E504B0304140006080800CC70623B08DA0BD19000000041010000360000006662782F36394639363044362D344446342D343946362D394244322D
310
3234314243333846323333332F6469726563746F72792E786D6C858F410AC3201045AF22B36F53E9A60B35CBEEBAE80D244E44489C6234F4F835464A48035D0DF398FF9F8AF63D0E6CC63039F212F8F9020C7D47C6792B21C5FE7403D62A1188E2E60C98D7234A5830286103A55745067B9D86B8A3CF9C7F90C11DE607FB14
310
4396D7B6A82D282E9A152AD114D5EF2CB866EEE831B8EEA07A7BB5A8D7D61A2BAAEB7FD5F70921FF497D00504B0304140006080800CC70623BCA768048FE000000A00100003B0000006662782F36394639363044362D344446342D343946362D394244322D3234314243333846323333332F7265736F75726365732F636F72
310
652E786D6C8D50596E833010BD0A9ADFCA60D600328E9AA639412F609909B1126CE4A5EAF16B0295DABFFECC8CDEA2797AECF8353F924FB44E193D409E5248504B332A3D0D10FC95B4901C39B3C6F85F3248B49871801506CE266BC2B243D2688FDA47549B11775038871E12F988C7004EDE7016A9083E2ADC3D5D84BC8B09
310
D33C8D74D471E6BC8D0192EDC93A815B742658898E651BCB59086ADC356A8C3FD555A1055ED7E7E254D615792D0F075295F585746FF53B694EE78A565DD736979A65AB9933AFE69F8CD2A2F038022F28ED489E135A7CE4554F9BBEA85E68DB53CAB255FEC71496F19FA6A0B42F8B3DEE6673C0F318E4497096AD7DC5F52C33
310
EEB55BFE0D504B010214000A0000080000CC70623B3DEE336E79000000790000001B00000000000000000000000000000000006175746F6465736B2D64657369676E2D7061636B6167652E786D6C504B01021400140006080800CC70623BD486FD9CA0000000F40000001300000000000000000000000000B20000005B436F
310
6E74656E745F54797065735D2E786D6C504B01021400140006080800CC70623BD9DDAED0EC0000007C010000080000000000000000000000000083010000636F72652E786D6C504B01021400140006080800CC70623B55019EA25F0000007C000000070000000000000000000000000095020000636E782E786D6C504B0102
310
1400140006080800CC70623BA24EB22D72010000D40300000C00000000000000000000000000190300006662782F636F72652E786D6C504B01021400140006080800CC70623B408A7D3B7C0000009D0000000B00000000000000000000000000B50400006662782F636E782E786D6C504B01021400140006080800CC70623B
310
449FB9BD290100001202000031000000000000000000000000005A0500006662782F36394639363044362D344446342D343946362D394244322D3234314243333846323333332F636F72652E786D6C504B01021400140006080800CC70623BAD7543B64E010000330300003000000000000000000000000000D20600006662
310
782F36394639363044362D344446342D343946362D394244322D3234314243333846323333332F636E782E786D6C504B01021400140006080800CC70623B8D05915C650500003B10000034000000000000000000000000006E0800006662782F36394639363044362D344446342D343946362D394244322D32343142433338
310
46323333332F6F626A656374732E786D6C504B01021400140006080000CC70623B0000000000000000000000003500000000000000000000000000250E00006662782F36394639363044362D344446342D343946362D394244322D3234314243333846323333332F76657274696365732E62696E504B010214001400060808
310
00CC70623BF270F13306000000040000003600000000000000000000000000780E00006662782F36394639363044362D344446342D343946362D394244322D3234314243333846323333332F747269616E676C65732E62696E504B01021400140006080000CC70623B00000000000000000000000037000000000000000000
310
00000000D20E00006662782F36394639363044362D344446342D343946362D394244322D3234314243333846323333332F617474726962757465732E62696E504B01021400140006080800CC70623B08DA0BD190000000410100003600000000000000000000000000270F00006662782F36394639363044362D344446342D
310
343946362D394244322D3234314243333846323333332F6469726563746F72792E786D6C504B01021400140006080800CC70623BCA768048FE000000A00100003B000000000000000000000000000B1000006662782F36394639363044362D344446342D343946362D394244322D3234314243333846323333332F7265736F
310
75726365732F636F72652E786D6C504B0506000000000E000E0080040000621100000000
  0
XRECORD
  5
176
102
{ACAD_REACTORS
330
173
102
}
330
173
100
AcDbXrecord
280
     1
270
     1
271
     1
  0
XRECORD
  5
177
102
{ACAD_REACTORS
330
173
102
}
330
173
100
AcDbXrecord
280
     1
270
     1
271
     1
  0
XRECORD
  5
442A
102
{ACAD_REACTORS
330
4429
102
}
330
4429
100
AcDbXrecord
280
     1
102
SHADEPLOT
 70
     0
102
SHADEPLOTRESLEVEL
 70
     2
102
SHADEPLOTCUSTOMDPI
 70
   300
  0
XRECORD
  5
442C
102
{ACAD_REACTORS
330
442B
102
}
330
442B
100
AcDbXrecord
280
     1
102
SHADEPLOT
 70
     0
102
SHADEPLOTRESLEVEL
 70
     2
102
SHADEPLOTCUSTOMDPI
 70
   300
  0
XRECORD
  5
4426
102
{ACAD_REACTORS
330
4425
102
}
330
4425
100
AcDbXrecord
280
     1
102
DISPLAYNAME
  1
Metric50
102
FLAGS
 90
        0
  0
CELLSTYLEMAP
  5
43E4
102
{ACAD_REACTORS
330
162
102
}
330
162
100
AcDbCellStyleMap
 90
        3
300
CELLSTYLE
  1
TABLEFORMAT_BEGIN
 90
        5
170
     1
 91
        0
 92
    32768
 62
   257
 93
        1
300
CONTENTFORMAT
  1
CONTENTFORMAT_BEGIN
 90
        0
 91
        0
 92
      512
 93
        0
300

 40
0.0
140
1.0
 94
        5
 62
     0
340
11
144
6.0
309
CONTENTFORMAT_END
171
     1
301
MARGIN
  1
CELLMARGIN_BEGIN
 40
1.5
 40
1.5
 40
1.5
 40
1.5
 40
4.5
 40
4.5
309
CELLMARGIN_END
 94
        6
 95
        1
302
GRIDFORMAT
  1
GRIDFORMAT_BEGIN
 90
        0
 91
        1
 62
     0
 92
       -2
340
14
 93
        0
 40
1.125
309
GRIDFORMAT_END
 95
        2
302
GRIDFORMAT
  1
GRIDFORMAT_BEGIN
 90
        0
 91
        1
 62
     0
 92
       -2
340
14
 93
        0
 40
1.125
309
GRIDFORMAT_END
 95
        4
302
GRIDFORMAT
  1
GRIDFORMAT_BEGIN
 90
        0
 91
        1
 62
     0
 92
       -2
340
14
 93
        0
 40
1.125
309
GRIDFORMAT_END
 95
        8
302
GRIDFORMAT
  1
GRIDFORMAT_BEGIN
 90
        0
 91
        1
 62
     0
 92
       -2
340
14
 93
        0
 40
1.125
309
GRIDFORMAT_END
 95
       16
302
GRIDFORMAT
  1
GRIDFORMAT_BEGIN
 90
        0
 91
        1
 62
     0
 92
       -2
340
14
 93
        0
 40
1.125
309
GRIDFORMAT_END
 95
       32
302
GRIDFORMAT
  1
GRIDFORMAT_BEGIN
 90
        0
 91
        1
 62
     0
 92
       -2
340
14
 93
        0
 40
1.125
309
GRIDFORMAT_END
309
TABLEFORMAT_END
  1
CELLSTYLE_BEGIN
 90
        1
 91
        1
300
_TITLE
309
CELLSTYLE_END
300
CELLSTYLE
  1
TABLEFORMAT_BEGIN
 90
        5
170
     1
 91
        0
 92
        0
 62
   257
 93
        1
300
CONTENTFORMAT
  1
CONTENTFORMAT_BEGIN
 90
        0
 91
        0
 92
      512
 93
        0
300

 40
0.0
140
1.0
 94
        5
 62
     0
340
11
144
4.5
309
CONTENTFORMAT_END
171
     1
301
MARGIN
  1
CELLMARGIN_BEGIN
 40
1.5
 40
1.5
 40
1.5
 40
1.5
 40
4.5
 40
4.5
309
CELLMARGIN_END
 94
        6
 95
        1
302
GRIDFORMAT
  1
GRIDFORMAT_BEGIN
 90
        0
 91
        1
 62
     0
 92
       -2
340
14
 93
        0
 40
1.125
309
GRIDFORMAT_END
 95
        2
302
GRIDFORMAT
  1
GRIDFORMAT_BEGIN
 90
        0
 91
        1
 62
     0
 92
       -2
340
14
 93
        0
 40
1.125
309
GRIDFORMAT_END
 95
        4
302
GRIDFORMAT
  1
GRIDFORMAT_BEGIN
 90
        0
 91
        1
 62
     0
 92
       -2
340
14
 93
        0
 40
1.125
309
GRIDFORMAT_END
 95
        8
302
GRIDFORMAT
  1
GRIDFORMAT_BEGIN
 90
        0
 91
        1
 62
     0
 92
       -2
340
14
 93
        0
 40
1.125
309
GRIDFORMAT_END
 95
       16
302
GRIDFORMAT
  1
GRIDFORMAT_BEGIN
 90
        0
 91
        1
 62
     0
 92
       -2
340
14
 93
        0
 40
1.125
309
GRIDFORMAT_END
 95
       32
302
GRIDFORMAT
  1
GRIDFORMAT_BEGIN
 90
        0
 91
        1
 62
     0
 92
       -2
340
14
 93
        0
 40
1.125
309
GRIDFORMAT_END
309
TABLEFORMAT_END
  1
CELLSTYLE_BEGIN
 90
        2
 91
        1
300
_HEADER
309
CELLSTYLE_END
300
CELLSTYLE
  1
TABLEFORMAT_BEGIN
 90
        5
170
     1
 91
        0
 92
        0
 62
   257
 93
        1
300
CONTENTFORMAT
  1
CONTENTFORMAT_BEGIN
 90
        0
 91
        0
 92
      512
 93
        0
300

 40
0.0
140
1.0
 94
        2
 62
     0
340
11
144
4.5
309
CONTENTFORMAT_END
171
     1
301
MARGIN
  1
CELLMARGIN_BEGIN
 40
1.5
 40
1.5
 40
1.5
 40
1.5
 40
4.5
 40
4.5
309
CELLMARGIN_END
 94
        6
 95
        1
302
GRIDFORMAT
  1
GRIDFORMAT_BEGIN
 90
        0
 91
        1
 62
     0
 92
       -2
340
14
 93
        0
 40
1.125
309
GRIDFORMAT_END
 95
        2
302
GRIDFORMAT
  1
GRIDFORMAT_BEGIN
 90
        0
 91
        1
 62
     0
 92
       -2
340
14
 93
        0
 40
1.125
309
GRIDFORMAT_END
 95
        4
302
GRIDFORMAT
  1
GRIDFORMAT_BEGIN
 90
        0
 91
        1
 62
     0
 92
       -2
340
14
 93
        0
 40
1.125
309
GRIDFORMAT_END
 95
        8
302
GRIDFORMAT
  1
GRIDFORMAT_BEGIN
 90
        0
 91
        1
 62
     0
 92
       -2
340
14
 93
        0
 40
1.125
309
GRIDFORMAT_END
 95
       16
302
GRIDFORMAT
  1
GRIDFORMAT_BEGIN
 90
        0
 91
        1
 62
     0
 92
       -2
340
14
 93
        0
 40
1.125
309
GRIDFORMAT_END
 95
       32
302
GRIDFORMAT
  1
GRIDFORMAT_BEGIN
 90
        0
 91
        1
 62
     0
 92
       -2
340
14
 93
        0
 40
1.125
309
GRIDFORMAT_END
309
TABLEFORMAT_END
  1
CELLSTYLE_BEGIN
 90
        3
 91
        2
300
_DATA
309
CELLSTYLE_END
  0
XRECORD
  5
43ED
102
{ACAD_REACTORS
330
162
102
}
330
162
100
AcDbXrecord
280
     1
102
ACAD_ROUNDTRIP_PRE2007_TABLESTYLE
 90
      512
 91
        0
  1

 92
      512
 93
        0
  2

 94
      512
 95
        0
  3

  0
XRECORD
  5
4400
102
{ACAD_REACTORS
330
43FF
102
}
330
43FF
100
AcDbXrecord
280
     1
102
RTVSPost2010Prop28
280
     1
102
RTVSPost2010PropOp28
 70
     1
102
RTVSPost2010Prop29
280
     1
102
RTVSPost2010PropOp29
 70
     1
102
RTVSPost2010Prop30
280
     0
102
RTVSPost2010PropOp30
 70
     1
102
RTVSPost2010Prop31
280
     0
102
RTVSPost2010PropOp31
 70
     1
102
RTVSPost2010Prop32
280
     0
102
RTVSPost2010PropOp32
 70
     1
102
RTVSPost2010Prop33
280
     0
102
RTVSPost2010PropOp33
 70
     1
102
RTVSPost2010Prop34
280
     0
102
RTVSPost2010PropOp34
 70
     1
102
RTVSPost2010Prop35
280
     0
102
RTVSPost2010PropOp35
 70
     1
102
RTVSPost2010Prop36
280
     0
102
RTVSPost2010PropOp36
 70
     1
102
RTVSPost2010Prop37
 90
       50
102
RTVSPost2010PropOp37
 70
     1
102
RTVSPost2010Prop38
140
0.0
102
RTVSPost2010PropOp38
 70
     1
102
RTVSPost2010Prop39
140
1.0
102
RTVSPost2010PropOp39
 70
     1
102
RTVSPost2010Prop40
 90
        0
102
RTVSPost2010PropOp40
 70
     1
102
RTVSPost2010Prop41ColorIndex
 90
       18
102
RTVSPost2010Prop41ColorRGB
 90
        0
102
RTVSPost2010PropOp41
 70
     1
102
RTVSPost2010Prop42
 90
       50
102
RTVSPost2010PropOp42
 70
     1
102
RTVSPost2010Prop43
 90
        3
102
RTVSPost2010PropOp43
 70
     1
102
RTVSPost2010Prop44ColorIndex
 90
        5
102
RTVSPost2010Prop44ColorRGB
 90
      255
102
RTVSPost2010PropOp44
 70
     1
102
RTVSPost2010Prop45
280
     0
102
RTVSPost2010PropOp45
 70
     1
102
RTVSPost2010Prop46
 90
       50
102
RTVSPost2010PropOp46
 70
     1
102
RTVSPost2010Prop47
 90
       50
102
RTVSPost2010PropOp47
 70
     1
102
RTVSPost2010Prop48
 90
       50
102
RTVSPost2010PropOp48
 70
     1
102
RTVSPost2010Prop49
280
     0
102
RTVSPost2010PropOp49
 70
     1
102
RTVSPost2010Prop50
 90
       50
102
RTVSPost2010PropOp50
 70
     1
102
RTVSPost2010Prop51ColorIndex
 90
      256
102
RTVSPost2010Prop51ColorRGB
 90
-16777216
102
RTVSPost2010PropOp51
 70
     0
102
RTVSPost2010Prop52
140
1.0
102
RTVSPost2010PropOp52
 70
     0
102
RTVSPost2010Prop53
 90
        2
102
RTVSPost2010PropOp53
 70
     1
102
RTVSPost2010Prop54
  1
strokes_ogs.tif
102
RTVSPost2010PropOp54
 70
     1
102
RTVSPost2010Prop55
280
     0
102
RTVSPost2010PropOp55
 70
     1
102
RTVSPost2010Prop56
140
1.0
102
RTVSPost2010PropOp56
 70
     1
102
RTVSPost2010Prop57
140
1.0
102
RTVSPost2010PropOp57
 70
     1
102
RTVSPropertyOp0
 70
     1
102
RTVSPropertyOp1
 70
     1
102
RTVSPropertyOp2
 70
     1
102
RTVSPropertyOp3
 70
     1
102
RTVSPropertyOp4
 70
     1
102
RTVSPropertyOp5
 70
     1
102
RTVSPropertyOp6
 70
     1
102
RTVSPropertyOp7
 70
     1
102
RTVSPropertyOp8
 70
     1
102
RTVSPropertyOp9
 70
     1
102
RTVSPropertyOp10
 70
     1
102
RTVSPropertyOp11
 70
     1
102
RTVSPropertyOp12
 70
     1
102
RTVSPropertyOp13
 70
     1
102
RTVSPropertyOp14
 70
     1
102
RTVSPropertyOp15
 70
     1
102
RTVSPropertyOp16
 70
     1
102
RTVSPropertyOp17
 70
     1
102
RTVSPropertyOp18
 70
     1
102
RTVSPropertyOp19
 70
     1
102
RTVSPropertyOp20
 70
     1
102
RTVSPropertyOp21
 70
     1
102
RTVSPropertyOp22
 70
     1
102
RTVSPropertyOp23
 70
     1
102
RTVSPropertyOp24
 70
     1
102
RTVSPropertyOp25
 70
     1
102
RTVSPropertyOp26
 70
     1
102
RTVSPropertyOp27
 70
     1
102
RTVSPropertyOp28
 70
     1
102
RTVSPropertyOp29
 70
     1
102
RTVSPropertyOp30
 70
     1
102
RTVSPropertyOp31
 70
     1
102
RTVSPropertyOp32
 70
     1
102
RTVSPropertyOp33
 70
     1
102
RTVSPropertyOp34
 70
     1
102
RTVSPropertyOp35
 70
     1
102
RTVSPropertyOp36
 70
     1
102
RTVSPropertyOp37
 70
     1
102
RTVSPropertyOp38
 70
     1
102
RTVSPropertyOp39
 70
     1
102
RTVSPropertyOp40
 70
     1
102
RTVSPropertyOp41
 70
     1
102
RTVSPropertyOp42
 70
     1
102
RTVSPropertyOp43
 70
     1
102
RTVSPropertyOp44
 70
     1
102
RTVSPropertyOp45
 70
     1
102
RTVSPropertyOp46
 70
     1
102
RTVSPropertyOp47
 70
     1
102
RTVSPropertyOp48
 70
     1
102
RTVSPropertyOp49
 70
     1
102
RTVSPropertyOp50
 70
     1
102
RTVSPropertyOp51
 70
     0
102
RTVSPropertyOp52
 70
     0
102
RTVSPropertyOp53
 70
     1
102
RTVSPropertyOp54
 70
     1
102
RTVSPropertyOp55
 70
     1
102
RTVSPropertyOp56
 70
     1
102
RTVSPropertyOp57
 70
     1
102
RTVSPropertyOp58
 70
     1
102
RTVSPropertyOp59
 70
     1
102
RTVSPropertyOp60
 70
     1
102
RTVSPropertyOp61
 70
     1
102
RTVSPropertyOp62
 70
     1
  0
XRECORD
  5
43FE
102
{ACAD_REACTORS
330
43FD
102
}
330
43FD
100
AcDbXrecord
280
     1
102
RTVSPost2010Prop28
280
     0
102
RTVSPost2010PropOp28
 70
     1
102
RTVSPost2010Prop29
280
     1
102
RTVSPost2010PropOp29
 70
     1
102
RTVSPost2010Prop30
280
     1
102
RTVSPost2010PropOp30
 70
     1
102
RTVSPost2010Prop31
280
     0
102
RTVSPost2010PropOp31
 70
     1
102
RTVSPost2010Prop32
280
     0
102
RTVSPost2010PropOp32
 70
     1
102
RTVSPost2010Prop33
280
     0
102
RTVSPost2010PropOp33
 70
     1
102
RTVSPost2010Prop34
280
     0
102
RTVSPost2010PropOp34
 70
     1
102
RTVSPost2010Prop35
280
     0
102
RTVSPost2010PropOp35
 70
     1
102
RTVSPost2010Prop36
280
     0
102
RTVSPost2010PropOp36
 70
     1
102
RTVSPost2010Prop37
 90
       50
102
RTVSPost2010PropOp37
 70
     1
102
RTVSPost2010Prop38
140
0.0
102
RTVSPost2010PropOp38
 70
     1
102
RTVSPost2010Prop39
140
1.0
102
RTVSPost2010PropOp39
 70
     1
102
RTVSPost2010Prop40
 90
        0
102
RTVSPost2010PropOp40
 70
     1
102
RTVSPost2010Prop41ColorIndex
 90
       18
102
RTVSPost2010Prop41ColorRGB
 90
        0
102
RTVSPost2010PropOp41
 70
     1
102
RTVSPost2010Prop42
 90
       50
102
RTVSPost2010PropOp42
 70
     1
102
RTVSPost2010Prop43
 90
        3
102
RTVSPost2010PropOp43
 70
     1
102
RTVSPost2010Prop44ColorIndex
 90
        5
102
RTVSPost2010Prop44ColorRGB
 90
      255
102
RTVSPost2010PropOp44
 70
     1
102
RTVSPost2010Prop45
280
     0
102
RTVSPost2010PropOp45
 70
     1
102
RTVSPost2010Prop46
 90
       50
102
RTVSPost2010PropOp46
 70
     1
102
RTVSPost2010Prop47
 90
       50
102
RTVSPost2010PropOp47
 70
     1
102
RTVSPost2010Prop48
 90
       50
102
RTVSPost2010PropOp48
 70
     1
102
RTVSPost2010Prop49
280
     0
102
RTVSPost2010PropOp49
 70
     1
102
RTVSPost2010Prop50
 90
       50
102
RTVSPost2010PropOp50
 70
     1
102
RTVSPost2010Prop51ColorIndex
 90
      256
102
RTVSPost2010Prop51ColorRGB
 90
-16777216
102
RTVSPost2010PropOp51
 70
     0
102
RTVSPost2010Prop52
140
1.0
102
RTVSPost2010PropOp52
 70
     0
102
RTVSPost2010Prop53
 90
        2
102
RTVSPost2010PropOp53
 70
     1
102
RTVSPost2010Prop54
  1
strokes_ogs.tif
102
RTVSPost2010PropOp54
 70
     1
102
RTVSPost2010Prop55
280
     0
102
RTVSPost2010PropOp55
 70
     1
102
RTVSPost2010Prop56
140
1.0
102
RTVSPost2010PropOp56
 70
     1
102
RTVSPost2010Prop57
140
1.0
102
RTVSPost2010PropOp57
 70
     1
102
RTVSPropertyOp0
 70
     1
102
RTVSPropertyOp1
 70
     1
102
RTVSPropertyOp2
 70
     1
102
RTVSPropertyOp3
 70
     1
102
RTVSPropertyOp4
 70
     1
102
RTVSPropertyOp5
 70
     1
102
RTVSPropertyOp6
 70
     1
102
RTVSPropertyOp7
 70
     1
102
RTVSPropertyOp8
 70
     1
102
RTVSPropertyOp9
 70
     1
102
RTVSPropertyOp10
 70
     1
102
RTVSPropertyOp11
 70
     1
102
RTVSPropertyOp12
 70
     1
102
RTVSPropertyOp13
 70
     1
102
RTVSPropertyOp14
 70
     1
102
RTVSPropertyOp15
 70
     1
102
RTVSPropertyOp16
 70
     1
102
RTVSPropertyOp17
 70
     1
102
RTVSPropertyOp18
 70
     1
102
RTVSPropertyOp19
 70
     1
102
RTVSPropertyOp20
 70
     1
102
RTVSPropertyOp21
 70
     1
102
RTVSPropertyOp22
 70
     1
102
RTVSPropertyOp23
 70
     1
102
RTVSPropertyOp24
 70
     1
102
RTVSPropertyOp25
 70
     1
102
RTVSPropertyOp26
 70
     1
102
RTVSPropertyOp27
 70
     1
102
RTVSPropertyOp28
 70
     1
102
RTVSPropertyOp29
 70
     1
102
RTVSPropertyOp30
 70
     1
102
RTVSPropertyOp31
 70
     1
102
RTVSPropertyOp32
 70
     1
102
RTVSPropertyOp33
 70
     1
102
RTVSPropertyOp34
 70
     1
102
RTVSPropertyOp35
 70
     1
102
RTVSPropertyOp36
 70
     1
102
RTVSPropertyOp37
 70
     1
102
RTVSPropertyOp38
 70
     1
102
RTVSPropertyOp39
 70
     1
102
RTVSPropertyOp40
 70
     1
102
RTVSPropertyOp41
 70
     1
102
RTVSPropertyOp42
 70
     1
102
RTVSPropertyOp43
 70
     1
102
RTVSPropertyOp44
 70
     1
102
RTVSPropertyOp45
 70
     1
102
RTVSPropertyOp46
 70
     1
102
RTVSPropertyOp47
 70
     1
102
RTVSPropertyOp48
 70
     1
102
RTVSPropertyOp49
 70
     1
102
RTVSPropertyOp50
 70
     1
102
RTVSPropertyOp51
 70
     0
102
RTVSPropertyOp52
 70
     0
102
RTVSPropertyOp53
 70
     1
102
RTVSPropertyOp54
 70
     1
102
RTVSPropertyOp55
 70
     1
102
RTVSPropertyOp56
 70
     1
102
RTVSPropertyOp57
 70
     1
102
RTVSPropertyOp58
 70
     1
102
RTVSPropertyOp59
 70
     1
102
RTVSPropertyOp60
 70
     1
102
RTVSPropertyOp61
 70
     1
102
RTVSPropertyOp62
 70
     1
  0
XRECORD
  5
440C
102
{ACAD_REACTORS
330
440B
102
}
330
440B
100
AcDbXrecord
280
     1
102
RTVSPost2010Prop28
280
     0
102
RTVSPost2010PropOp28
 70
     1
102
RTVSPost2010Prop29
280
     1
102
RTVSPost2010PropOp29
 70
     1
102
RTVSPost2010Prop30
280
     1
102
RTVSPost2010PropOp30
 70
     1
102
RTVSPost2010Prop31
280
     0
102
RTVSPost2010PropOp31
 70
     1
102
RTVSPost2010Prop32
280
     0
102
RTVSPost2010PropOp32
 70
     1
102
RTVSPost2010Prop33
280
     0
102
RTVSPost2010PropOp33
 70
     1
102
RTVSPost2010Prop34
280
     0
102
RTVSPost2010PropOp34
 70
     1
102
RTVSPost2010Prop35
280
     0
102
RTVSPost2010PropOp35
 70
     1
102
RTVSPost2010Prop36
280
     0
102
RTVSPost2010PropOp36
 70
     1
102
RTVSPost2010Prop37
 90
       50
102
RTVSPost2010PropOp37
 70
     1
102
RTVSPost2010Prop38
140
0.0
102
RTVSPost2010PropOp38
 70
     1
102
RTVSPost2010Prop39
140
1.0
102
RTVSPost2010PropOp39
 70
     1
102
RTVSPost2010Prop40
 90
        0
102
RTVSPost2010PropOp40
 70
     1
102
RTVSPost2010Prop41ColorIndex
 90
       18
102
RTVSPost2010Prop41ColorRGB
 90
        0
102
RTVSPost2010PropOp41
 70
     1
102
RTVSPost2010Prop42
 90
       50
102
RTVSPost2010PropOp42
 70
     1
102
RTVSPost2010Prop43
 90
        3
102
RTVSPost2010PropOp43
 70
     1
102
RTVSPost2010Prop44ColorIndex
 90
        5
102
RTVSPost2010Prop44ColorRGB
 90
      255
102
RTVSPost2010PropOp44
 70
     1
102
RTVSPost2010Prop45
280
     0
102
RTVSPost2010PropOp45
 70
     1
102
RTVSPost2010Prop46
 90
       50
102
RTVSPost2010PropOp46
 70
     1
102
RTVSPost2010Prop47
 90
       50
102
RTVSPost2010PropOp47
 70
     1
102
RTVSPost2010Prop48
 90
       50
102
RTVSPost2010PropOp48
 70
     1
102
RTVSPost2010Prop49
280
     0
102
RTVSPost2010PropOp49
 70
     1
102
RTVSPost2010Prop50
 90
       50
102
RTVSPost2010PropOp50
 70
     1
102
RTVSPost2010Prop51ColorIndex
 90
      256
102
RTVSPost2010Prop51ColorRGB
 90
-16777216
102
RTVSPost2010PropOp51
 70
     0
102
RTVSPost2010Prop52
140
1.0
102
RTVSPost2010PropOp52
 70
     0
102
RTVSPost2010Prop53
 90
        2
102
RTVSPost2010PropOp53
 70
     1
102
RTVSPost2010Prop54
  1
strokes_ogs.tif
102
RTVSPost2010PropOp54
 70
     1
102
RTVSPost2010Prop55
280
     0
102
RTVSPost2010PropOp55
 70
     1
102
RTVSPost2010Prop56
140
1.0
102
RTVSPost2010PropOp56
 70
     1
102
RTVSPost2010Prop57
140
1.0
102
RTVSPost2010PropOp57
 70
     1
102
RTVSPropertyOp0
 70
     1
102
RTVSPropertyOp1
 70
     1
102
RTVSPropertyOp2
 70
     1
102
RTVSPropertyOp3
 70
     1
102
RTVSPropertyOp4
 70
     1
102
RTVSPropertyOp5
 70
     1
102
RTVSPropertyOp6
 70
     1
102
RTVSPropertyOp7
 70
     1
102
RTVSPropertyOp8
 70
     1
102
RTVSPropertyOp9
 70
     1
102
RTVSPropertyOp10
 70
     1
102
RTVSPropertyOp11
 70
     1
102
RTVSPropertyOp12
 70
     1
102
RTVSPropertyOp13
 70
     1
102
RTVSPropertyOp14
 70
     1
102
RTVSPropertyOp15
 70
     1
102
RTVSPropertyOp16
 70
     1
102
RTVSPropertyOp17
 70
     1
102
RTVSPropertyOp18
 70
     1
102
RTVSPropertyOp19
 70
     1
102
RTVSPropertyOp20
 70
     1
102
RTVSPropertyOp21
 70
     1
102
RTVSPropertyOp22
 70
     1
102
RTVSPropertyOp23
 70
     1
102
RTVSPropertyOp24
 70
     1
102
RTVSPropertyOp25
 70
     1
102
RTVSPropertyOp26
 70
     1
102
RTVSPropertyOp27
 70
     1
102
RTVSPropertyOp28
 70
     1
102
RTVSPropertyOp29
 70
     1
102
RTVSPropertyOp30
 70
     1
102
RTVSPropertyOp31
 70
     1
102
RTVSPropertyOp32
 70
     1
102
RTVSPropertyOp33
 70
     1
102
RTVSPropertyOp34
 70
     1
102
RTVSPropertyOp35
 70
     1
102
RTVSPropertyOp36
 70
     1
102
RTVSPropertyOp37
 70
     1
102
RTVSPropertyOp38
 70
     1
102
RTVSPropertyOp39
 70
     1
102
RTVSPropertyOp40
 70
     1
102
RTVSPropertyOp41
 70
     1
102
RTVSPropertyOp42
 70
     1
102
RTVSPropertyOp43
 70
     1
102
RTVSPropertyOp44
 70
     1
102
RTVSPropertyOp45
 70
     1
102
RTVSPropertyOp46
 70
     1
102
RTVSPropertyOp47
 70
     1
102
RTVSPropertyOp48
 70
     1
102
RTVSPropertyOp49
 70
     1
102
RTVSPropertyOp50
 70
     1
102
RTVSPropertyOp51
 70
     0
102
RTVSPropertyOp52
 70
     0
102
RTVSPropertyOp53
 70
     1
102
RTVSPropertyOp54
 70
     1
102
RTVSPropertyOp55
 70
     1
102
RTVSPropertyOp56
 70
     1
102
RTVSPropertyOp57
 70
     1
102
RTVSPropertyOp58
 70
     1
102
RTVSPropertyOp59
 70
     1
102
RTVSPropertyOp60
 70
     1
102
RTVSPropertyOp61
 70
     1
102
RTVSPropertyOp62
 70
     1
  0
XRECORD
  5
4414
102
{ACAD_REACTORS
330
4413
102
}
330
4413
100
AcDbXrecord
280
     1
102
RTVSPost2010Prop28
280
     0
102
RTVSPost2010PropOp28
 70
     1
102
RTVSPost2010Prop29
280
     1
102
RTVSPost2010PropOp29
 70
     1
102
RTVSPost2010Prop30
280
     1
102
RTVSPost2010PropOp30
 70
     1
102
RTVSPost2010Prop31
280
     0
102
RTVSPost2010PropOp31
 70
     1
102
RTVSPost2010Prop32
280
     0
102
RTVSPost2010PropOp32
 70
     1
102
RTVSPost2010Prop33
280
     0
102
RTVSPost2010PropOp33
 70
     1
102
RTVSPost2010Prop34
280
     0
102
RTVSPost2010PropOp34
 70
     1
102
RTVSPost2010Prop35
280
     0
102
RTVSPost2010PropOp35
 70
     1
102
RTVSPost2010Prop36
280
     0
102
RTVSPost2010PropOp36
 70
     1
102
RTVSPost2010Prop37
 90
       50
102
RTVSPost2010PropOp37
 70
     1
102
RTVSPost2010Prop38
140
0.0
102
RTVSPost2010PropOp38
 70
     1
102
RTVSPost2010Prop39
140
1.0
102
RTVSPost2010PropOp39
 70
     1
102
RTVSPost2010Prop40
 90
        0
102
RTVSPost2010PropOp40
 70
     1
102
RTVSPost2010Prop41ColorIndex
 90
       18
102
RTVSPost2010Prop41ColorRGB
 90
        0
102
RTVSPost2010PropOp41
 70
     1
102
RTVSPost2010Prop42
 90
       50
102
RTVSPost2010PropOp42
 70
     1
102
RTVSPost2010Prop43
 90
        3
102
RTVSPost2010PropOp43
 70
     1
102
RTVSPost2010Prop44ColorIndex
 90
        5
102
RTVSPost2010Prop44ColorRGB
 90
      255
102
RTVSPost2010PropOp44
 70
     1
102
RTVSPost2010Prop45
280
     0
102
RTVSPost2010PropOp45
 70
     1
102
RTVSPost2010Prop46
 90
       50
102
RTVSPost2010PropOp46
 70
     1
102
RTVSPost2010Prop47
 90
       50
102
RTVSPost2010PropOp47
 70
     1
102
RTVSPost2010Prop48
 90
       50
102
RTVSPost2010PropOp48
 70
     1
102
RTVSPost2010Prop49
280
     0
102
RTVSPost2010PropOp49
 70
     1
102
RTVSPost2010Prop50
 90
       50
102
RTVSPost2010PropOp50
 70
     1
102
RTVSPost2010Prop51ColorIndex
 90
      256
102
RTVSPost2010Prop51ColorRGB
 90
-16777216
102
RTVSPost2010PropOp51
 70
     0
102
RTVSPost2010Prop52
140
1.0
102
RTVSPost2010PropOp52
 70
     0
102
RTVSPost2010Prop53
 90
        2
102
RTVSPost2010PropOp53
 70
     1
102
RTVSPost2010Prop54
  1
strokes_ogs.tif
102
RTVSPost2010PropOp54
 70
     1
102
RTVSPost2010Prop55
280
     0
102
RTVSPost2010PropOp55
 70
     1
102
RTVSPost2010Prop56
140
1.0
102
RTVSPost2010PropOp56
 70
     1
102
RTVSPost2010Prop57
140
1.0
102
RTVSPost2010PropOp57
 70
     1
102
RTVSPropertyOp0
 70
     1
102
RTVSPropertyOp1
 70
     1
102
RTVSPropertyOp2
 70
     1
102
RTVSPropertyOp3
 70
     1
102
RTVSPropertyOp4
 70
     1
102
RTVSPropertyOp5
 70
     1
102
RTVSPropertyOp6
 70
     1
102
RTVSPropertyOp7
 70
     1
102
RTVSPropertyOp8
 70
     1
102
RTVSPropertyOp9
 70
     1
102
RTVSPropertyOp10
 70
     1
102
RTVSPropertyOp11
 70
     1
102
RTVSPropertyOp12
 70
     1
102
RTVSPropertyOp13
 70
     1
102
RTVSPropertyOp14
 70
     1
102
RTVSPropertyOp15
 70
     1
102
RTVSPropertyOp16
 70
     1
102
RTVSPropertyOp17
 70
     1
102
RTVSPropertyOp18
 70
     1
102
RTVSPropertyOp19
 70
     1
102
RTVSPropertyOp20
 70
     1
102
RTVSPropertyOp21
 70
     1
102
RTVSPropertyOp22
 70
     1
102
RTVSPropertyOp23
 70
     1
102
RTVSPropertyOp24
 70
     1
102
RTVSPropertyOp25
 70
     1
102
RTVSPropertyOp26
 70
     1
102
RTVSPropertyOp27
 70
     1
102
RTVSPropertyOp28
 70
     1
102
RTVSPropertyOp29
 70
     1
102
RTVSPropertyOp30
 70
     1
102
RTVSPropertyOp31
 70
     1
102
RTVSPropertyOp32
 70
     1
102
RTVSPropertyOp33
 70
     1
102
RTVSPropertyOp34
 70
     1
102
RTVSPropertyOp35
 70
     1
102
RTVSPropertyOp36
 70
     1
102
RTVSPropertyOp37
 70
     1
102
RTVSPropertyOp38
 70
     1
102
RTVSPropertyOp39
 70
     1
102
RTVSPropertyOp40
 70
     1
102
RTVSPropertyOp41
 70
     1
102
RTVSPropertyOp42
 70
     1
102
RTVSPropertyOp43
 70
     1
102
RTVSPropertyOp44
 70
     1
102
RTVSPropertyOp45
 70
     1
102
RTVSPropertyOp46
 70
     1
102
RTVSPropertyOp47
 70
     1
102
RTVSPropertyOp48
 70
     1
102
RTVSPropertyOp49
 70
     1
102
RTVSPropertyOp50
 70
     1
102
RTVSPropertyOp51
 70
     0
102
RTVSPropertyOp52
 70
     0
102
RTVSPropertyOp53
 70
     1
102
RTVSPropertyOp54
 70
     1
102
RTVSPropertyOp55
 70
     1
102
RTVSPropertyOp56
 70
     1
102
RTVSPropertyOp57
 70
     1
102
RTVSPropertyOp58
 70
     1
102
RTVSPropertyOp59
 70
     1
102
RTVSPropertyOp60
 70
     1
102
RTVSPropertyOp61
 70
     1
102
RTVSPropertyOp62
 70
     1
  0
XRECORD
  5
4406
102
{ACAD_REACTORS
330
4405
102
}
330
4405
100
AcDbXrecord
280
     1
102
RTVSPost2010Prop28
280
     0
102
RTVSPost2010PropOp28
 70
     1
102
RTVSPost2010Prop29
280
     1
102
RTVSPost2010PropOp29
 70
     1
102
RTVSPost2010Prop30
280
     1
102
RTVSPost2010PropOp30
 70
     1
102
RTVSPost2010Prop31
280
     0
102
RTVSPost2010PropOp31
 70
     1
102
RTVSPost2010Prop32
280
     0
102
RTVSPost2010PropOp32
 70
     1
102
RTVSPost2010Prop33
280
     0
102
RTVSPost2010PropOp33
 70
     1
102
RTVSPost2010Prop34
280
     0
102
RTVSPost2010PropOp34
 70
     1
102
RTVSPost2010Prop35
280
     0
102
RTVSPost2010PropOp35
 70
     1
102
RTVSPost2010Prop36
280
     0
102
RTVSPost2010PropOp36
 70
     1
102
RTVSPost2010Prop37
 90
       50
102
RTVSPost2010PropOp37
 70
     1
102
RTVSPost2010Prop38
140
0.0
102
RTVSPost2010PropOp38
 70
     1
102
RTVSPost2010Prop39
140
1.0
102
RTVSPost2010PropOp39
 70
     1
102
RTVSPost2010Prop40
 90
        0
102
RTVSPost2010PropOp40
 70
     1
102
RTVSPost2010Prop41ColorIndex
 90
       18
102
RTVSPost2010Prop41ColorRGB
 90
        0
102
RTVSPost2010PropOp41
 70
     1
102
RTVSPost2010Prop42
 90
       50
102
RTVSPost2010PropOp42
 70
     1
102
RTVSPost2010Prop43
 90
        3
102
RTVSPost2010PropOp43
 70
     1
102
RTVSPost2010Prop44ColorIndex
 90
        5
102
RTVSPost2010Prop44ColorRGB
 90
      255
102
RTVSPost2010PropOp44
 70
     1
102
RTVSPost2010Prop45
280
     0
102
RTVSPost2010PropOp45
 70
     1
102
RTVSPost2010Prop46
 90
       50
102
RTVSPost2010PropOp46
 70
     1
102
RTVSPost2010Prop47
 90
       50
102
RTVSPost2010PropOp47
 70
     1
102
RTVSPost2010Prop48
 90
       50
102
RTVSPost2010PropOp48
 70
     1
102
RTVSPost2010Prop49
280
     0
102
RTVSPost2010PropOp49
 70
     1
102
RTVSPost2010Prop50
 90
       50
102
RTVSPost2010PropOp50
 70
     1
102
RTVSPost2010Prop51ColorIndex
 90
      256
102
RTVSPost2010Prop51ColorRGB
 90
-16777216
102
RTVSPost2010PropOp51
 70
     0
102
RTVSPost2010Prop52
140
1.0
102
RTVSPost2010PropOp52
 70
     0
102
RTVSPost2010Prop53
 90
        2
102
RTVSPost2010PropOp53
 70
     1
102
RTVSPost2010Prop54
  1
strokes_ogs.tif
102
RTVSPost2010PropOp54
 70
     1
102
RTVSPost2010Prop55
280
     0
102
RTVSPost2010PropOp55
 70
     1
102
RTVSPost2010Prop56
140
1.0
102
RTVSPost2010PropOp56
 70
     1
102
RTVSPost2010Prop57
140
1.0
102
RTVSPost2010PropOp57
 70
     1
102
RTVSPropertyOp0
 70
     1
102
RTVSPropertyOp1
 70
     1
102
RTVSPropertyOp2
 70
     1
102
RTVSPropertyOp3
 70
     1
102
RTVSPropertyOp4
 70
     1
102
RTVSPropertyOp5
 70
     1
102
RTVSPropertyOp6
 70
     1
102
RTVSPropertyOp7
 70
     1
102
RTVSPropertyOp8
 70
     1
102
RTVSPropertyOp9
 70
     1
102
RTVSPropertyOp10
 70
     1
102
RTVSPropertyOp11
 70
     1
102
RTVSPropertyOp12
 70
     1
102
RTVSPropertyOp13
 70
     1
102
RTVSPropertyOp14
 70
     1
102
RTVSPropertyOp15
 70
     1
102
RTVSPropertyOp16
 70
     1
102
RTVSPropertyOp17
 70
     1
102
RTVSPropertyOp18
 70
     1
102
RTVSPropertyOp19
 70
     1
102
RTVSPropertyOp20
 70
     1
102
RTVSPropertyOp21
 70
     1
102
RTVSPropertyOp22
 70
     1
102
RTVSPropertyOp23
 70
     1
102
RTVSPropertyOp24
 70
     1
102
RTVSPropertyOp25
 70
     1
102
RTVSPropertyOp26
 70
     1
102
RTVSPropertyOp27
 70
     1
102
RTVSPropertyOp28
 70
     1
102
RTVSPropertyOp29
 70
     1
102
RTVSPropertyOp30
 70
     1
102
RTVSPropertyOp31
 70
     1
102
RTVSPropertyOp32
 70
     1
102
RTVSPropertyOp33
 70
     1
102
RTVSPropertyOp34
 70
     1
102
RTVSPropertyOp35
 70
     1
102
RTVSPropertyOp36
 70
     1
102
RTVSPropertyOp37
 70
     1
102
RTVSPropertyOp38
 70
     1
102
RTVSPropertyOp39
 70
     1
102
RTVSPropertyOp40
 70
     1
102
RTVSPropertyOp41
 70
     1
102
RTVSPropertyOp42
 70
     1
102
RTVSPropertyOp43
 70
     1
102
RTVSPropertyOp44
 70
     1
102
RTVSPropertyOp45
 70
     1
102
RTVSPropertyOp46
 70
     1
102
RTVSPropertyOp47
 70
     1
102
RTVSPropertyOp48
 70
     1
102
RTVSPropertyOp49
 70
     1
102
RTVSPropertyOp50
 70
     1
102
RTVSPropertyOp51
 70
     0
102
RTVSPropertyOp52
 70
     0
102
RTVSPropertyOp53
 70
     1
102
RTVSPropertyOp54
 70
     1
102
RTVSPropertyOp55
 70
     1
102
RTVSPropertyOp56
 70
     1
102
RTVSPropertyOp57
 70
     1
102
RTVSPropertyOp58
 70
     1
102
RTVSPropertyOp59
 70
     1
102
RTVSPropertyOp60
 70
     1
102
RTVSPropertyOp61
 70
     1
102
RTVSPropertyOp62
 70
     1
  0
XRECORD
  5
440A
102
{ACAD_REACTORS
330
4409
102
}
330
4409
100
AcDbXrecord
280
     1
102
RTVSPost2010Prop28
280
     0
102
RTVSPost2010PropOp28
 70
     1
102
RTVSPost2010Prop29
280
     1
102
RTVSPost2010PropOp29
 70
     1
102
RTVSPost2010Prop30
280
     1
102
RTVSPost2010PropOp30
 70
     1
102
RTVSPost2010Prop31
280
     0
102
RTVSPost2010PropOp31
 70
     1
102
RTVSPost2010Prop32
280
     0
102
RTVSPost2010PropOp32
 70
     1
102
RTVSPost2010Prop33
280
     0
102
RTVSPost2010PropOp33
 70
     1
102
RTVSPost2010Prop34
280
     0
102
RTVSPost2010PropOp34
 70
     1
102
RTVSPost2010Prop35
280
     0
102
RTVSPost2010PropOp35
 70
     1
102
RTVSPost2010Prop36
280
     0
102
RTVSPost2010PropOp36
 70
     1
102
RTVSPost2010Prop37
 90
       50
102
RTVSPost2010PropOp37
 70
     1
102
RTVSPost2010Prop38
140
0.0
102
RTVSPost2010PropOp38
 70
     1
102
RTVSPost2010Prop39
140
1.0
102
RTVSPost2010PropOp39
 70
     1
102
RTVSPost2010Prop40
 90
        0
102
RTVSPost2010PropOp40
 70
     1
102
RTVSPost2010Prop41ColorIndex
 90
       18
102
RTVSPost2010Prop41ColorRGB
 90
        0
102
RTVSPost2010PropOp41
 70
     1
102
RTVSPost2010Prop42
 90
       50
102
RTVSPost2010PropOp42
 70
     1
102
RTVSPost2010Prop43
 90
        3
102
RTVSPost2010PropOp43
 70
     1
102
RTVSPost2010Prop44ColorIndex
 90
        5
102
RTVSPost2010Prop44ColorRGB
 90
      255
102
RTVSPost2010PropOp44
 70
     1
102
RTVSPost2010Prop45
280
     0
102
RTVSPost2010PropOp45
 70
     1
102
RTVSPost2010Prop46
 90
       50
102
RTVSPost2010PropOp46
 70
     1
102
RTVSPost2010Prop47
 90
       50
102
RTVSPost2010PropOp47
 70
     1
102
RTVSPost2010Prop48
 90
       50
102
RTVSPost2010PropOp48
 70
     1
102
RTVSPost2010Prop49
280
     0
102
RTVSPost2010PropOp49
 70
     1
102
RTVSPost2010Prop50
 90
       50
102
RTVSPost2010PropOp50
 70
     1
102
RTVSPost2010Prop51ColorIndex
 90
      256
102
RTVSPost2010Prop51ColorRGB
 90
-16777216
102
RTVSPost2010PropOp51
 70
     0
102
RTVSPost2010Prop52
140
1.0
102
RTVSPost2010PropOp52
 70
     0
102
RTVSPost2010Prop53
 90
        2
102
RTVSPost2010PropOp53
 70
     1
102
RTVSPost2010Prop54
  1
strokes_ogs.tif
102
RTVSPost2010PropOp54
 70
     1
102
RTVSPost2010Prop55
280
     0
102
RTVSPost2010PropOp55
 70
     1
102
RTVSPost2010Prop56
140
1.0
102
RTVSPost2010PropOp56
 70
     1
102
RTVSPost2010Prop57
140
1.0
102
RTVSPost2010PropOp57
 70
     1
102
RTVSPropertyOp0
 70
     1
102
RTVSPropertyOp1
 70
     1
102
RTVSPropertyOp2
 70
     1
102
RTVSPropertyOp3
 70
     1
102
RTVSPropertyOp4
 70
     1
102
RTVSPropertyOp5
 70
     1
102
RTVSPropertyOp6
 70
     1
102
RTVSPropertyOp7
 70
     1
102
RTVSPropertyOp8
 70
     1
102
RTVSPropertyOp9
 70
     1
102
RTVSPropertyOp10
 70
     1
102
RTVSPropertyOp11
 70
     1
102
RTVSPropertyOp12
 70
     1
102
RTVSPropertyOp13
 70
     1
102
RTVSPropertyOp14
 70
     1
102
RTVSPropertyOp15
 70
     1
102
RTVSPropertyOp16
 70
     1
102
RTVSPropertyOp17
 70
     1
102
RTVSPropertyOp18
 70
     1
102
RTVSPropertyOp19
 70
     1
102
RTVSPropertyOp20
 70
     1
102
RTVSPropertyOp21
 70
     1
102
RTVSPropertyOp22
 70
     1
102
RTVSPropertyOp23
 70
     1
102
RTVSPropertyOp24
 70
     1
102
RTVSPropertyOp25
 70
     1
102
RTVSPropertyOp26
 70
     1
102
RTVSPropertyOp27
 70
     1
102
RTVSPropertyOp28
 70
     1
102
RTVSPropertyOp29
 70
     1
102
RTVSPropertyOp30
 70
     1
102
RTVSPropertyOp31
 70
     1
102
RTVSPropertyOp32
 70
     1
102
RTVSPropertyOp33
 70
     1
102
RTVSPropertyOp34
 70
     1
102
RTVSPropertyOp35
 70
     1
102
RTVSPropertyOp36
 70
     1
102
RTVSPropertyOp37
 70
     1
102
RTVSPropertyOp38
 70
     1
102
RTVSPropertyOp39
 70
     1
102
RTVSPropertyOp40
 70
     1
102
RTVSPropertyOp41
 70
     1
102
RTVSPropertyOp42
 70
     1
102
RTVSPropertyOp43
 70
     1
102
RTVSPropertyOp44
 70
     1
102
RTVSPropertyOp45
 70
     1
102
RTVSPropertyOp46
 70
     1
102
RTVSPropertyOp47
 70
     1
102
RTVSPropertyOp48
 70
     1
102
RTVSPropertyOp49
 70
     1
102
RTVSPropertyOp50
 70
     1
102
RTVSPropertyOp51
 70
     0
102
RTVSPropertyOp52
 70
     0
102
RTVSPropertyOp53
 70
     1
102
RTVSPropertyOp54
 70
     1
102
RTVSPropertyOp55
 70
     1
102
RTVSPropertyOp56
 70
     1
102
RTVSPropertyOp57
 70
     1
102
RTVSPropertyOp58
 70
     1
102
RTVSPropertyOp59
 70
     1
102
RTVSPropertyOp60
 70
     1
102
RTVSPropertyOp61
 70
     1
102
RTVSPropertyOp62
 70
     1
  0
XRECORD
  5
441A
102
{ACAD_REACTORS
330
4419
102
}
330
4419
100
AcDbXrecord
280
     1
102
RTVSPost2010Prop28
280
     0
102
RTVSPost2010PropOp28
 70
     1
102
RTVSPost2010Prop29
280
     1
102
RTVSPost2010PropOp29
 70
     1
102
RTVSPost2010Prop30
280
     1
102
RTVSPost2010PropOp30
 70
     1
102
RTVSPost2010Prop31
280
     0
102
RTVSPost2010PropOp31
 70
     1
102
RTVSPost2010Prop32
280
     0
102
RTVSPost2010PropOp32
 70
     1
102
RTVSPost2010Prop33
280
     0
102
RTVSPost2010PropOp33
 70
     1
102
RTVSPost2010Prop34
280
     0
102
RTVSPost2010PropOp34
 70
     1
102
RTVSPost2010Prop35
280
     0
102
RTVSPost2010PropOp35
 70
     1
102
RTVSPost2010Prop36
280
     0
102
RTVSPost2010PropOp36
 70
     1
102
RTVSPost2010Prop37
 90
       50
102
RTVSPost2010PropOp37
 70
     1
102
RTVSPost2010Prop38
140
0.0
102
RTVSPost2010PropOp38
 70
     1
102
RTVSPost2010Prop39
140
1.0
102
RTVSPost2010PropOp39
 70
     1
102
RTVSPost2010Prop40
 90
        0
102
RTVSPost2010PropOp40
 70
     1
102
RTVSPost2010Prop41ColorIndex
 90
       18
102
RTVSPost2010Prop41ColorRGB
 90
        0
102
RTVSPost2010PropOp41
 70
     1
102
RTVSPost2010Prop42
 90
       50
102
RTVSPost2010PropOp42
 70
     1
102
RTVSPost2010Prop43
 90
        3
102
RTVSPost2010PropOp43
 70
     1
102
RTVSPost2010Prop44ColorIndex
 90
        5
102
RTVSPost2010Prop44ColorRGB
 90
      255
102
RTVSPost2010PropOp44
 70
     1
102
RTVSPost2010Prop45
280
     0
102
RTVSPost2010PropOp45
 70
     1
102
RTVSPost2010Prop46
 90
       50
102
RTVSPost2010PropOp46
 70
     1
102
RTVSPost2010Prop47
 90
       50
102
RTVSPost2010PropOp47
 70
     1
102
RTVSPost2010Prop48
 90
       50
102
RTVSPost2010PropOp48
 70
     1
102
RTVSPost2010Prop49
280
     0
102
RTVSPost2010PropOp49
 70
     1
102
RTVSPost2010Prop50
 90
       50
102
RTVSPost2010PropOp50
 70
     1
102
RTVSPost2010Prop51ColorIndex
 90
      256
102
RTVSPost2010Prop51ColorRGB
 90
-16777216
102
RTVSPost2010PropOp51
 70
     0
102
RTVSPost2010Prop52
140
1.0
102
RTVSPost2010PropOp52
 70
     0
102
RTVSPost2010Prop53
 90
        2
102
RTVSPost2010PropOp53
 70
     1
102
RTVSPost2010Prop54
  1
strokes_ogs.tif
102
RTVSPost2010PropOp54
 70
     1
102
RTVSPost2010Prop55
280
     0
102
RTVSPost2010PropOp55
 70
     1
102
RTVSPost2010Prop56
140
1.0
102
RTVSPost2010PropOp56
 70
     1
102
RTVSPost2010Prop57
140
1.0
102
RTVSPost2010PropOp57
 70
     1
102
RTVSPropertyOp0
 70
     0
102
RTVSPropertyOp1
 70
     0
102
RTVSPropertyOp2
 70
     0
102
RTVSPropertyOp3
 70
     0
102
RTVSPropertyOp4
 70
     0
102
RTVSPropertyOp5
 70
     0
102
RTVSPropertyOp6
 70
     0
102
RTVSPropertyOp7
 70
     0
102
RTVSPropertyOp8
 70
     0
102
RTVSPropertyOp9
 70
     0
102
RTVSPropertyOp10
 70
     0
102
RTVSPropertyOp11
 70
     0
102
RTVSPropertyOp12
 70
     0
102
RTVSPropertyOp13
 70
     0
102
RTVSPropertyOp14
 70
     2
102
RTVSPropertyOp15
 70
     0
102
RTVSPropertyOp16
 70
     0
102
RTVSPropertyOp17
 70
     0
102
RTVSPropertyOp18
 70
     0
102
RTVSPropertyOp19
 70
     0
102
RTVSPropertyOp20
 70
     0
102
RTVSPropertyOp21
 70
     0
102
RTVSPropertyOp22
 70
     0
102
RTVSPropertyOp23
 70
     0
102
RTVSPropertyOp24
 70
     0
102
RTVSPropertyOp25
 70
     0
102
RTVSPropertyOp26
 70
     0
102
RTVSPropertyOp27
 70
     0
102
RTVSPropertyOp28
 70
     1
102
RTVSPropertyOp29
 70
     1
102
RTVSPropertyOp30
 70
     1
102
RTVSPropertyOp31
 70
     1
102
RTVSPropertyOp32
 70
     1
102
RTVSPropertyOp33
 70
     1
102
RTVSPropertyOp34
 70
     1
102
RTVSPropertyOp35
 70
     1
102
RTVSPropertyOp36
 70
     1
102
RTVSPropertyOp37
 70
     1
102
RTVSPropertyOp38
 70
     1
102
RTVSPropertyOp39
 70
     1
102
RTVSPropertyOp40
 70
     1
102
RTVSPropertyOp41
 70
     1
102
RTVSPropertyOp42
 70
     1
102
RTVSPropertyOp43
 70
     1
102
RTVSPropertyOp44
 70
     1
102
RTVSPropertyOp45
 70
     1
102
RTVSPropertyOp46
 70
     1
102
RTVSPropertyOp47
 70
     1
102
RTVSPropertyOp48
 70
     1
102
RTVSPropertyOp49
 70
     1
102
RTVSPropertyOp50
 70
     1
102
RTVSPropertyOp51
 70
     0
102
RTVSPropertyOp52
 70
     0
102
RTVSPropertyOp53
 70
     1
102
RTVSPropertyOp54
 70
     1
102
RTVSPropertyOp55
 70
     1
102
RTVSPropertyOp56
 70
     1
102
RTVSPropertyOp57
 70
     1
102
RTVSPropertyOp58
 70
     1
102
RTVSPropertyOp59
 70
     1
102
RTVSPropertyOp60
 70
     1
102
RTVSPropertyOp61
 70
     1
102
RTVSPropertyOp62
 70
     1
  0
XRECORD
  5
4412
102
{ACAD_REACTORS
330
4411
102
}
330
4411
100
AcDbXrecord
280
     1
102
RTVSPost2010Prop28
280
     0
102
RTVSPost2010PropOp28
 70
     1
102
RTVSPost2010Prop29
280
     1
102
RTVSPost2010PropOp29
 70
     1
102
RTVSPost2010Prop30
280
     1
102
RTVSPost2010PropOp30
 70
     1
102
RTVSPost2010Prop31
280
     0
102
RTVSPost2010PropOp31
 70
     1
102
RTVSPost2010Prop32
280
     0
102
RTVSPost2010PropOp32
 70
     1
102
RTVSPost2010Prop33
280
     0
102
RTVSPost2010PropOp33
 70
     1
102
RTVSPost2010Prop34
280
     0
102
RTVSPost2010PropOp34
 70
     1
102
RTVSPost2010Prop35
280
     0
102
RTVSPost2010PropOp35
 70
     1
102
RTVSPost2010Prop36
280
     0
102
RTVSPost2010PropOp36
 70
     1
102
RTVSPost2010Prop37
 90
       50
102
RTVSPost2010PropOp37
 70
     1
102
RTVSPost2010Prop38
140
0.0
102
RTVSPost2010PropOp38
 70
     1
102
RTVSPost2010Prop39
140
1.0
102
RTVSPost2010PropOp39
 70
     1
102
RTVSPost2010Prop40
 90
        0
102
RTVSPost2010PropOp40
 70
     1
102
RTVSPost2010Prop41ColorIndex
 90
       18
102
RTVSPost2010Prop41ColorRGB
 90
        0
102
RTVSPost2010PropOp41
 70
     1
102
RTVSPost2010Prop42
 90
       50
102
RTVSPost2010PropOp42
 70
     1
102
RTVSPost2010Prop43
 90
        3
102
RTVSPost2010PropOp43
 70
     1
102
RTVSPost2010Prop44ColorIndex
 90
        5
102
RTVSPost2010Prop44ColorRGB
 90
      255
102
RTVSPost2010PropOp44
 70
     1
102
RTVSPost2010Prop45
280
     0
102
RTVSPost2010PropOp45
 70
     1
102
RTVSPost2010Prop46
 90
       50
102
RTVSPost2010PropOp46
 70
     1
102
RTVSPost2010Prop47
 90
       50
102
RTVSPost2010PropOp47
 70
     1
102
RTVSPost2010Prop48
 90
       50
102
RTVSPost2010PropOp48
 70
     1
102
RTVSPost2010Prop49
280
     0
102
RTVSPost2010PropOp49
 70
     1
102
RTVSPost2010Prop50
 90
       50
102
RTVSPost2010PropOp50
 70
     1
102
RTVSPost2010Prop51ColorIndex
 90
      256
102
RTVSPost2010Prop51ColorRGB
 90
-16777216
102
RTVSPost2010PropOp51
 70
     0
102
RTVSPost2010Prop52
140
1.0
102
RTVSPost2010PropOp52
 70
     0
102
RTVSPost2010Prop53
 90
        2
102
RTVSPost2010PropOp53
 70
     1
102
RTVSPost2010Prop54
  1
strokes_ogs.tif
102
RTVSPost2010PropOp54
 70
     1
102
RTVSPost2010Prop55
280
     0
102
RTVSPost2010PropOp55
 70
     1
102
RTVSPost2010Prop56
140
1.0
102
RTVSPost2010PropOp56
 70
     1
102
RTVSPost2010Prop57
140
1.0
102
RTVSPost2010PropOp57
 70
     1
102
RTVSPropertyOp0
 70
     1
102
RTVSPropertyOp1
 70
     1
102
RTVSPropertyOp2
 70
     1
102
RTVSPropertyOp3
 70
     1
102
RTVSPropertyOp4
 70
     1
102
RTVSPropertyOp5
 70
     1
102
RTVSPropertyOp6
 70
     1
102
RTVSPropertyOp7
 70
     1
102
RTVSPropertyOp8
 70
     1
102
RTVSPropertyOp9
 70
     1
102
RTVSPropertyOp10
 70
     1
102
RTVSPropertyOp11
 70
     1
102
RTVSPropertyOp12
 70
     1
102
RTVSPropertyOp13
 70
     1
102
RTVSPropertyOp14
 70
     1
102
RTVSPropertyOp15
 70
     1
102
RTVSPropertyOp16
 70
     1
102
RTVSPropertyOp17
 70
     1
102
RTVSPropertyOp18
 70
     1
102
RTVSPropertyOp19
 70
     1
102
RTVSPropertyOp20
 70
     1
102
RTVSPropertyOp21
 70
     1
102
RTVSPropertyOp22
 70
     1
102
RTVSPropertyOp23
 70
     1
102
RTVSPropertyOp24
 70
     1
102
RTVSPropertyOp25
 70
     1
102
RTVSPropertyOp26
 70
     1
102
RTVSPropertyOp27
 70
     1
102
RTVSPropertyOp28
 70
     1
102
RTVSPropertyOp29
 70
     1
102
RTVSPropertyOp30
 70
     1
102
RTVSPropertyOp31
 70
     1
102
RTVSPropertyOp32
 70
     1
102
RTVSPropertyOp33
 70
     1
102
RTVSPropertyOp34
 70
     1
102
RTVSPropertyOp35
 70
     1
102
RTVSPropertyOp36
 70
     1
102
RTVSPropertyOp37
 70
     1
102
RTVSPropertyOp38
 70
     1
102
RTVSPropertyOp39
 70
     1
102
RTVSPropertyOp40
 70
     1
102
RTVSPropertyOp41
 70
     1
102
RTVSPropertyOp42
 70
     1
102
RTVSPropertyOp43
 70
     1
102
RTVSPropertyOp44
 70
     1
102
RTVSPropertyOp45
 70
     1
102
RTVSPropertyOp46
 70
     1
102
RTVSPropertyOp47
 70
     1
102
RTVSPropertyOp48
 70
     1
102
RTVSPropertyOp49
 70
     1
102
RTVSPropertyOp50
 70
     1
102
RTVSPropertyOp51
 70
     0
102
RTVSPropertyOp52
 70
     0
102
RTVSPropertyOp53
 70
     1
102
RTVSPropertyOp54
 70
     1
102
RTVSPropertyOp55
 70
     1
102
RTVSPropertyOp56
 70
     1
102
RTVSPropertyOp57
 70
     1
102
RTVSPropertyOp58
 70
     1
102
RTVSPropertyOp59
 70
     1
102
RTVSPropertyOp60
 70
     1
102
RTVSPropertyOp61
 70
     1
102
RTVSPropertyOp62
 70
     1
  0
XRECORD
  5
43F6
102
{ACAD_REACTORS
330
43F5
102
}
330
43F5
100
AcDbXrecord
280
     1
102
RTVSPost2010Prop28
280
     0
102
RTVSPost2010PropOp28
 70
     1
102
RTVSPost2010Prop29
280
     1
102
RTVSPost2010PropOp29
 70
     1
102
RTVSPost2010Prop30
280
     1
102
RTVSPost2010PropOp30
 70
     1
102
RTVSPost2010Prop31
280
     0
102
RTVSPost2010PropOp31
 70
     1
102
RTVSPost2010Prop32
280
     0
102
RTVSPost2010PropOp32
 70
     1
102
RTVSPost2010Prop33
280
     0
102
RTVSPost2010PropOp33
 70
     1
102
RTVSPost2010Prop34
280
     0
102
RTVSPost2010PropOp34
 70
     1
102
RTVSPost2010Prop35
280
     0
102
RTVSPost2010PropOp35
 70
     1
102
RTVSPost2010Prop36
280
     0
102
RTVSPost2010PropOp36
 70
     1
102
RTVSPost2010Prop37
 90
       50
102
RTVSPost2010PropOp37
 70
     1
102
RTVSPost2010Prop38
140
0.0
102
RTVSPost2010PropOp38
 70
     1
102
RTVSPost2010Prop39
140
1.0
102
RTVSPost2010PropOp39
 70
     1
102
RTVSPost2010Prop40
 90
        0
102
RTVSPost2010PropOp40
 70
     1
102
RTVSPost2010Prop41ColorIndex
 90
       18
102
RTVSPost2010Prop41ColorRGB
 90
        0
102
RTVSPost2010PropOp41
 70
     1
102
RTVSPost2010Prop42
 90
       50
102
RTVSPost2010PropOp42
 70
     1
102
RTVSPost2010Prop43
 90
        3
102
RTVSPost2010PropOp43
 70
     1
102
RTVSPost2010Prop44ColorIndex
 90
        5
102
RTVSPost2010Prop44ColorRGB
 90
      255
102
RTVSPost2010PropOp44
 70
     1
102
RTVSPost2010Prop45
280
     0
102
RTVSPost2010PropOp45
 70
     1
102
RTVSPost2010Prop46
 90
       50
102
RTVSPost2010PropOp46
 70
     1
102
RTVSPost2010Prop47
 90
       50
102
RTVSPost2010PropOp47
 70
     1
102
RTVSPost2010Prop48
 90
       50
102
RTVSPost2010PropOp48
 70
     1
102
RTVSPost2010Prop49
280
     0
102
RTVSPost2010PropOp49
 70
     1
102
RTVSPost2010Prop50
 90
       50
102
RTVSPost2010PropOp50
 70
     1
102
RTVSPost2010Prop51ColorIndex
 90
      256
102
RTVSPost2010Prop51ColorRGB
 90
-16777216
102
RTVSPost2010PropOp51
 70
     0
102
RTVSPost2010Prop52
140
1.0
102
RTVSPost2010PropOp52
 70
     0
102
RTVSPost2010Prop53
 90
        2
102
RTVSPost2010PropOp53
 70
     1
102
RTVSPost2010Prop54
  1
strokes_ogs.tif
102
RTVSPost2010PropOp54
 70
     1
102
RTVSPost2010Prop55
280
     0
102
RTVSPost2010PropOp55
 70
     1
102
RTVSPost2010Prop56
140
1.0
102
RTVSPost2010PropOp56
 70
     1
102
RTVSPost2010Prop57
140
1.0
102
RTVSPost2010PropOp57
 70
     1
102
RTVSPropertyOp0
 70
     1
102
RTVSPropertyOp1
 70
     1
102
RTVSPropertyOp2
 70
     1
102
RTVSPropertyOp3
 70
     1
102
RTVSPropertyOp4
 70
     1
102
RTVSPropertyOp5
 70
     1
102
RTVSPropertyOp6
 70
     1
102
RTVSPropertyOp7
 70
     1
102
RTVSPropertyOp8
 70
     1
102
RTVSPropertyOp9
 70
     1
102
RTVSPropertyOp10
 70
     1
102
RTVSPropertyOp11
 70
     1
102
RTVSPropertyOp12
 70
     1
102
RTVSPropertyOp13
 70
     1
102
RTVSPropertyOp14
 70
     1
102
RTVSPropertyOp15
 70
     1
102
RTVSPropertyOp16
 70
     1
102
RTVSPropertyOp17
 70
     1
102
RTVSPropertyOp18
 70
     1
102
RTVSPropertyOp19
 70
     1
102
RTVSPropertyOp20
 70
     1
102
RTVSPropertyOp21
 70
     1
102
RTVSPropertyOp22
 70
     1
102
RTVSPropertyOp23
 70
     1
102
RTVSPropertyOp24
 70
     1
102
RTVSPropertyOp25
 70
     1
102
RTVSPropertyOp26
 70
     1
102
RTVSPropertyOp27
 70
     1
102
RTVSPropertyOp28
 70
     1
102
RTVSPropertyOp29
 70
     1
102
RTVSPropertyOp30
 70
     1
102
RTVSPropertyOp31
 70
     1
102
RTVSPropertyOp32
 70
     1
102
RTVSPropertyOp33
 70
     1
102
RTVSPropertyOp34
 70
     1
102
RTVSPropertyOp35
 70
     1
102
RTVSPropertyOp36
 70
     1
102
RTVSPropertyOp37
 70
     1
102
RTVSPropertyOp38
 70
     1
102
RTVSPropertyOp39
 70
     1
102
RTVSPropertyOp40
 70
     1
102
RTVSPropertyOp41
 70
     1
102
RTVSPropertyOp42
 70
     1
102
RTVSPropertyOp43
 70
     1
102
RTVSPropertyOp44
 70
     1
102
RTVSPropertyOp45
 70
     1
102
RTVSPropertyOp46
 70
     1
102
RTVSPropertyOp47
 70
     1
102
RTVSPropertyOp48
 70
     1
102
RTVSPropertyOp49
 70
     1
102
RTVSPropertyOp50
 70
     1
102
RTVSPropertyOp51
 70
     0
102
RTVSPropertyOp52
 70
     0
102
RTVSPropertyOp53
 70
     1
102
RTVSPropertyOp54
 70
     1
102
RTVSPropertyOp55
 70
     1
102
RTVSPropertyOp56
 70
     1
102
RTVSPropertyOp57
 70
     1
102
RTVSPropertyOp58
 70
     1
102
RTVSPropertyOp59
 70
     1
102
RTVSPropertyOp60
 70
     1
102
RTVSPropertyOp61
 70
     1
102
RTVSPropertyOp62
 70
     1
  0
XRECORD
  5
43F8
102
{ACAD_REACTORS
330
43F7
102
}
330
43F7
100
AcDbXrecord
280
     1
102
RTVSPost2010Prop28
280
     0
102
RTVSPost2010PropOp28
 70
     1
102
RTVSPost2010Prop29
280
     1
102
RTVSPost2010PropOp29
 70
     1
102
RTVSPost2010Prop30
280
     1
102
RTVSPost2010PropOp30
 70
     1
102
RTVSPost2010Prop31
280
     0
102
RTVSPost2010PropOp31
 70
     1
102
RTVSPost2010Prop32
280
     0
102
RTVSPost2010PropOp32
 70
     1
102
RTVSPost2010Prop33
280
     0
102
RTVSPost2010PropOp33
 70
     1
102
RTVSPost2010Prop34
280
     0
102
RTVSPost2010PropOp34
 70
     1
102
RTVSPost2010Prop35
280
     0
102
RTVSPost2010PropOp35
 70
     1
102
RTVSPost2010Prop36
280
     0
102
RTVSPost2010PropOp36
 70
     1
102
RTVSPost2010Prop37
 90
       50
102
RTVSPost2010PropOp37
 70
     1
102
RTVSPost2010Prop38
140
0.0
102
RTVSPost2010PropOp38
 70
     1
102
RTVSPost2010Prop39
140
1.0
102
RTVSPost2010PropOp39
 70
     1
102
RTVSPost2010Prop40
 90
        0
102
RTVSPost2010PropOp40
 70
     1
102
RTVSPost2010Prop41ColorIndex
 90
       18
102
RTVSPost2010Prop41ColorRGB
 90
        0
102
RTVSPost2010PropOp41
 70
     1
102
RTVSPost2010Prop42
 90
       50
102
RTVSPost2010PropOp42
 70
     1
102
RTVSPost2010Prop43
 90
        3
102
RTVSPost2010PropOp43
 70
     1
102
RTVSPost2010Prop44ColorIndex
 90
        5
102
RTVSPost2010Prop44ColorRGB
 90
      255
102
RTVSPost2010PropOp44
 70
     1
102
RTVSPost2010Prop45
280
     0
102
RTVSPost2010PropOp45
 70
     1
102
RTVSPost2010Prop46
 90
       50
102
RTVSPost2010PropOp46
 70
     1
102
RTVSPost2010Prop47
 90
       50
102
RTVSPost2010PropOp47
 70
     1
102
RTVSPost2010Prop48
 90
       50
102
RTVSPost2010PropOp48
 70
     1
102
RTVSPost2010Prop49
280
     0
102
RTVSPost2010PropOp49
 70
     1
102
RTVSPost2010Prop50
 90
       50
102
RTVSPost2010PropOp50
 70
     1
102
RTVSPost2010Prop51ColorIndex
 90
      256
102
RTVSPost2010Prop51ColorRGB
 90
-16777216
102
RTVSPost2010PropOp51
 70
     0
102
RTVSPost2010Prop52
140
1.0
102
RTVSPost2010PropOp52
 70
     0
102
RTVSPost2010Prop53
 90
        2
102
RTVSPost2010PropOp53
 70
     1
102
RTVSPost2010Prop54
  1
strokes_ogs.tif
102
RTVSPost2010PropOp54
 70
     1
102
RTVSPost2010Prop55
280
     0
102
RTVSPost2010PropOp55
 70
     1
102
RTVSPost2010Prop56
140
1.0
102
RTVSPost2010PropOp56
 70
     1
102
RTVSPost2010Prop57
140
1.0
102
RTVSPost2010PropOp57
 70
     1
102
RTVSPropertyOp0
 70
     1
102
RTVSPropertyOp1
 70
     1
102
RTVSPropertyOp2
 70
     1
102
RTVSPropertyOp3
 70
     1
102
RTVSPropertyOp4
 70
     1
102
RTVSPropertyOp5
 70
     1
102
RTVSPropertyOp6
 70
     1
102
RTVSPropertyOp7
 70
     1
102
RTVSPropertyOp8
 70
     1
102
RTVSPropertyOp9
 70
     1
102
RTVSPropertyOp10
 70
     1
102
RTVSPropertyOp11
 70
     1
102
RTVSPropertyOp12
 70
     1
102
RTVSPropertyOp13
 70
     1
102
RTVSPropertyOp14
 70
     1
102
RTVSPropertyOp15
 70
     1
102
RTVSPropertyOp16
 70
     1
102
RTVSPropertyOp17
 70
     1
102
RTVSPropertyOp18
 70
     1
102
RTVSPropertyOp19
 70
     1
102
RTVSPropertyOp20
 70
     1
102
RTVSPropertyOp21
 70
     1
102
RTVSPropertyOp22
 70
     1
102
RTVSPropertyOp23
 70
     1
102
RTVSPropertyOp24
 70
     1
102
RTVSPropertyOp25
 70
     1
102
RTVSPropertyOp26
 70
     1
102
RTVSPropertyOp27
 70
     1
102
RTVSPropertyOp28
 70
     1
102
RTVSPropertyOp29
 70
     1
102
RTVSPropertyOp30
 70
     1
102
RTVSPropertyOp31
 70
     1
102
RTVSPropertyOp32
 70
     1
102
RTVSPropertyOp33
 70
     1
102
RTVSPropertyOp34
 70
     1
102
RTVSPropertyOp35
 70
     1
102
RTVSPropertyOp36
 70
     1
102
RTVSPropertyOp37
 70
     1
102
RTVSPropertyOp38
 70
     1
102
RTVSPropertyOp39
 70
     1
102
RTVSPropertyOp40
 70
     1
102
RTVSPropertyOp41
 70
     1
102
RTVSPropertyOp42
 70
     1
102
RTVSPropertyOp43
 70
     1
102
RTVSPropertyOp44
 70
     1
102
RTVSPropertyOp45
 70
     1
102
RTVSPropertyOp46
 70
     1
102
RTVSPropertyOp47
 70
     1
102
RTVSPropertyOp48
 70
     1
102
RTVSPropertyOp49
 70
     1
102
RTVSPropertyOp50
 70
     1
102
RTVSPropertyOp51
 70
     0
102
RTVSPropertyOp52
 70
     0
102
RTVSPropertyOp53
 70
     1
102
RTVSPropertyOp54
 70
     1
102
RTVSPropertyOp55
 70
     1
102
RTVSPropertyOp56
 70
     1
102
RTVSPropertyOp57
 70
     1
102
RTVSPropertyOp58
 70
     1
102
RTVSPropertyOp59
 70
     1
102
RTVSPropertyOp60
 70
     1
102
RTVSPropertyOp61
 70
     1
102
RTVSPropertyOp62
 70
     1
  0
XRECORD
  5
43FA
102
{ACAD_REACTORS
330
43F9
102
}
330
43F9
100
AcDbXrecord
280
     1
102
RTVSPost2010Prop28
280
     0
102
RTVSPost2010PropOp28
 70
     1
102
RTVSPost2010Prop29
280
     1
102
RTVSPost2010PropOp29
 70
     1
102
RTVSPost2010Prop30
280
     1
102
RTVSPost2010PropOp30
 70
     1
102
RTVSPost2010Prop31
280
     0
102
RTVSPost2010PropOp31
 70
     1
102
RTVSPost2010Prop32
280
     0
102
RTVSPost2010PropOp32
 70
     1
102
RTVSPost2010Prop33
280
     0
102
RTVSPost2010PropOp33
 70
     1
102
RTVSPost2010Prop34
280
     0
102
RTVSPost2010PropOp34
 70
     1
102
RTVSPost2010Prop35
280
     0
102
RTVSPost2010PropOp35
 70
     1
102
RTVSPost2010Prop36
280
     0
102
RTVSPost2010PropOp36
 70
     1
102
RTVSPost2010Prop37
 90
       50
102
RTVSPost2010PropOp37
 70
     1
102
RTVSPost2010Prop38
140
0.0
102
RTVSPost2010PropOp38
 70
     1
102
RTVSPost2010Prop39
140
1.0
102
RTVSPost2010PropOp39
 70
     1
102
RTVSPost2010Prop40
 90
        0
102
RTVSPost2010PropOp40
 70
     1
102
RTVSPost2010Prop41ColorIndex
 90
       18
102
RTVSPost2010Prop41ColorRGB
 90
        0
102
RTVSPost2010PropOp41
 70
     1
102
RTVSPost2010Prop42
 90
       50
102
RTVSPost2010PropOp42
 70
     1
102
RTVSPost2010Prop43
 90
        3
102
RTVSPost2010PropOp43
 70
     1
102
RTVSPost2010Prop44ColorIndex
 90
        5
102
RTVSPost2010Prop44ColorRGB
 90
      255
102
RTVSPost2010PropOp44
 70
     1
102
RTVSPost2010Prop45
280
     0
102
RTVSPost2010PropOp45
 70
     1
102
RTVSPost2010Prop46
 90
       50
102
RTVSPost2010PropOp46
 70
     1
102
RTVSPost2010Prop47
 90
       50
102
RTVSPost2010PropOp47
 70
     1
102
RTVSPost2010Prop48
 90
       50
102
RTVSPost2010PropOp48
 70
     1
102
RTVSPost2010Prop49
280
     0
102
RTVSPost2010PropOp49
 70
     1
102
RTVSPost2010Prop50
 90
       50
102
RTVSPost2010PropOp50
 70
     1
102
RTVSPost2010Prop51ColorIndex
 90
      256
102
RTVSPost2010Prop51ColorRGB
 90
-16777216
102
RTVSPost2010PropOp51
 70
     0
102
RTVSPost2010Prop52
140
1.0
102
RTVSPost2010PropOp52
 70
     0
102
RTVSPost2010Prop53
 90
        2
102
RTVSPost2010PropOp53
 70
     1
102
RTVSPost2010Prop54
  1
strokes_ogs.tif
102
RTVSPost2010PropOp54
 70
     1
102
RTVSPost2010Prop55
280
     0
102
RTVSPost2010PropOp55
 70
     1
102
RTVSPost2010Prop56
140
1.0
102
RTVSPost2010PropOp56
 70
     1
102
RTVSPost2010Prop57
140
1.0
102
RTVSPost2010PropOp57
 70
     1
102
RTVSPropertyOp0
 70
     1
102
RTVSPropertyOp1
 70
     1
102
RTVSPropertyOp2
 70
     1
102
RTVSPropertyOp3
 70
     1
102
RTVSPropertyOp4
 70
     1
102
RTVSPropertyOp5
 70
     1
102
RTVSPropertyOp6
 70
     1
102
RTVSPropertyOp7
 70
     1
102
RTVSPropertyOp8
 70
     1
102
RTVSPropertyOp9
 70
     1
102
RTVSPropertyOp10
 70
     1
102
RTVSPropertyOp11
 70
     1
102
RTVSPropertyOp12
 70
     1
102
RTVSPropertyOp13
 70
     1
102
RTVSPropertyOp14
 70
     1
102
RTVSPropertyOp15
 70
     1
102
RTVSPropertyOp16
 70
     1
102
RTVSPropertyOp17
 70
     1
102
RTVSPropertyOp18
 70
     1
102
RTVSPropertyOp19
 70
     1
102
RTVSPropertyOp20
 70
     1
102
RTVSPropertyOp21
 70
     1
102
RTVSPropertyOp22
 70
     1
102
RTVSPropertyOp23
 70
     1
102
RTVSPropertyOp24
 70
     1
102
RTVSPropertyOp25
 70
     1
102
RTVSPropertyOp26
 70
     1
102
RTVSPropertyOp27
 70
     1
102
RTVSPropertyOp28
 70
     1
102
RTVSPropertyOp29
 70
     1
102
RTVSPropertyOp30
 70
     1
102
RTVSPropertyOp31
 70
     1
102
RTVSPropertyOp32
 70
     1
102
RTVSPropertyOp33
 70
     1
102
RTVSPropertyOp34
 70
     1
102
RTVSPropertyOp35
 70
     1
102
RTVSPropertyOp36
 70
     1
102
RTVSPropertyOp37
 70
     1
102
RTVSPropertyOp38
 70
     1
102
RTVSPropertyOp39
 70
     1
102
RTVSPropertyOp40
 70
     1
102
RTVSPropertyOp41
 70
     1
102
RTVSPropertyOp42
 70
     1
102
RTVSPropertyOp43
 70
     1
102
RTVSPropertyOp44
 70
     1
102
RTVSPropertyOp45
 70
     1
102
RTVSPropertyOp46
 70
     1
102
RTVSPropertyOp47
 70
     1
102
RTVSPropertyOp48
 70
     1
102
RTVSPropertyOp49
 70
     1
102
RTVSPropertyOp50
 70
     1
102
RTVSPropertyOp51
 70
     0
102
RTVSPropertyOp52
 70
     0
102
RTVSPropertyOp53
 70
     1
102
RTVSPropertyOp54
 70
     1
102
RTVSPropertyOp55
 70
     1
102
RTVSPropertyOp56
 70
     1
102
RTVSPropertyOp57
 70
     1
102
RTVSPropertyOp58
 70
     1
102
RTVSPropertyOp59
 70
     1
102
RTVSPropertyOp60
 70
     1
102
RTVSPropertyOp61
 70
     1
102
RTVSPropertyOp62
 70
     1
  0
XRECORD
  5
43FC
102
{ACAD_REACTORS
330
43FB
102
}
330
43FB
100
AcDbXrecord
280
     1
102
RTVSPost2010Prop28
280
     0
102
RTVSPost2010PropOp28
 70
     1
102
RTVSPost2010Prop29
280
     1
102
RTVSPost2010PropOp29
 70
     1
102
RTVSPost2010Prop30
280
     1
102
RTVSPost2010PropOp30
 70
     1
102
RTVSPost2010Prop31
280
     0
102
RTVSPost2010PropOp31
 70
     1
102
RTVSPost2010Prop32
280
     0
102
RTVSPost2010PropOp32
 70
     1
102
RTVSPost2010Prop33
280
     0
102
RTVSPost2010PropOp33
 70
     1
102
RTVSPost2010Prop34
280
     0
102
RTVSPost2010PropOp34
 70
     1
102
RTVSPost2010Prop35
280
     0
102
RTVSPost2010PropOp35
 70
     1
102
RTVSPost2010Prop36
280
     0
102
RTVSPost2010PropOp36
 70
     1
102
RTVSPost2010Prop37
 90
       50
102
RTVSPost2010PropOp37
 70
     1
102
RTVSPost2010Prop38
140
0.0
102
RTVSPost2010PropOp38
 70
     1
102
RTVSPost2010Prop39
140
1.0
102
RTVSPost2010PropOp39
 70
     1
102
RTVSPost2010Prop40
 90
        0
102
RTVSPost2010PropOp40
 70
     1
102
RTVSPost2010Prop41ColorIndex
 90
       18
102
RTVSPost2010Prop41ColorRGB
 90
        0
102
RTVSPost2010PropOp41
 70
     1
102
RTVSPost2010Prop42
 90
       50
102
RTVSPost2010PropOp42
 70
     1
102
RTVSPost2010Prop43
 90
        3
102
RTVSPost2010PropOp43
 70
     1
102
RTVSPost2010Prop44ColorIndex
 90
        5
102
RTVSPost2010Prop44ColorRGB
 90
      255
102
RTVSPost2010PropOp44
 70
     1
102
RTVSPost2010Prop45
280
     0
102
RTVSPost2010PropOp45
 70
     1
102
RTVSPost2010Prop46
 90
       50
102
RTVSPost2010PropOp46
 70
     1
102
RTVSPost2010Prop47
 90
       50
102
RTVSPost2010PropOp47
 70
     1
102
RTVSPost2010Prop48
 90
       50
102
RTVSPost2010PropOp48
 70
     1
102
RTVSPost2010Prop49
280
     0
102
RTVSPost2010PropOp49
 70
     1
102
RTVSPost2010Prop50
 90
       50
102
RTVSPost2010PropOp50
 70
     1
102
RTVSPost2010Prop51ColorIndex
 90
      256
102
RTVSPost2010Prop51ColorRGB
 90
-16777216
102
RTVSPost2010PropOp51
 70
     0
102
RTVSPost2010Prop52
140
1.0
102
RTVSPost2010PropOp52
 70
     0
102
RTVSPost2010Prop53
 90
        2
102
RTVSPost2010PropOp53
 70
     1
102
RTVSPost2010Prop54
  1
strokes_ogs.tif
102
RTVSPost2010PropOp54
 70
     1
102
RTVSPost2010Prop55
280
     0
102
RTVSPost2010PropOp55
 70
     1
102
RTVSPost2010Prop56
140
1.0
102
RTVSPost2010PropOp56
 70
     1
102
RTVSPost2010Prop57
140
1.0
102
RTVSPost2010PropOp57
 70
     1
102
RTVSPropertyOp0
 70
     1
102
RTVSPropertyOp1
 70
     1
102
RTVSPropertyOp2
 70
     1
102
RTVSPropertyOp3
 70
     1
102
RTVSPropertyOp4
 70
     1
102
RTVSPropertyOp5
 70
     1
102
RTVSPropertyOp6
 70
     1
102
RTVSPropertyOp7
 70
     1
102
RTVSPropertyOp8
 70
     1
102
RTVSPropertyOp9
 70
     1
102
RTVSPropertyOp10
 70
     1
102
RTVSPropertyOp11
 70
     1
102
RTVSPropertyOp12
 70
     1
102
RTVSPropertyOp13
 70
     1
102
RTVSPropertyOp14
 70
     1
102
RTVSPropertyOp15
 70
     1
102
RTVSPropertyOp16
 70
     1
102
RTVSPropertyOp17
 70
     1
102
RTVSPropertyOp18
 70
     1
102
RTVSPropertyOp19
 70
     1
102
RTVSPropertyOp20
 70
     1
102
RTVSPropertyOp21
 70
     1
102
RTVSPropertyOp22
 70
     1
102
RTVSPropertyOp23
 70
     1
102
RTVSPropertyOp24
 70
     1
102
RTVSPropertyOp25
 70
     1
102
RTVSPropertyOp26
 70
     1
102
RTVSPropertyOp27
 70
     1
102
RTVSPropertyOp28
 70
     1
102
RTVSPropertyOp29
 70
     1
102
RTVSPropertyOp30
 70
     1
102
RTVSPropertyOp31
 70
     1
102
RTVSPropertyOp32
 70
     1
102
RTVSPropertyOp33
 70
     1
102
RTVSPropertyOp34
 70
     1
102
RTVSPropertyOp35
 70
     1
102
RTVSPropertyOp36
 70
     1
102
RTVSPropertyOp37
 70
     1
102
RTVSPropertyOp38
 70
     1
102
RTVSPropertyOp39
 70
     1
102
RTVSPropertyOp40
 70
     1
102
RTVSPropertyOp41
 70
     1
102
RTVSPropertyOp42
 70
     1
102
RTVSPropertyOp43
 70
     1
102
RTVSPropertyOp44
 70
     1
102
RTVSPropertyOp45
 70
     1
102
RTVSPropertyOp46
 70
     1
102
RTVSPropertyOp47
 70
     1
102
RTVSPropertyOp48
 70
     1
102
RTVSPropertyOp49
 70
     1
102
RTVSPropertyOp50
 70
     1
102
RTVSPropertyOp51
 70
     0
102
RTVSPropertyOp52
 70
     0
102
RTVSPropertyOp53
 70
     1
102
RTVSPropertyOp54
 70
     1
102
RTVSPropertyOp55
 70
     1
102
RTVSPropertyOp56
 70
     1
102
RTVSPropertyOp57
 70
     1
102
RTVSPropertyOp58
 70
     1
102
RTVSPropertyOp59
 70
     1
102
RTVSPropertyOp60
 70
     1
102
RTVSPropertyOp61
 70
     1
102
RTVSPropertyOp62
 70
     1
  0
XRECORD
  5
4404
102
{ACAD_REACTORS
330
4403
102
}
330
4403
100
AcDbXrecord
280
     1
102
RTVSPost2010Prop28
280
     0
102
RTVSPost2010PropOp28
 70
     1
102
RTVSPost2010Prop29
280
     1
102
RTVSPost2010PropOp29
 70
     1
102
RTVSPost2010Prop30
280
     1
102
RTVSPost2010PropOp30
 70
     1
102
RTVSPost2010Prop31
280
     0
102
RTVSPost2010PropOp31
 70
     1
102
RTVSPost2010Prop32
280
     0
102
RTVSPost2010PropOp32
 70
     1
102
RTVSPost2010Prop33
280
     0
102
RTVSPost2010PropOp33
 70
     1
102
RTVSPost2010Prop34
280
     0
102
RTVSPost2010PropOp34
 70
     1
102
RTVSPost2010Prop35
280
     0
102
RTVSPost2010PropOp35
 70
     1
102
RTVSPost2010Prop36
280
     0
102
RTVSPost2010PropOp36
 70
     1
102
RTVSPost2010Prop37
 90
       50
102
RTVSPost2010PropOp37
 70
     1
102
RTVSPost2010Prop38
140
0.0
102
RTVSPost2010PropOp38
 70
     1
102
RTVSPost2010Prop39
140
1.0
102
RTVSPost2010PropOp39
 70
     1
102
RTVSPost2010Prop40
 90
        0
102
RTVSPost2010PropOp40
 70
     1
102
RTVSPost2010Prop41ColorIndex
 90
       18
102
RTVSPost2010Prop41ColorRGB
 90
        0
102
RTVSPost2010PropOp41
 70
     1
102
RTVSPost2010Prop42
 90
       50
102
RTVSPost2010PropOp42
 70
     1
102
RTVSPost2010Prop43
 90
        3
102
RTVSPost2010PropOp43
 70
     1
102
RTVSPost2010Prop44ColorIndex
 90
        5
102
RTVSPost2010Prop44ColorRGB
 90
      255
102
RTVSPost2010PropOp44
 70
     1
102
RTVSPost2010Prop45
280
     0
102
RTVSPost2010PropOp45
 70
     1
102
RTVSPost2010Prop46
 90
       50
102
RTVSPost2010PropOp46
 70
     1
102
RTVSPost2010Prop47
 90
       50
102
RTVSPost2010PropOp47
 70
     1
102
RTVSPost2010Prop48
 90
       50
102
RTVSPost2010PropOp48
 70
     1
102
RTVSPost2010Prop49
280
     0
102
RTVSPost2010PropOp49
 70
     1
102
RTVSPost2010Prop50
 90
       50
102
RTVSPost2010PropOp50
 70
     1
102
RTVSPost2010Prop51ColorIndex
 90
      256
102
RTVSPost2010Prop51ColorRGB
 90
-16777216
102
RTVSPost2010PropOp51
 70
     0
102
RTVSPost2010Prop52
140
1.0
102
RTVSPost2010PropOp52
 70
     0
102
RTVSPost2010Prop53
 90
        2
102
RTVSPost2010PropOp53
 70
     1
102
RTVSPost2010Prop54
  1
strokes_ogs.tif
102
RTVSPost2010PropOp54
 70
     1
102
RTVSPost2010Prop55
280
     0
102
RTVSPost2010PropOp55
 70
     1
102
RTVSPost2010Prop56
140
1.0
102
RTVSPost2010PropOp56
 70
     1
102
RTVSPost2010Prop57
140
1.0
102
RTVSPost2010PropOp57
 70
     1
102
RTVSPropertyOp0
 70
     1
102
RTVSPropertyOp1
 70
     1
102
RTVSPropertyOp2
 70
     1
102
RTVSPropertyOp3
 70
     1
102
RTVSPropertyOp4
 70
     1
102
RTVSPropertyOp5
 70
     1
102
RTVSPropertyOp6
 70
     1
102
RTVSPropertyOp7
 70
     1
102
RTVSPropertyOp8
 70
     1
102
RTVSPropertyOp9
 70
     1
102
RTVSPropertyOp10
 70
     1
102
RTVSPropertyOp11
 70
     1
102
RTVSPropertyOp12
 70
     1
102
RTVSPropertyOp13
 70
     1
102
RTVSPropertyOp14
 70
     1
102
RTVSPropertyOp15
 70
     1
102
RTVSPropertyOp16
 70
     1
102
RTVSPropertyOp17
 70
     1
102
RTVSPropertyOp18
 70
     1
102
RTVSPropertyOp19
 70
     1
102
RTVSPropertyOp20
 70
     1
102
RTVSPropertyOp21
 70
     1
102
RTVSPropertyOp22
 70
     1
102
RTVSPropertyOp23
 70
     1
102
RTVSPropertyOp24
 70
     1
102
RTVSPropertyOp25
 70
     1
102
RTVSPropertyOp26
 70
     1
102
RTVSPropertyOp27
 70
     1
102
RTVSPropertyOp28
 70
     1
102
RTVSPropertyOp29
 70
     1
102
RTVSPropertyOp30
 70
     1
102
RTVSPropertyOp31
 70
     1
102
RTVSPropertyOp32
 70
     1
102
RTVSPropertyOp33
 70
     1
102
RTVSPropertyOp34
 70
     1
102
RTVSPropertyOp35
 70
     1
102
RTVSPropertyOp36
 70
     1
102
RTVSPropertyOp37
 70
     1
102
RTVSPropertyOp38
 70
     1
102
RTVSPropertyOp39
 70
     1
102
RTVSPropertyOp40
 70
     1
102
RTVSPropertyOp41
 70
     1
102
RTVSPropertyOp42
 70
     1
102
RTVSPropertyOp43
 70
     1
102
RTVSPropertyOp44
 70
     1
102
RTVSPropertyOp45
 70
     1
102
RTVSPropertyOp46
 70
     1
102
RTVSPropertyOp47
 70
     1
102
RTVSPropertyOp48
 70
     1
102
RTVSPropertyOp49
 70
     1
102
RTVSPropertyOp50
 70
     1
102
RTVSPropertyOp51
 70
     0
102
RTVSPropertyOp52
 70
     0
102
RTVSPropertyOp53
 70
     1
102
RTVSPropertyOp54
 70
     1
102
RTVSPropertyOp55
 70
     1
102
RTVSPropertyOp56
 70
     1
102
RTVSPropertyOp57
 70
     1
102
RTVSPropertyOp58
 70
     1
102
RTVSPropertyOp59
 70
     1
102
RTVSPropertyOp60
 70
     1
102
RTVSPropertyOp61
 70
     1
102
RTVSPropertyOp62
 70
     1
  0
XRECORD
  5
4416
102
{ACAD_REACTORS
330
4415
102
}
330
4415
100
AcDbXrecord
280
     1
102
RTVSPost2010Prop28
280
     0
102
RTVSPost2010PropOp28
 70
     1
102
RTVSPost2010Prop29
280
     1
102
RTVSPost2010PropOp29
 70
     1
102
RTVSPost2010Prop30
280
     1
102
RTVSPost2010PropOp30
 70
     1
102
RTVSPost2010Prop31
280
     0
102
RTVSPost2010PropOp31
 70
     1
102
RTVSPost2010Prop32
280
     0
102
RTVSPost2010PropOp32
 70
     1
102
RTVSPost2010Prop33
280
     0
102
RTVSPost2010PropOp33
 70
     1
102
RTVSPost2010Prop34
280
     0
102
RTVSPost2010PropOp34
 70
     1
102
RTVSPost2010Prop35
280
     0
102
RTVSPost2010PropOp35
 70
     1
102
RTVSPost2010Prop36
280
     0
102
RTVSPost2010PropOp36
 70
     1
102
RTVSPost2010Prop37
 90
       50
102
RTVSPost2010PropOp37
 70
     1
102
RTVSPost2010Prop38
140
0.0
102
RTVSPost2010PropOp38
 70
     1
102
RTVSPost2010Prop39
140
1.0
102
RTVSPost2010PropOp39
 70
     1
102
RTVSPost2010Prop40
 90
        0
102
RTVSPost2010PropOp40
 70
     1
102
RTVSPost2010Prop41ColorIndex
 90
       18
102
RTVSPost2010Prop41ColorRGB
 90
        0
102
RTVSPost2010PropOp41
 70
     1
102
RTVSPost2010Prop42
 90
       50
102
RTVSPost2010PropOp42
 70
     1
102
RTVSPost2010Prop43
 90
        3
102
RTVSPost2010PropOp43
 70
     1
102
RTVSPost2010Prop44ColorIndex
 90
        5
102
RTVSPost2010Prop44ColorRGB
 90
      255
102
RTVSPost2010PropOp44
 70
     1
102
RTVSPost2010Prop45
280
     0
102
RTVSPost2010PropOp45
 70
     1
102
RTVSPost2010Prop46
 90
       50
102
RTVSPost2010PropOp46
 70
     1
102
RTVSPost2010Prop47
 90
       50
102
RTVSPost2010PropOp47
 70
     1
102
RTVSPost2010Prop48
 90
       50
102
RTVSPost2010PropOp48
 70
     1
102
RTVSPost2010Prop49
280
     0
102
RTVSPost2010PropOp49
 70
     1
102
RTVSPost2010Prop50
 90
       50
102
RTVSPost2010PropOp50
 70
     1
102
RTVSPost2010Prop51ColorIndex
 90
      256
102
RTVSPost2010Prop51ColorRGB
 90
-16777216
102
RTVSPost2010PropOp51
 70
     0
102
RTVSPost2010Prop52
140
1.0
102
RTVSPost2010PropOp52
 70
     0
102
RTVSPost2010Prop53
 90
        2
102
RTVSPost2010PropOp53
 70
     1
102
RTVSPost2010Prop54
  1
strokes_ogs.tif
102
RTVSPost2010PropOp54
 70
     1
102
RTVSPost2010Prop55
280
     0
102
RTVSPost2010PropOp55
 70
     1
102
RTVSPost2010Prop56
140
1.0
102
RTVSPost2010PropOp56
 70
     1
102
RTVSPost2010Prop57
140
1.0
102
RTVSPost2010PropOp57
 70
     1
102
RTVSPropertyOp0
 70
     0
102
RTVSPropertyOp1
 70
     0
102
RTVSPropertyOp2
 70
     0
102
RTVSPropertyOp3
 70
     0
102
RTVSPropertyOp4
 70
     0
102
RTVSPropertyOp5
 70
     0
102
RTVSPropertyOp6
 70
     0
102
RTVSPropertyOp7
 70
     0
102
RTVSPropertyOp8
 70
     0
102
RTVSPropertyOp9
 70
     0
102
RTVSPropertyOp10
 70
     0
102
RTVSPropertyOp11
 70
     0
102
RTVSPropertyOp12
 70
     0
102
RTVSPropertyOp13
 70
     0
102
RTVSPropertyOp14
 70
     2
102
RTVSPropertyOp15
 70
     0
102
RTVSPropertyOp16
 70
     0
102
RTVSPropertyOp17
 70
     0
102
RTVSPropertyOp18
 70
     0
102
RTVSPropertyOp19
 70
     0
102
RTVSPropertyOp20
 70
     0
102
RTVSPropertyOp21
 70
     0
102
RTVSPropertyOp22
 70
     0
102
RTVSPropertyOp23
 70
     0
102
RTVSPropertyOp24
 70
     0
102
RTVSPropertyOp25
 70
     0
102
RTVSPropertyOp26
 70
     0
102
RTVSPropertyOp27
 70
     0
102
RTVSPropertyOp28
 70
     1
102
RTVSPropertyOp29
 70
     1
102
RTVSPropertyOp30
 70
     1
102
RTVSPropertyOp31
 70
     1
102
RTVSPropertyOp32
 70
     1
102
RTVSPropertyOp33
 70
     1
102
RTVSPropertyOp34
 70
     1
102
RTVSPropertyOp35
 70
     1
102
RTVSPropertyOp36
 70
     1
102
RTVSPropertyOp37
 70
     1
102
RTVSPropertyOp38
 70
     1
102
RTVSPropertyOp39
 70
     1
102
RTVSPropertyOp40
 70
     1
102
RTVSPropertyOp41
 70
     1
102
RTVSPropertyOp42
 70
     1
102
RTVSPropertyOp43
 70
     1
102
RTVSPropertyOp44
 70
     1
102
RTVSPropertyOp45
 70
     1
102
RTVSPropertyOp46
 70
     1
102
RTVSPropertyOp47
 70
     1
102
RTVSPropertyOp48
 70
     1
102
RTVSPropertyOp49
 70
     1
102
RTVSPropertyOp50
 70
     1
102
RTVSPropertyOp51
 70
     0
102
RTVSPropertyOp52
 70
     0
102
RTVSPropertyOp53
 70
     1
102
RTVSPropertyOp54
 70
     1
102
RTVSPropertyOp55
 70
     1
102
RTVSPropertyOp56
 70
     1
102
RTVSPropertyOp57
 70
     1
102
RTVSPropertyOp58
 70
     1
102
RTVSPropertyOp59
 70
     1
102
RTVSPropertyOp60
 70
     1
102
RTVSPropertyOp61
 70
     1
102
RTVSPropertyOp62
 70
     1
  0
XRECORD
  5
4410
102
{ACAD_REACTORS
330
440F
102
}
330
440F
100
AcDbXrecord
280
     1
102
RTVSPost2010Prop28
280
     0
102
RTVSPost2010PropOp28
 70
     1
102
RTVSPost2010Prop29
280
     1
102
RTVSPost2010PropOp29
 70
     1
102
RTVSPost2010Prop30
280
     1
102
RTVSPost2010PropOp30
 70
     1
102
RTVSPost2010Prop31
280
     0
102
RTVSPost2010PropOp31
 70
     1
102
RTVSPost2010Prop32
280
     0
102
RTVSPost2010PropOp32
 70
     1
102
RTVSPost2010Prop33
280
     0
102
RTVSPost2010PropOp33
 70
     1
102
RTVSPost2010Prop34
280
     0
102
RTVSPost2010PropOp34
 70
     1
102
RTVSPost2010Prop35
280
     0
102
RTVSPost2010PropOp35
 70
     1
102
RTVSPost2010Prop36
280
     0
102
RTVSPost2010PropOp36
 70
     1
102
RTVSPost2010Prop37
 90
       50
102
RTVSPost2010PropOp37
 70
     1
102
RTVSPost2010Prop38
140
0.0
102
RTVSPost2010PropOp38
 70
     1
102
RTVSPost2010Prop39
140
1.0
102
RTVSPost2010PropOp39
 70
     1
102
RTVSPost2010Prop40
 90
        0
102
RTVSPost2010PropOp40
 70
     1
102
RTVSPost2010Prop41ColorIndex
 90
       18
102
RTVSPost2010Prop41ColorRGB
 90
        0
102
RTVSPost2010PropOp41
 70
     1
102
RTVSPost2010Prop42
 90
       50
102
RTVSPost2010PropOp42
 70
     1
102
RTVSPost2010Prop43
 90
        3
102
RTVSPost2010PropOp43
 70
     1
102
RTVSPost2010Prop44ColorIndex
 90
        5
102
RTVSPost2010Prop44ColorRGB
 90
      255
102
RTVSPost2010PropOp44
 70
     1
102
RTVSPost2010Prop45
280
     0
102
RTVSPost2010PropOp45
 70
     1
102
RTVSPost2010Prop46
 90
       50
102
RTVSPost2010PropOp46
 70
     1
102
RTVSPost2010Prop47
 90
       50
102
RTVSPost2010PropOp47
 70
     1
102
RTVSPost2010Prop48
 90
       50
102
RTVSPost2010PropOp48
 70
     1
102
RTVSPost2010Prop49
280
     0
102
RTVSPost2010PropOp49
 70
     1
102
RTVSPost2010Prop50
 90
       50
102
RTVSPost2010PropOp50
 70
     1
102
RTVSPost2010Prop51ColorIndex
 90
      256
102
RTVSPost2010Prop51ColorRGB
 90
-16777216
102
RTVSPost2010PropOp51
 70
     0
102
RTVSPost2010Prop52
140
1.0
102
RTVSPost2010PropOp52
 70
     0
102
RTVSPost2010Prop53
 90
        2
102
RTVSPost2010PropOp53
 70
     1
102
RTVSPost2010Prop54
  1
strokes_ogs.tif
102
RTVSPost2010PropOp54
 70
     1
102
RTVSPost2010Prop55
280
     0
102
RTVSPost2010PropOp55
 70
     1
102
RTVSPost2010Prop56
140
1.0
102
RTVSPost2010PropOp56
 70
     1
102
RTVSPost2010Prop57
140
1.0
102
RTVSPost2010PropOp57
 70
     1
102
RTVSPropertyOp0
 70
     1
102
RTVSPropertyOp1
 70
     1
102
RTVSPropertyOp2
 70
     1
102
RTVSPropertyOp3
 70
     1
102
RTVSPropertyOp4
 70
     1
102
RTVSPropertyOp5
 70
     1
102
RTVSPropertyOp6
 70
     1
102
RTVSPropertyOp7
 70
     1
102
RTVSPropertyOp8
 70
     1
102
RTVSPropertyOp9
 70
     1
102
RTVSPropertyOp10
 70
     1
102
RTVSPropertyOp11
 70
     1
102
RTVSPropertyOp12
 70
     1
102
RTVSPropertyOp13
 70
     1
102
RTVSPropertyOp14
 70
     1
102
RTVSPropertyOp15
 70
     1
102
RTVSPropertyOp16
 70
     1
102
RTVSPropertyOp17
 70
     1
102
RTVSPropertyOp18
 70
     1
102
RTVSPropertyOp19
 70
     1
102
RTVSPropertyOp20
 70
     1
102
RTVSPropertyOp21
 70
     1
102
RTVSPropertyOp22
 70
     1
102
RTVSPropertyOp23
 70
     1
102
RTVSPropertyOp24
 70
     1
102
RTVSPropertyOp25
 70
     1
102
RTVSPropertyOp26
 70
     1
102
RTVSPropertyOp27
 70
     1
102
RTVSPropertyOp28
 70
     1
102
RTVSPropertyOp29
 70
     1
102
RTVSPropertyOp30
 70
     1
102
RTVSPropertyOp31
 70
     1
102
RTVSPropertyOp32
 70
     1
102
RTVSPropertyOp33
 70
     1
102
RTVSPropertyOp34
 70
     1
102
RTVSPropertyOp35
 70
     1
102
RTVSPropertyOp36
 70
     1
102
RTVSPropertyOp37
 70
     1
102
RTVSPropertyOp38
 70
     1
102
RTVSPropertyOp39
 70
     1
102
RTVSPropertyOp40
 70
     1
102
RTVSPropertyOp41
 70
     1
102
RTVSPropertyOp42
 70
     1
102
RTVSPropertyOp43
 70
     1
102
RTVSPropertyOp44
 70
     1
102
RTVSPropertyOp45
 70
     1
102
RTVSPropertyOp46
 70
     1
102
RTVSPropertyOp47
 70
     1
102
RTVSPropertyOp48
 70
     1
102
RTVSPropertyOp49
 70
     1
102
RTVSPropertyOp50
 70
     1
102
RTVSPropertyOp51
 70
     0
102
RTVSPropertyOp52
 70
     0
102
RTVSPropertyOp53
 70
     1
102
RTVSPropertyOp54
 70
     1
102
RTVSPropertyOp55
 70
     1
102
RTVSPropertyOp56
 70
     1
102
RTVSPropertyOp57
 70
     1
102
RTVSPropertyOp58
 70
     1
102
RTVSPropertyOp59
 70
     1
102
RTVSPropertyOp60
 70
     1
102
RTVSPropertyOp61
 70
     1
102
RTVSPropertyOp62
 70
     1
  0
XRECORD
  5
4418
102
{ACAD_REACTORS
330
4417
102
}
330
4417
100
AcDbXrecord
280
     1
102
RTVSPost2010Prop28
280
     0
102
RTVSPost2010PropOp28
 70
     1
102
RTVSPost2010Prop29
280
     1
102
RTVSPost2010PropOp29
 70
     1
102
RTVSPost2010Prop30
280
     1
102
RTVSPost2010PropOp30
 70
     1
102
RTVSPost2010Prop31
280
     0
102
RTVSPost2010PropOp31
 70
     1
102
RTVSPost2010Prop32
280
     0
102
RTVSPost2010PropOp32
 70
     1
102
RTVSPost2010Prop33
280
     0
102
RTVSPost2010PropOp33
 70
     1
102
RTVSPost2010Prop34
280
     0
102
RTVSPost2010PropOp34
 70
     1
102
RTVSPost2010Prop35
280
     0
102
RTVSPost2010PropOp35
 70
     1
102
RTVSPost2010Prop36
280
     0
102
RTVSPost2010PropOp36
 70
     1
102
RTVSPost2010Prop37
 90
       50
102
RTVSPost2010PropOp37
 70
     1
102
RTVSPost2010Prop38
140
0.0
102
RTVSPost2010PropOp38
 70
     1
102
RTVSPost2010Prop39
140
1.0
102
RTVSPost2010PropOp39
 70
     1
102
RTVSPost2010Prop40
 90
        0
102
RTVSPost2010PropOp40
 70
     1
102
RTVSPost2010Prop41ColorIndex
 90
       18
102
RTVSPost2010Prop41ColorRGB
 90
        0
102
RTVSPost2010PropOp41
 70
     1
102
RTVSPost2010Prop42
 90
       50
102
RTVSPost2010PropOp42
 70
     1
102
RTVSPost2010Prop43
 90
        3
102
RTVSPost2010PropOp43
 70
     1
102
RTVSPost2010Prop44ColorIndex
 90
        5
102
RTVSPost2010Prop44ColorRGB
 90
      255
102
RTVSPost2010PropOp44
 70
     1
102
RTVSPost2010Prop45
280
     0
102
RTVSPost2010PropOp45
 70
     1
102
RTVSPost2010Prop46
 90
       50
102
RTVSPost2010PropOp46
 70
     1
102
RTVSPost2010Prop47
 90
       50
102
RTVSPost2010PropOp47
 70
     1
102
RTVSPost2010Prop48
 90
       50
102
RTVSPost2010PropOp48
 70
     1
102
RTVSPost2010Prop49
280
     0
102
RTVSPost2010PropOp49
 70
     1
102
RTVSPost2010Prop50
 90
       50
102
RTVSPost2010PropOp50
 70
     1
102
RTVSPost2010Prop51ColorIndex
 90
      256
102
RTVSPost2010Prop51ColorRGB
 90
-16777216
102
RTVSPost2010PropOp51
 70
     0
102
RTVSPost2010Prop52
140
1.0
102
RTVSPost2010PropOp52
 70
     0
102
RTVSPost2010Prop53
 90
        2
102
RTVSPost2010PropOp53
 70
     1
102
RTVSPost2010Prop54
  1
strokes_ogs.tif
102
RTVSPost2010PropOp54
 70
     1
102
RTVSPost2010Prop55
280
     0
102
RTVSPost2010PropOp55
 70
     1
102
RTVSPost2010Prop56
140
1.0
102
RTVSPost2010PropOp56
 70
     1
102
RTVSPost2010Prop57
140
1.0
102
RTVSPost2010PropOp57
 70
     1
102
RTVSPropertyOp0
 70
     0
102
RTVSPropertyOp1
 70
     0
102
RTVSPropertyOp2
 70
     0
102
RTVSPropertyOp3
 70
     0
102
RTVSPropertyOp4
 70
     0
102
RTVSPropertyOp5
 70
     0
102
RTVSPropertyOp6
 70
     0
102
RTVSPropertyOp7
 70
     0
102
RTVSPropertyOp8
 70
     0
102
RTVSPropertyOp9
 70
     0
102
RTVSPropertyOp10
 70
     0
102
RTVSPropertyOp11
 70
     0
102
RTVSPropertyOp12
 70
     0
102
RTVSPropertyOp13
 70
     0
102
RTVSPropertyOp14
 70
     2
102
RTVSPropertyOp15
 70
     0
102
RTVSPropertyOp16
 70
     0
102
RTVSPropertyOp17
 70
     0
102
RTVSPropertyOp18
 70
     0
102
RTVSPropertyOp19
 70
     0
102
RTVSPropertyOp20
 70
     0
102
RTVSPropertyOp21
 70
     0
102
RTVSPropertyOp22
 70
     0
102
RTVSPropertyOp23
 70
     0
102
RTVSPropertyOp24
 70
     0
102
RTVSPropertyOp25
 70
     0
102
RTVSPropertyOp26
 70
     0
102
RTVSPropertyOp27
 70
     0
102
RTVSPropertyOp28
 70
     1
102
RTVSPropertyOp29
 70
     1
102
RTVSPropertyOp30
 70
     1
102
RTVSPropertyOp31
 70
     1
102
RTVSPropertyOp32
 70
     1
102
RTVSPropertyOp33
 70
     1
102
RTVSPropertyOp34
 70
     1
102
RTVSPropertyOp35
 70
     1
102
RTVSPropertyOp36
 70
     1
102
RTVSPropertyOp37
 70
     1
102
RTVSPropertyOp38
 70
     1
102
RTVSPropertyOp39
 70
     1
102
RTVSPropertyOp40
 70
     1
102
RTVSPropertyOp41
 70
     1
102
RTVSPropertyOp42
 70
     1
102
RTVSPropertyOp43
 70
     1
102
RTVSPropertyOp44
 70
     1
102
RTVSPropertyOp45
 70
     1
102
RTVSPropertyOp46
 70
     1
102
RTVSPropertyOp47
 70
     1
102
RTVSPropertyOp48
 70
     1
102
RTVSPropertyOp49
 70
     1
102
RTVSPropertyOp50
 70
     1
102
RTVSPropertyOp51
 70
     0
102
RTVSPropertyOp52
 70
     0
102
RTVSPropertyOp53
 70
     1
102
RTVSPropertyOp54
 70
     1
102
RTVSPropertyOp55
 70
     1
102
RTVSPropertyOp56
 70
     1
102
RTVSPropertyOp57
 70
     1
102
RTVSPropertyOp58
 70
     1
102
RTVSPropertyOp59
 70
     1
102
RTVSPropertyOp60
 70
     1
102
RTVSPropertyOp61
 70
     1
102
RTVSPropertyOp62
 70
     1
  0
XRECORD
  5
4408
102
{ACAD_REACTORS
330
4407
102
}
330
4407
100
AcDbXrecord
280
     1
102
RTVSPost2010Prop28
280
     0
102
RTVSPost2010PropOp28
 70
     1
102
RTVSPost2010Prop29
280
     1
102
RTVSPost2010PropOp29
 70
     1
102
RTVSPost2010Prop30
280
     1
102
RTVSPost2010PropOp30
 70
     1
102
RTVSPost2010Prop31
280
     0
102
RTVSPost2010PropOp31
 70
     1
102
RTVSPost2010Prop32
280
     0
102
RTVSPost2010PropOp32
 70
     1
102
RTVSPost2010Prop33
280
     0
102
RTVSPost2010PropOp33
 70
     1
102
RTVSPost2010Prop34
280
     0
102
RTVSPost2010PropOp34
 70
     1
102
RTVSPost2010Prop35
280
     0
102
RTVSPost2010PropOp35
 70
     1
102
RTVSPost2010Prop36
280
     0
102
RTVSPost2010PropOp36
 70
     1
102
RTVSPost2010Prop37
 90
       50
102
RTVSPost2010PropOp37
 70
     1
102
RTVSPost2010Prop38
140
0.0
102
RTVSPost2010PropOp38
 70
     1
102
RTVSPost2010Prop39
140
1.0
102
RTVSPost2010PropOp39
 70
     1
102
RTVSPost2010Prop40
 90
        0
102
RTVSPost2010PropOp40
 70
     1
102
RTVSPost2010Prop41ColorIndex
 90
       18
102
RTVSPost2010Prop41ColorRGB
 90
        0
102
RTVSPost2010PropOp41
 70
     1
102
RTVSPost2010Prop42
 90
       50
102
RTVSPost2010PropOp42
 70
     1
102
RTVSPost2010Prop43
 90
        3
102
RTVSPost2010PropOp43
 70
     1
102
RTVSPost2010Prop44ColorIndex
 90
        5
102
RTVSPost2010Prop44ColorRGB
 90
      255
102
RTVSPost2010PropOp44
 70
     1
102
RTVSPost2010Prop45
280
     0
102
RTVSPost2010PropOp45
 70
     1
102
RTVSPost2010Prop46
 90
       50
102
RTVSPost2010PropOp46
 70
     1
102
RTVSPost2010Prop47
 90
       50
102
RTVSPost2010PropOp47
 70
     1
102
RTVSPost2010Prop48
 90
       50
102
RTVSPost2010PropOp48
 70
     1
102
RTVSPost2010Prop49
280
     0
102
RTVSPost2010PropOp49
 70
     1
102
RTVSPost2010Prop50
 90
       50
102
RTVSPost2010PropOp50
 70
     1
102
RTVSPost2010Prop51ColorIndex
 90
      256
102
RTVSPost2010Prop51ColorRGB
 90
-16777216
102
RTVSPost2010PropOp51
 70
     0
102
RTVSPost2010Prop52
140
1.0
102
RTVSPost2010PropOp52
 70
     0
102
RTVSPost2010Prop53
 90
        2
102
RTVSPost2010PropOp53
 70
     1
102
RTVSPost2010Prop54
  1
strokes_ogs.tif
102
RTVSPost2010PropOp54
 70
     1
102
RTVSPost2010Prop55
280
     0
102
RTVSPost2010PropOp55
 70
     1
102
RTVSPost2010Prop56
140
1.0
102
RTVSPost2010PropOp56
 70
     1
102
RTVSPost2010Prop57
140
1.0
102
RTVSPost2010PropOp57
 70
     1
102
RTVSPropertyOp0
 70
     1
102
RTVSPropertyOp1
 70
     1
102
RTVSPropertyOp2
 70
     1
102
RTVSPropertyOp3
 70
     1
102
RTVSPropertyOp4
 70
     1
102
RTVSPropertyOp5
 70
     1
102
RTVSPropertyOp6
 70
     1
102
RTVSPropertyOp7
 70
     1
102
RTVSPropertyOp8
 70
     1
102
RTVSPropertyOp9
 70
     1
102
RTVSPropertyOp10
 70
     1
102
RTVSPropertyOp11
 70
     1
102
RTVSPropertyOp12
 70
     1
102
RTVSPropertyOp13
 70
     1
102
RTVSPropertyOp14
 70
     1
102
RTVSPropertyOp15
 70
     1
102
RTVSPropertyOp16
 70
     1
102
RTVSPropertyOp17
 70
     1
102
RTVSPropertyOp18
 70
     1
102
RTVSPropertyOp19
 70
     1
102
RTVSPropertyOp20
 70
     1
102
RTVSPropertyOp21
 70
     1
102
RTVSPropertyOp22
 70
     1
102
RTVSPropertyOp23
 70
     1
102
RTVSPropertyOp24
 70
     1
102
RTVSPropertyOp25
 70
     1
102
RTVSPropertyOp26
 70
     1
102
RTVSPropertyOp27
 70
     1
102
RTVSPropertyOp28
 70
     1
102
RTVSPropertyOp29
 70
     1
102
RTVSPropertyOp30
 70
     1
102
RTVSPropertyOp31
 70
     1
102
RTVSPropertyOp32
 70
     1
102
RTVSPropertyOp33
 70
     1
102
RTVSPropertyOp34
 70
     1
102
RTVSPropertyOp35
 70
     1
102
RTVSPropertyOp36
 70
     1
102
RTVSPropertyOp37
 70
     1
102
RTVSPropertyOp38
 70
     1
102
RTVSPropertyOp39
 70
     1
102
RTVSPropertyOp40
 70
     1
102
RTVSPropertyOp41
 70
     1
102
RTVSPropertyOp42
 70
     1
102
RTVSPropertyOp43
 70
     1
102
RTVSPropertyOp44
 70
     1
102
RTVSPropertyOp45
 70
     1
102
RTVSPropertyOp46
 70
     1
102
RTVSPropertyOp47
 70
     1
102
RTVSPropertyOp48
 70
     1
102
RTVSPropertyOp49
 70
     1
102
RTVSPropertyOp50
 70
     1
102
RTVSPropertyOp51
 70
     0
102
RTVSPropertyOp52
 70
     0
102
RTVSPropertyOp53
 70
     1
102
RTVSPropertyOp54
 70
     1
102
RTVSPropertyOp55
 70
     1
102
RTVSPropertyOp56
 70
     1
102
RTVSPropertyOp57
 70
     1
102
RTVSPropertyOp58
 70
     1
102
RTVSPropertyOp59
 70
     1
102
RTVSPropertyOp60
 70
     1
102
RTVSPropertyOp61
 70
     1
102
RTVSPropertyOp62
 70
     1
  0
XRECORD
  5
4424
102
{ACAD_REACTORS
330
4423
102
}
330
4423
100
AcDbXrecord
280
     1
102
RTVSPost2010Prop28
280
     0
102
RTVSPost2010PropOp28
 70
     1
102
RTVSPost2010Prop29
280
     1
102
RTVSPost2010PropOp29
 70
     1
102
RTVSPost2010Prop30
280
     1
102
RTVSPost2010PropOp30
 70
     1
102
RTVSPost2010Prop31
280
     0
102
RTVSPost2010PropOp31
 70
     1
102
RTVSPost2010Prop32
280
     0
102
RTVSPost2010PropOp32
 70
     1
102
RTVSPost2010Prop33
280
     0
102
RTVSPost2010PropOp33
 70
     1
102
RTVSPost2010Prop34
280
     0
102
RTVSPost2010PropOp34
 70
     1
102
RTVSPost2010Prop35
280
     0
102
RTVSPost2010PropOp35
 70
     1
102
RTVSPost2010Prop36
280
     0
102
RTVSPost2010PropOp36
 70
     1
102
RTVSPost2010Prop37
 90
       50
102
RTVSPost2010PropOp37
 70
     1
102
RTVSPost2010Prop38
140
0.0
102
RTVSPost2010PropOp38
 70
     1
102
RTVSPost2010Prop39
140
1.0
102
RTVSPost2010PropOp39
 70
     1
102
RTVSPost2010Prop40
 90
        0
102
RTVSPost2010PropOp40
 70
     1
102
RTVSPost2010Prop41ColorIndex
 90
       18
102
RTVSPost2010Prop41ColorRGB
 90
        0
102
RTVSPost2010PropOp41
 70
     1
102
RTVSPost2010Prop42
 90
       50
102
RTVSPost2010PropOp42
 70
     1
102
RTVSPost2010Prop43
 90
        3
102
RTVSPost2010PropOp43
 70
     1
102
RTVSPost2010Prop44ColorIndex
 90
        5
102
RTVSPost2010Prop44ColorRGB
 90
      255
102
RTVSPost2010PropOp44
 70
     1
102
RTVSPost2010Prop45
280
     0
102
RTVSPost2010PropOp45
 70
     1
102
RTVSPost2010Prop46
 90
       50
102
RTVSPost2010PropOp46
 70
     1
102
RTVSPost2010Prop47
 90
       50
102
RTVSPost2010PropOp47
 70
     1
102
RTVSPost2010Prop48
 90
       50
102
RTVSPost2010PropOp48
 70
     1
102
RTVSPost2010Prop49
280
     0
102
RTVSPost2010PropOp49
 70
     1
102
RTVSPost2010Prop50
 90
       50
102
RTVSPost2010PropOp50
 70
     1
102
RTVSPost2010Prop51ColorIndex
 90
      256
102
RTVSPost2010Prop51ColorRGB
 90
-16777216
102
RTVSPost2010PropOp51
 70
     0
102
RTVSPost2010Prop52
140
1.0
102
RTVSPost2010PropOp52
 70
     0
102
RTVSPost2010Prop53
 90
        2
102
RTVSPost2010PropOp53
 70
     1
102
RTVSPost2010Prop54
  1
strokes_ogs.tif
102
RTVSPost2010PropOp54
 70
     1
102
RTVSPost2010Prop55
280
     0
102
RTVSPost2010PropOp55
 70
     1
102
RTVSPost2010Prop56
140
1.0
102
RTVSPost2010PropOp56
 70
     1
102
RTVSPost2010Prop57
140
1.0
102
RTVSPost2010PropOp57
 70
     1
102
RTVSPropertyOp0
 70
     1
102
RTVSPropertyOp1
 70
     1
102
RTVSPropertyOp2
 70
     1
102
RTVSPropertyOp3
 70
     1
102
RTVSPropertyOp4
 70
     1
102
RTVSPropertyOp5
 70
     1
102
RTVSPropertyOp6
 70
     1
102
RTVSPropertyOp7
 70
     1
102
RTVSPropertyOp8
 70
     1
102
RTVSPropertyOp9
 70
     1
102
RTVSPropertyOp10
 70
     1
102
RTVSPropertyOp11
 70
     1
102
RTVSPropertyOp12
 70
     1
102
RTVSPropertyOp13
 70
     1
102
RTVSPropertyOp14
 70
     1
102
RTVSPropertyOp15
 70
     1
102
RTVSPropertyOp16
 70
     1
102
RTVSPropertyOp17
 70
     1
102
RTVSPropertyOp18
 70
     1
102
RTVSPropertyOp19
 70
     1
102
RTVSPropertyOp20
 70
     1
102
RTVSPropertyOp21
 70
     1
102
RTVSPropertyOp22
 70
     1
102
RTVSPropertyOp23
 70
     1
102
RTVSPropertyOp24
 70
     1
102
RTVSPropertyOp25
 70
     1
102
RTVSPropertyOp26
 70
     1
102
RTVSPropertyOp27
 70
     1
102
RTVSPropertyOp28
 70
     1
102
RTVSPropertyOp29
 70
     1
102
RTVSPropertyOp30
 70
     1
102
RTVSPropertyOp31
 70
     1
102
RTVSPropertyOp32
 70
     1
102
RTVSPropertyOp33
 70
     1
102
RTVSPropertyOp34
 70
     1
102
RTVSPropertyOp35
 70
     1
102
RTVSPropertyOp36
 70
     1
102
RTVSPropertyOp37
 70
     1
102
RTVSPropertyOp38
 70
     1
102
RTVSPropertyOp39
 70
     1
102
RTVSPropertyOp40
 70
     1
102
RTVSPropertyOp41
 70
     1
102
RTVSPropertyOp42
 70
     1
102
RTVSPropertyOp43
 70
     1
102
RTVSPropertyOp44
 70
     1
102
RTVSPropertyOp45
 70
     1
102
RTVSPropertyOp46
 70
     1
102
RTVSPropertyOp47
 70
     1
102
RTVSPropertyOp48
 70
     1
102
RTVSPropertyOp49
 70
     1
102
RTVSPropertyOp50
 70
     1
102
RTVSPropertyOp51
 70
     0
102
RTVSPropertyOp52
 70
     0
102
RTVSPropertyOp53
 70
     1
102
RTVSPropertyOp54
 70
     1
102
RTVSPropertyOp55
 70
     1
102
RTVSPropertyOp56
 70
     1
102
RTVSPropertyOp57
 70
     1
102
RTVSPropertyOp58
 70
     1
102
RTVSPropertyOp59
 70
     1
102
RTVSPropertyOp60
 70
     1
102
RTVSPropertyOp61
 70
     1
102
RTVSPropertyOp62
 70
     1
  0
XRECORD
  5
4422
102
{ACAD_REACTORS
330
4421
102
}
330
4421
100
AcDbXrecord
280
     1
102
RTVSPost2010Prop28
280
     0
102
RTVSPost2010PropOp28
 70
     1
102
RTVSPost2010Prop29
280
     1
102
RTVSPost2010PropOp29
 70
     1
102
RTVSPost2010Prop30
280
     1
102
RTVSPost2010PropOp30
 70
     1
102
RTVSPost2010Prop31
280
     0
102
RTVSPost2010PropOp31
 70
     1
102
RTVSPost2010Prop32
280
     0
102
RTVSPost2010PropOp32
 70
     1
102
RTVSPost2010Prop33
280
     0
102
RTVSPost2010PropOp33
 70
     1
102
RTVSPost2010Prop34
280
     0
102
RTVSPost2010PropOp34
 70
     1
102
RTVSPost2010Prop35
280
     0
102
RTVSPost2010PropOp35
 70
     1
102
RTVSPost2010Prop36
280
     0
102
RTVSPost2010PropOp36
 70
     1
102
RTVSPost2010Prop37
 90
       50
102
RTVSPost2010PropOp37
 70
     1
102
RTVSPost2010Prop38
140
0.0
102
RTVSPost2010PropOp38
 70
     1
102
RTVSPost2010Prop39
140
1.0
102
RTVSPost2010PropOp39
 70
     1
102
RTVSPost2010Prop40
 90
        0
102
RTVSPost2010PropOp40
 70
     1
102
RTVSPost2010Prop41ColorIndex
 90
       18
102
RTVSPost2010Prop41ColorRGB
 90
        0
102
RTVSPost2010PropOp41
 70
     1
102
RTVSPost2010Prop42
 90
       50
102
RTVSPost2010PropOp42
 70
     1
102
RTVSPost2010Prop43
 90
        3
102
RTVSPost2010PropOp43
 70
     1
102
RTVSPost2010Prop44ColorIndex
 90
        5
102
RTVSPost2010Prop44ColorRGB
 90
      255
102
RTVSPost2010PropOp44
 70
     1
102
RTVSPost2010Prop45
280
     0
102
RTVSPost2010PropOp45
 70
     1
102
RTVSPost2010Prop46
 90
       50
102
RTVSPost2010PropOp46
 70
     1
102
RTVSPost2010Prop47
 90
       50
102
RTVSPost2010PropOp47
 70
     1
102
RTVSPost2010Prop48
 90
       50
102
RTVSPost2010PropOp48
 70
     1
102
RTVSPost2010Prop49
280
     0
102
RTVSPost2010PropOp49
 70
     1
102
RTVSPost2010Prop50
 90
       50
102
RTVSPost2010PropOp50
 70
     1
102
RTVSPost2010Prop51ColorIndex
 90
      256
102
RTVSPost2010Prop51ColorRGB
 90
-16777216
102
RTVSPost2010PropOp51
 70
     0
102
RTVSPost2010Prop52
140
1.0
102
RTVSPost2010PropOp52
 70
     0
102
RTVSPost2010Prop53
 90
        2
102
RTVSPost2010PropOp53
 70
     1
102
RTVSPost2010Prop54
  1
strokes_ogs.tif
102
RTVSPost2010PropOp54
 70
     1
102
RTVSPost2010Prop55
280
     0
102
RTVSPost2010PropOp55
 70
     1
102
RTVSPost2010Prop56
140
1.0
102
RTVSPost2010PropOp56
 70
     1
102
RTVSPost2010Prop57
140
1.0
102
RTVSPost2010PropOp57
 70
     1
102
RTVSPropertyOp0
 70
     1
102
RTVSPropertyOp1
 70
     1
102
RTVSPropertyOp2
 70
     1
102
RTVSPropertyOp3
 70
     1
102
RTVSPropertyOp4
 70
     1
102
RTVSPropertyOp5
 70
     1
102
RTVSPropertyOp6
 70
     1
102
RTVSPropertyOp7
 70
     1
102
RTVSPropertyOp8
 70
     1
102
RTVSPropertyOp9
 70
     1
102
RTVSPropertyOp10
 70
     1
102
RTVSPropertyOp11
 70
     1
102
RTVSPropertyOp12
 70
     1
102
RTVSPropertyOp13
 70
     1
102
RTVSPropertyOp14
 70
     1
102
RTVSPropertyOp15
 70
     1
102
RTVSPropertyOp16
 70
     1
102
RTVSPropertyOp17
 70
     1
102
RTVSPropertyOp18
 70
     1
102
RTVSPropertyOp19
 70
     1
102
RTVSPropertyOp20
 70
     1
102
RTVSPropertyOp21
 70
     1
102
RTVSPropertyOp22
 70
     1
102
RTVSPropertyOp23
 70
     1
102
RTVSPropertyOp24
 70
     1
102
RTVSPropertyOp25
 70
     1
102
RTVSPropertyOp26
 70
     1
102
RTVSPropertyOp27
 70
     1
102
RTVSPropertyOp28
 70
     1
102
RTVSPropertyOp29
 70
     1
102
RTVSPropertyOp30
 70
     1
102
RTVSPropertyOp31
 70
     1
102
RTVSPropertyOp32
 70
     1
102
RTVSPropertyOp33
 70
     1
102
RTVSPropertyOp34
 70
     1
102
RTVSPropertyOp35
 70
     1
102
RTVSPropertyOp36
 70
     1
102
RTVSPropertyOp37
 70
     1
102
RTVSPropertyOp38
 70
     1
102
RTVSPropertyOp39
 70
     1
102
RTVSPropertyOp40
 70
     1
102
RTVSPropertyOp41
 70
     1
102
RTVSPropertyOp42
 70
     1
102
RTVSPropertyOp43
 70
     1
102
RTVSPropertyOp44
 70
     1
102
RTVSPropertyOp45
 70
     1
102
RTVSPropertyOp46
 70
     1
102
RTVSPropertyOp47
 70
     1
102
RTVSPropertyOp48
 70
     1
102
RTVSPropertyOp49
 70
     1
102
RTVSPropertyOp50
 70
     1
102
RTVSPropertyOp51
 70
     0
102
RTVSPropertyOp52
 70
     0
102
RTVSPropertyOp53
 70
     1
102
RTVSPropertyOp54
 70
     1
102
RTVSPropertyOp55
 70
     1
102
RTVSPropertyOp56
 70
     1
102
RTVSPropertyOp57
 70
     1
102
RTVSPropertyOp58
 70
     1
102
RTVSPropertyOp59
 70
     1
102
RTVSPropertyOp60
 70
     1
102
RTVSPropertyOp61
 70
     1
102
RTVSPropertyOp62
 70
     1
  0
XRECORD
  5
441C
102
{ACAD_REACTORS
330
441B
102
}
330
441B
100
AcDbXrecord
280
     1
102
RTVSPost2010Prop28
280
     0
102
RTVSPost2010PropOp28
 70
     1
102
RTVSPost2010Prop29
280
     1
102
RTVSPost2010PropOp29
 70
     1
102
RTVSPost2010Prop30
280
     1
102
RTVSPost2010PropOp30
 70
     1
102
RTVSPost2010Prop31
280
     0
102
RTVSPost2010PropOp31
 70
     1
102
RTVSPost2010Prop32
280
     0
102
RTVSPost2010PropOp32
 70
     1
102
RTVSPost2010Prop33
280
     0
102
RTVSPost2010PropOp33
 70
     1
102
RTVSPost2010Prop34
280
     0
102
RTVSPost2010PropOp34
 70
     1
102
RTVSPost2010Prop35
280
     0
102
RTVSPost2010PropOp35
 70
     1
102
RTVSPost2010Prop36
280
     0
102
RTVSPost2010PropOp36
 70
     1
102
RTVSPost2010Prop37
 90
       50
102
RTVSPost2010PropOp37
 70
     1
102
RTVSPost2010Prop38
140
0.0
102
RTVSPost2010PropOp38
 70
     1
102
RTVSPost2010Prop39
140
1.0
102
RTVSPost2010PropOp39
 70
     1
102
RTVSPost2010Prop40
 90
        0
102
RTVSPost2010PropOp40
 70
     1
102
RTVSPost2010Prop41ColorIndex
 90
       18
102
RTVSPost2010Prop41ColorRGB
 90
        0
102
RTVSPost2010PropOp41
 70
     1
102
RTVSPost2010Prop42
 90
       50
102
RTVSPost2010PropOp42
 70
     1
102
RTVSPost2010Prop43
 90
        3
102
RTVSPost2010PropOp43
 70
     1
102
RTVSPost2010Prop44ColorIndex
 90
        5
102
RTVSPost2010Prop44ColorRGB
 90
      255
102
RTVSPost2010PropOp44
 70
     1
102
RTVSPost2010Prop45
280
     0
102
RTVSPost2010PropOp45
 70
     1
102
RTVSPost2010Prop46
 90
       50
102
RTVSPost2010PropOp46
 70
     1
102
RTVSPost2010Prop47
 90
       50
102
RTVSPost2010PropOp47
 70
     1
102
RTVSPost2010Prop48
 90
       50
102
RTVSPost2010PropOp48
 70
     1
102
RTVSPost2010Prop49
280
     0
102
RTVSPost2010PropOp49
 70
     1
102
RTVSPost2010Prop50
 90
       50
102
RTVSPost2010PropOp50
 70
     1
102
RTVSPost2010Prop51ColorIndex
 90
      256
102
RTVSPost2010Prop51ColorRGB
 90
-16777216
102
RTVSPost2010PropOp51
 70
     0
102
RTVSPost2010Prop52
140
1.0
102
RTVSPost2010PropOp52
 70
     0
102
RTVSPost2010Prop53
 90
        2
102
RTVSPost2010PropOp53
 70
     1
102
RTVSPost2010Prop54
  1
strokes_ogs.tif
102
RTVSPost2010PropOp54
 70
     1
102
RTVSPost2010Prop55
280
     0
102
RTVSPost2010PropOp55
 70
     1
102
RTVSPost2010Prop56
140
1.0
102
RTVSPost2010PropOp56
 70
     1
102
RTVSPost2010Prop57
140
1.0
102
RTVSPost2010PropOp57
 70
     1
102
RTVSPropertyOp0
 70
     1
102
RTVSPropertyOp1
 70
     1
102
RTVSPropertyOp2
 70
     1
102
RTVSPropertyOp3
 70
     1
102
RTVSPropertyOp4
 70
     1
102
RTVSPropertyOp5
 70
     1
102
RTVSPropertyOp6
 70
     1
102
RTVSPropertyOp7
 70
     1
102
RTVSPropertyOp8
 70
     1
102
RTVSPropertyOp9
 70
     1
102
RTVSPropertyOp10
 70
     1
102
RTVSPropertyOp11
 70
     1
102
RTVSPropertyOp12
 70
     1
102
RTVSPropertyOp13
 70
     1
102
RTVSPropertyOp14
 70
     1
102
RTVSPropertyOp15
 70
     1
102
RTVSPropertyOp16
 70
     1
102
RTVSPropertyOp17
 70
     1
102
RTVSPropertyOp18
 70
     1
102
RTVSPropertyOp19
 70
     1
102
RTVSPropertyOp20
 70
     1
102
RTVSPropertyOp21
 70
     1
102
RTVSPropertyOp22
 70
     1
102
RTVSPropertyOp23
 70
     1
102
RTVSPropertyOp24
 70
     1
102
RTVSPropertyOp25
 70
     1
102
RTVSPropertyOp26
 70
     1
102
RTVSPropertyOp27
 70
     1
102
RTVSPropertyOp28
 70
     1
102
RTVSPropertyOp29
 70
     1
102
RTVSPropertyOp30
 70
     1
102
RTVSPropertyOp31
 70
     1
102
RTVSPropertyOp32
 70
     1
102
RTVSPropertyOp33
 70
     1
102
RTVSPropertyOp34
 70
     1
102
RTVSPropertyOp35
 70
     1
102
RTVSPropertyOp36
 70
     1
102
RTVSPropertyOp37
 70
     1
102
RTVSPropertyOp38
 70
     1
102
RTVSPropertyOp39
 70
     1
102
RTVSPropertyOp40
 70
     1
102
RTVSPropertyOp41
 70
     1
102
RTVSPropertyOp42
 70
     1
102
RTVSPropertyOp43
 70
     1
102
RTVSPropertyOp44
 70
     1
102
RTVSPropertyOp45
 70
     1
102
RTVSPropertyOp46
 70
     1
102
RTVSPropertyOp47
 70
     1
102
RTVSPropertyOp48
 70
     1
102
RTVSPropertyOp49
 70
     1
102
RTVSPropertyOp50
 70
     1
102
RTVSPropertyOp51
 70
     0
102
RTVSPropertyOp52
 70
     0
102
RTVSPropertyOp53
 70
     1
102
RTVSPropertyOp54
 70
     1
102
RTVSPropertyOp55
 70
     1
102
RTVSPropertyOp56
 70
     1
102
RTVSPropertyOp57
 70
     1
102
RTVSPropertyOp58
 70
     1
102
RTVSPropertyOp59
 70
     1
102
RTVSPropertyOp60
 70
     1
102
RTVSPropertyOp61
 70
     1
102
RTVSPropertyOp62
 70
     1
  0
XRECORD
  5
441E
102
{ACAD_REACTORS
330
441D
102
}
330
441D
100
AcDbXrecord
280
     1
102
RTVSPost2010Prop28
280
     0
102
RTVSPost2010PropOp28
 70
     1
102
RTVSPost2010Prop29
280
     1
102
RTVSPost2010PropOp29
 70
     1
102
RTVSPost2010Prop30
280
     1
102
RTVSPost2010PropOp30
 70
     1
102
RTVSPost2010Prop31
280
     0
102
RTVSPost2010PropOp31
 70
     1
102
RTVSPost2010Prop32
280
     0
102
RTVSPost2010PropOp32
 70
     1
102
RTVSPost2010Prop33
280
     0
102
RTVSPost2010PropOp33
 70
     1
102
RTVSPost2010Prop34
280
     0
102
RTVSPost2010PropOp34
 70
     1
102
RTVSPost2010Prop35
280
     0
102
RTVSPost2010PropOp35
 70
     1
102
RTVSPost2010Prop36
280
     0
102
RTVSPost2010PropOp36
 70
     1
102
RTVSPost2010Prop37
 90
       50
102
RTVSPost2010PropOp37
 70
     1
102
RTVSPost2010Prop38
140
0.0
102
RTVSPost2010PropOp38
 70
     1
102
RTVSPost2010Prop39
140
1.0
102
RTVSPost2010PropOp39
 70
     1
102
RTVSPost2010Prop40
 90
        0
102
RTVSPost2010PropOp40
 70
     1
102
RTVSPost2010Prop41ColorIndex
 90
       18
102
RTVSPost2010Prop41ColorRGB
 90
        0
102
RTVSPost2010PropOp41
 70
     1
102
RTVSPost2010Prop42
 90
       50
102
RTVSPost2010PropOp42
 70
     1
102
RTVSPost2010Prop43
 90
        3
102
RTVSPost2010PropOp43
 70
     1
102
RTVSPost2010Prop44ColorIndex
 90
        5
102
RTVSPost2010Prop44ColorRGB
 90
      255
102
RTVSPost2010PropOp44
 70
     1
102
RTVSPost2010Prop45
280
     0
102
RTVSPost2010PropOp45
 70
     1
102
RTVSPost2010Prop46
 90
       50
102
RTVSPost2010PropOp46
 70
     1
102
RTVSPost2010Prop47
 90
       50
102
RTVSPost2010PropOp47
 70
     1
102
RTVSPost2010Prop48
 90
       50
102
RTVSPost2010PropOp48
 70
     1
102
RTVSPost2010Prop49
280
     0
102
RTVSPost2010PropOp49
 70
     1
102
RTVSPost2010Prop50
 90
       50
102
RTVSPost2010PropOp50
 70
     1
102
RTVSPost2010Prop51ColorIndex
 90
      256
102
RTVSPost2010Prop51ColorRGB
 90
-16777216
102
RTVSPost2010PropOp51
 70
     0
102
RTVSPost2010Prop52
140
1.0
102
RTVSPost2010PropOp52
 70
     0
102
RTVSPost2010Prop53
 90
        2
102
RTVSPost2010PropOp53
 70
     1
102
RTVSPost2010Prop54
  1
strokes_ogs.tif
102
RTVSPost2010PropOp54
 70
     1
102
RTVSPost2010Prop55
280
     0
102
RTVSPost2010PropOp55
 70
     1
102
RTVSPost2010Prop56
140
1.0
102
RTVSPost2010PropOp56
 70
     1
102
RTVSPost2010Prop57
140
1.0
102
RTVSPost2010PropOp57
 70
     1
102
RTVSPropertyOp0
 70
     1
102
RTVSPropertyOp1
 70
     1
102
RTVSPropertyOp2
 70
     1
102
RTVSPropertyOp3
 70
     1
102
RTVSPropertyOp4
 70
     1
102
RTVSPropertyOp5
 70
     1
102
RTVSPropertyOp6
 70
     1
102
RTVSPropertyOp7
 70
     1
102
RTVSPropertyOp8
 70
     1
102
RTVSPropertyOp9
 70
     1
102
RTVSPropertyOp10
 70
     1
102
RTVSPropertyOp11
 70
     1
102
RTVSPropertyOp12
 70
     1
102
RTVSPropertyOp13
 70
     1
102
RTVSPropertyOp14
 70
     1
102
RTVSPropertyOp15
 70
     1
102
RTVSPropertyOp16
 70
     1
102
RTVSPropertyOp17
 70
     1
102
RTVSPropertyOp18
 70
     1
102
RTVSPropertyOp19
 70
     1
102
RTVSPropertyOp20
 70
     1
102
RTVSPropertyOp21
 70
     1
102
RTVSPropertyOp22
 70
     1
102
RTVSPropertyOp23
 70
     1
102
RTVSPropertyOp24
 70
     1
102
RTVSPropertyOp25
 70
     1
102
RTVSPropertyOp26
 70
     1
102
RTVSPropertyOp27
 70
     1
102
RTVSPropertyOp28
 70
     1
102
RTVSPropertyOp29
 70
     1
102
RTVSPropertyOp30
 70
     1
102
RTVSPropertyOp31
 70
     1
102
RTVSPropertyOp32
 70
     1
102
RTVSPropertyOp33
 70
     1
102
RTVSPropertyOp34
 70
     1
102
RTVSPropertyOp35
 70
     1
102
RTVSPropertyOp36
 70
     1
102
RTVSPropertyOp37
 70
     1
102
RTVSPropertyOp38
 70
     1
102
RTVSPropertyOp39
 70
     1
102
RTVSPropertyOp40
 70
     1
102
RTVSPropertyOp41
 70
     1
102
RTVSPropertyOp42
 70
     1
102
RTVSPropertyOp43
 70
     1
102
RTVSPropertyOp44
 70
     1
102
RTVSPropertyOp45
 70
     1
102
RTVSPropertyOp46
 70
     1
102
RTVSPropertyOp47
 70
     1
102
RTVSPropertyOp48
 70
     1
102
RTVSPropertyOp49
 70
     1
102
RTVSPropertyOp50
 70
     1
102
RTVSPropertyOp51
 70
     0
102
RTVSPropertyOp52
 70
     0
102
RTVSPropertyOp53
 70
     1
102
RTVSPropertyOp54
 70
     1
102
RTVSPropertyOp55
 70
     1
102
RTVSPropertyOp56
 70
     1
102
RTVSPropertyOp57
 70
     1
102
RTVSPropertyOp58
 70
     1
102
RTVSPropertyOp59
 70
     1
102
RTVSPropertyOp60
 70
     1
102
RTVSPropertyOp61
 70
     1
102
RTVSPropertyOp62
 70
     1
  0
XRECORD
  5
440E
102
{ACAD_REACTORS
330
440D
102
}
330
440D
100
AcDbXrecord
280
     1
102
RTVSPost2010Prop28
280
     0
102
RTVSPost2010PropOp28
 70
     1
102
RTVSPost2010Prop29
280
     1
102
RTVSPost2010PropOp29
 70
     1
102
RTVSPost2010Prop30
280
     1
102
RTVSPost2010PropOp30
 70
     1
102
RTVSPost2010Prop31
280
     0
102
RTVSPost2010PropOp31
 70
     1
102
RTVSPost2010Prop32
280
     0
102
RTVSPost2010PropOp32
 70
     1
102
RTVSPost2010Prop33
280
     0
102
RTVSPost2010PropOp33
 70
     1
102
RTVSPost2010Prop34
280
     0
102
RTVSPost2010PropOp34
 70
     1
102
RTVSPost2010Prop35
280
     0
102
RTVSPost2010PropOp35
 70
     1
102
RTVSPost2010Prop36
280
     0
102
RTVSPost2010PropOp36
 70
     1
102
RTVSPost2010Prop37
 90
       50
102
RTVSPost2010PropOp37
 70
     1
102
RTVSPost2010Prop38
140
0.0
102
RTVSPost2010PropOp38
 70
     1
102
RTVSPost2010Prop39
140
1.0
102
RTVSPost2010PropOp39
 70
     1
102
RTVSPost2010Prop40
 90
        0
102
RTVSPost2010PropOp40
 70
     1
102
RTVSPost2010Prop41ColorIndex
 90
       18
102
RTVSPost2010Prop41ColorRGB
 90
        0
102
RTVSPost2010PropOp41
 70
     1
102
RTVSPost2010Prop42
 90
       50
102
RTVSPost2010PropOp42
 70
     1
102
RTVSPost2010Prop43
 90
        3
102
RTVSPost2010PropOp43
 70
     1
102
RTVSPost2010Prop44ColorIndex
 90
        5
102
RTVSPost2010Prop44ColorRGB
 90
      255
102
RTVSPost2010PropOp44
 70
     1
102
RTVSPost2010Prop45
280
     0
102
RTVSPost2010PropOp45
 70
     1
102
RTVSPost2010Prop46
 90
       50
102
RTVSPost2010PropOp46
 70
     1
102
RTVSPost2010Prop47
 90
       50
102
RTVSPost2010PropOp47
 70
     1
102
RTVSPost2010Prop48
 90
       50
102
RTVSPost2010PropOp48
 70
     1
102
RTVSPost2010Prop49
280
     0
102
RTVSPost2010PropOp49
 70
     1
102
RTVSPost2010Prop50
 90
       50
102
RTVSPost2010PropOp50
 70
     1
102
RTVSPost2010Prop51ColorIndex
 90
      256
102
RTVSPost2010Prop51ColorRGB
 90
-16777216
102
RTVSPost2010PropOp51
 70
     0
102
RTVSPost2010Prop52
140
1.0
102
RTVSPost2010PropOp52
 70
     0
102
RTVSPost2010Prop53
 90
        2
102
RTVSPost2010PropOp53
 70
     1
102
RTVSPost2010Prop54
  1
strokes_ogs.tif
102
RTVSPost2010PropOp54
 70
     1
102
RTVSPost2010Prop55
280
     0
102
RTVSPost2010PropOp55
 70
     1
102
RTVSPost2010Prop56
140
1.0
102
RTVSPost2010PropOp56
 70
     1
102
RTVSPost2010Prop57
140
1.0
102
RTVSPost2010PropOp57
 70
     1
102
RTVSPropertyOp0
 70
     1
102
RTVSPropertyOp1
 70
     1
102
RTVSPropertyOp2
 70
     1
102
RTVSPropertyOp3
 70
     1
102
RTVSPropertyOp4
 70
     1
102
RTVSPropertyOp5
 70
     1
102
RTVSPropertyOp6
 70
     1
102
RTVSPropertyOp7
 70
     1
102
RTVSPropertyOp8
 70
     1
102
RTVSPropertyOp9
 70
     1
102
RTVSPropertyOp10
 70
     1
102
RTVSPropertyOp11
 70
     1
102
RTVSPropertyOp12
 70
     1
102
RTVSPropertyOp13
 70
     1
102
RTVSPropertyOp14
 70
     1
102
RTVSPropertyOp15
 70
     1
102
RTVSPropertyOp16
 70
     1
102
RTVSPropertyOp17
 70
     1
102
RTVSPropertyOp18
 70
     1
102
RTVSPropertyOp19
 70
     1
102
RTVSPropertyOp20
 70
     1
102
RTVSPropertyOp21
 70
     1
102
RTVSPropertyOp22
 70
     1
102
RTVSPropertyOp23
 70
     1
102
RTVSPropertyOp24
 70
     1
102
RTVSPropertyOp25
 70
     1
102
RTVSPropertyOp26
 70
     1
102
RTVSPropertyOp27
 70
     1
102
RTVSPropertyOp28
 70
     1
102
RTVSPropertyOp29
 70
     1
102
RTVSPropertyOp30
 70
     1
102
RTVSPropertyOp31
 70
     1
102
RTVSPropertyOp32
 70
     1
102
RTVSPropertyOp33
 70
     1
102
RTVSPropertyOp34
 70
     1
102
RTVSPropertyOp35
 70
     1
102
RTVSPropertyOp36
 70
     1
102
RTVSPropertyOp37
 70
     1
102
RTVSPropertyOp38
 70
     1
102
RTVSPropertyOp39
 70
     1
102
RTVSPropertyOp40
 70
     1
102
RTVSPropertyOp41
 70
     1
102
RTVSPropertyOp42
 70
     1
102
RTVSPropertyOp43
 70
     1
102
RTVSPropertyOp44
 70
     1
102
RTVSPropertyOp45
 70
     1
102
RTVSPropertyOp46
 70
     1
102
RTVSPropertyOp47
 70
     1
102
RTVSPropertyOp48
 70
     1
102
RTVSPropertyOp49
 70
     1
102
RTVSPropertyOp50
 70
     1
102
RTVSPropertyOp51
 70
     0
102
RTVSPropertyOp52
 70
     0
102
RTVSPropertyOp53
 70
     1
102
RTVSPropertyOp54
 70
     1
102
RTVSPropertyOp55
 70
     1
102
RTVSPropertyOp56
 70
     1
102
RTVSPropertyOp57
 70
     1
102
RTVSPropertyOp58
 70
     1
102
RTVSPropertyOp59
 70
     1
102
RTVSPropertyOp60
 70
     1
102
RTVSPropertyOp61
 70
     1
102
RTVSPropertyOp62
 70
     1
  0
XRECORD
  5
4402
102
{ACAD_REACTORS
330
4401
102
}
330
4401
100
AcDbXrecord
280
     1
102
RTVSPost2010Prop28
280
     0
102
RTVSPost2010PropOp28
 70
     1
102
RTVSPost2010Prop29
280
     1
102
RTVSPost2010PropOp29
 70
     1
102
RTVSPost2010Prop30
280
     1
102
RTVSPost2010PropOp30
 70
     1
102
RTVSPost2010Prop31
280
     0
102
RTVSPost2010PropOp31
 70
     1
102
RTVSPost2010Prop32
280
     0
102
RTVSPost2010PropOp32
 70
     1
102
RTVSPost2010Prop33
280
     0
102
RTVSPost2010PropOp33
 70
     1
102
RTVSPost2010Prop34
280
     0
102
RTVSPost2010PropOp34
 70
     1
102
RTVSPost2010Prop35
280
     0
102
RTVSPost2010PropOp35
 70
     1
102
RTVSPost2010Prop36
280
     0
102
RTVSPost2010PropOp36
 70
     1
102
RTVSPost2010Prop37
 90
       50
102
RTVSPost2010PropOp37
 70
     1
102
RTVSPost2010Prop38
140
0.0
102
RTVSPost2010PropOp38
 70
     1
102
RTVSPost2010Prop39
140
1.0
102
RTVSPost2010PropOp39
 70
     1
102
RTVSPost2010Prop40
 90
        0
102
RTVSPost2010PropOp40
 70
     1
102
RTVSPost2010Prop41ColorIndex
 90
       18
102
RTVSPost2010Prop41ColorRGB
 90
        0
102
RTVSPost2010PropOp41
 70
     1
102
RTVSPost2010Prop42
 90
       50
102
RTVSPost2010PropOp42
 70
     1
102
RTVSPost2010Prop43
 90
        3
102
RTVSPost2010PropOp43
 70
     1
102
RTVSPost2010Prop44ColorIndex
 90
        5
102
RTVSPost2010Prop44ColorRGB
 90
      255
102
RTVSPost2010PropOp44
 70
     1
102
RTVSPost2010Prop45
280
     0
102
RTVSPost2010PropOp45
 70
     1
102
RTVSPost2010Prop46
 90
       50
102
RTVSPost2010PropOp46
 70
     1
102
RTVSPost2010Prop47
 90
       50
102
RTVSPost2010PropOp47
 70
     1
102
RTVSPost2010Prop48
 90
       50
102
RTVSPost2010PropOp48
 70
     1
102
RTVSPost2010Prop49
280
     0
102
RTVSPost2010PropOp49
 70
     1
102
RTVSPost2010Prop50
 90
       50
102
RTVSPost2010PropOp50
 70
     1
102
RTVSPost2010Prop51ColorIndex
 90
      256
102
RTVSPost2010Prop51ColorRGB
 90
-16777216
102
RTVSPost2010PropOp51
 70
     0
102
RTVSPost2010Prop52
140
1.0
102
RTVSPost2010PropOp52
 70
     0
102
RTVSPost2010Prop53
 90
        2
102
RTVSPost2010PropOp53
 70
     1
102
RTVSPost2010Prop54
  1
strokes_ogs.tif
102
RTVSPost2010PropOp54
 70
     1
102
RTVSPost2010Prop55
280
     0
102
RTVSPost2010PropOp55
 70
     1
102
RTVSPost2010Prop56
140
1.0
102
RTVSPost2010PropOp56
 70
     1
102
RTVSPost2010Prop57
140
1.0
102
RTVSPost2010PropOp57
 70
     1
102
RTVSPropertyOp0
 70
     1
102
RTVSPropertyOp1
 70
     1
102
RTVSPropertyOp2
 70
     1
102
RTVSPropertyOp3
 70
     1
102
RTVSPropertyOp4
 70
     1
102
RTVSPropertyOp5
 70
     1
102
RTVSPropertyOp6
 70
     1
102
RTVSPropertyOp7
 70
     1
102
RTVSPropertyOp8
 70
     1
102
RTVSPropertyOp9
 70
     1
102
RTVSPropertyOp10
 70
     1
102
RTVSPropertyOp11
 70
     1
102
RTVSPropertyOp12
 70
     1
102
RTVSPropertyOp13
 70
     1
102
RTVSPropertyOp14
 70
     1
102
RTVSPropertyOp15
 70
     1
102
RTVSPropertyOp16
 70
     1
102
RTVSPropertyOp17
 70
     1
102
RTVSPropertyOp18
 70
     1
102
RTVSPropertyOp19
 70
     1
102
RTVSPropertyOp20
 70
     1
102
RTVSPropertyOp21
 70
     1
102
RTVSPropertyOp22
 70
     1
102
RTVSPropertyOp23
 70
     1
102
RTVSPropertyOp24
 70
     1
102
RTVSPropertyOp25
 70
     1
102
RTVSPropertyOp26
 70
     1
102
RTVSPropertyOp27
 70
     1
102
RTVSPropertyOp28
 70
     1
102
RTVSPropertyOp29
 70
     1
102
RTVSPropertyOp30
 70
     1
102
RTVSPropertyOp31
 70
     1
102
RTVSPropertyOp32
 70
     1
102
RTVSPropertyOp33
 70
     1
102
RTVSPropertyOp34
 70
     1
102
RTVSPropertyOp35
 70
     1
102
RTVSPropertyOp36
 70
     1
102
RTVSPropertyOp37
 70
     1
102
RTVSPropertyOp38
 70
     1
102
RTVSPropertyOp39
 70
     1
102
RTVSPropertyOp40
 70
     1
102
RTVSPropertyOp41
 70
     1
102
RTVSPropertyOp42
 70
     1
102
RTVSPropertyOp43
 70
     1
102
RTVSPropertyOp44
 70
     1
102
RTVSPropertyOp45
 70
     1
102
RTVSPropertyOp46
 70
     1
102
RTVSPropertyOp47
 70
     1
102
RTVSPropertyOp48
 70
     1
102
RTVSPropertyOp49
 70
     1
102
RTVSPropertyOp50
 70
     1
102
RTVSPropertyOp51
 70
     0
102
RTVSPropertyOp52
 70
     0
102
RTVSPropertyOp53
 70
     1
102
RTVSPropertyOp54
 70
     1
102
RTVSPropertyOp55
 70
     1
102
RTVSPropertyOp56
 70
     1
102
RTVSPropertyOp57
 70
     1
102
RTVSPropertyOp58
 70
     1
102
RTVSPropertyOp59
 70
     1
102
RTVSPropertyOp60
 70
     1
102
RTVSPropertyOp61
 70
     1
102
RTVSPropertyOp62
 70
     1
  0
XRECORD
  5
4420
102
{ACAD_REACTORS
330
441F
102
}
330
441F
100
AcDbXrecord
280
     1
102
RTVSPost2010Prop28
280
     0
102
RTVSPost2010PropOp28
 70
     1
102
RTVSPost2010Prop29
280
     1
102
RTVSPost2010PropOp29
 70
     1
102
RTVSPost2010Prop30
280
     1
102
RTVSPost2010PropOp30
 70
     1
102
RTVSPost2010Prop31
280
     0
102
RTVSPost2010PropOp31
 70
     1
102
RTVSPost2010Prop32
280
     0
102
RTVSPost2010PropOp32
 70
     1
102
RTVSPost2010Prop33
280
     0
102
RTVSPost2010PropOp33
 70
     1
102
RTVSPost2010Prop34
280
     0
102
RTVSPost2010PropOp34
 70
     1
102
RTVSPost2010Prop35
280
     0
102
RTVSPost2010PropOp35
 70
     1
102
RTVSPost2010Prop36
280
     0
102
RTVSPost2010PropOp36
 70
     1
102
RTVSPost2010Prop37
 90
       50
102
RTVSPost2010PropOp37
 70
     1
102
RTVSPost2010Prop38
140
0.0
102
RTVSPost2010PropOp38
 70
     1
102
RTVSPost2010Prop39
140
1.0
102
RTVSPost2010PropOp39
 70
     1
102
RTVSPost2010Prop40
 90
        0
102
RTVSPost2010PropOp40
 70
     1
102
RTVSPost2010Prop41ColorIndex
 90
       18
102
RTVSPost2010Prop41ColorRGB
 90
        0
102
RTVSPost2010PropOp41
 70
     1
102
RTVSPost2010Prop42
 90
       50
102
RTVSPost2010PropOp42
 70
     1
102
RTVSPost2010Prop43
 90
        3
102
RTVSPost2010PropOp43
 70
     1
102
RTVSPost2010Prop44ColorIndex
 90
        5
102
RTVSPost2010Prop44ColorRGB
 90
      255
102
RTVSPost2010PropOp44
 70
     1
102
RTVSPost2010Prop45
280
     0
102
RTVSPost2010PropOp45
 70
     1
102
RTVSPost2010Prop46
 90
       50
102
RTVSPost2010PropOp46
 70
     1
102
RTVSPost2010Prop47
 90
       50
102
RTVSPost2010PropOp47
 70
     1
102
RTVSPost2010Prop48
 90
       50
102
RTVSPost2010PropOp48
 70
     1
102
RTVSPost2010Prop49
280
     0
102
RTVSPost2010PropOp49
 70
     1
102
RTVSPost2010Prop50
 90
       50
102
RTVSPost2010PropOp50
 70
     1
102
RTVSPost2010Prop51ColorIndex
 90
      256
102
RTVSPost2010Prop51ColorRGB
 90
-16777216
102
RTVSPost2010PropOp51
 70
     0
102
RTVSPost2010Prop52
140
1.0
102
RTVSPost2010PropOp52
 70
     0
102
RTVSPost2010Prop53
 90
        2
102
RTVSPost2010PropOp53
 70
     1
102
RTVSPost2010Prop54
  1
strokes_ogs.tif
102
RTVSPost2010PropOp54
 70
     1
102
RTVSPost2010Prop55
280
     0
102
RTVSPost2010PropOp55
 70
     1
102
RTVSPost2010Prop56
140
1.0
102
RTVSPost2010PropOp56
 70
     1
102
RTVSPost2010Prop57
140
1.0
102
RTVSPost2010PropOp57
 70
     1
102
RTVSPropertyOp0
 70
     1
102
RTVSPropertyOp1
 70
     1
102
RTVSPropertyOp2
 70
     1
102
RTVSPropertyOp3
 70
     1
102
RTVSPropertyOp4
 70
     1
102
RTVSPropertyOp5
 70
     1
102
RTVSPropertyOp6
 70
     1
102
RTVSPropertyOp7
 70
     1
102
RTVSPropertyOp8
 70
     1
102
RTVSPropertyOp9
 70
     1
102
RTVSPropertyOp10
 70
     1
102
RTVSPropertyOp11
 70
     1
102
RTVSPropertyOp12
 70
     1
102
RTVSPropertyOp13
 70
     1
102
RTVSPropertyOp14
 70
     1
102
RTVSPropertyOp15
 70
     1
102
RTVSPropertyOp16
 70
     1
102
RTVSPropertyOp17
 70
     1
102
RTVSPropertyOp18
 70
     1
102
RTVSPropertyOp19
 70
     1
102
RTVSPropertyOp20
 70
     1
102
RTVSPropertyOp21
 70
     1
102
RTVSPropertyOp22
 70
     1
102
RTVSPropertyOp23
 70
     1
102
RTVSPropertyOp24
 70
     1
102
RTVSPropertyOp25
 70
     1
102
RTVSPropertyOp26
 70
     1
102
RTVSPropertyOp27
 70
     1
102
RTVSPropertyOp28
 70
     1
102
RTVSPropertyOp29
 70
     1
102
RTVSPropertyOp30
 70
     1
102
RTVSPropertyOp31
 70
     1
102
RTVSPropertyOp32
 70
     1
102
RTVSPropertyOp33
 70
     1
102
RTVSPropertyOp34
 70
     1
102
RTVSPropertyOp35
 70
     1
102
RTVSPropertyOp36
 70
     1
102
RTVSPropertyOp37
 70
     1
102
RTVSPropertyOp38
 70
     1
102
RTVSPropertyOp39
 70
     1
102
RTVSPropertyOp40
 70
     1
102
RTVSPropertyOp41
 70
     1
102
RTVSPropertyOp42
 70
     1
102
RTVSPropertyOp43
 70
     1
102
RTVSPropertyOp44
 70
     1
102
RTVSPropertyOp45
 70
     1
102
RTVSPropertyOp46
 70
     1
102
RTVSPropertyOp47
 70
     1
102
RTVSPropertyOp48
 70
     1
102
RTVSPropertyOp49
 70
     1
102
RTVSPropertyOp50
 70
     1
102
RTVSPropertyOp51
 70
     0
102
RTVSPropertyOp52
 70
     0
102
RTVSPropertyOp53
 70
     1
102
RTVSPropertyOp54
 70
     1
102
RTVSPropertyOp55
 70
     1
102
RTVSPropertyOp56
 70
     1
102
RTVSPropertyOp57
 70
     1
102
RTVSPropertyOp58
 70
     1
102
RTVSPropertyOp59
 70
     1
102
RTVSPropertyOp60
 70
     1
102
RTVSPropertyOp61
 70
     1
102
RTVSPropertyOp62
 70
     1
  0
ENDSEC
  0
EOF
